osu file format v14

[General]
AudioFilename: audio.mp3
AudioLeadIn: 0
PreviewTime: 208973
Countdown: 0
SampleSet: Soft
StackLeniency: 0.5
Mode: 0
LetterboxInBreaks: 0
WidescreenStoryboard: 1

[Editor]
Bookmarks: 6063,10839,29943,49048,63376,68152,87257,101585,113525,130540,142182,146958,151734,185167,201884,211436,242481,244869,254421
DistanceSpacing: 0.8
BeatDivisor: 4
GridSize: 4
TimelineZoom: 5.699997

[Metadata]
Title:Shiori
TitleUnicode:栞
Artist:shiho
ArtistUnicode:しほ
Creator:Kumocha
Version:HatsuNecho's Insane
Source:
Tags:[Hatsune Miku] Necho Baack shirokumocha Yuuma2 泣きたくなるほど嬉しい日々に Nakitakunaruhodo Ureshii Hibini クリープハイプ CreepHyp cover female vocals 歌ってみた utattemita 歌い手 utaite j-pop pop jpop japanese
BeatmapID:3579897
BeatmapSetID:1745907

[Difficulty]
HPDrainRate:5
CircleSize:4
OverallDifficulty:8
ApproachRate:9
SliderMultiplier:1.3
SliderTickRate:1

[Events]
//Background and Video events
0,0,"bg.jpg",0,0
//Break Periods
//Storyboard Layer 0 (Background)
//Storyboard Layer 1 (Fail)
//Storyboard Layer 2 (Pass)
//Storyboard Layer 3 (Foreground)
//Storyboard Layer 4 (Overlay)
//Storyboard Sound Samples

[TimingPoints]
1287,298.507462686567,4,2,1,60,1,0
1287,-133.333333333333,4,2,1,60,0,0
5316,-200,4,2,1,60,0,0
6063,-133.333333333333,4,2,1,60,0,0
10839,-133.333333333333,4,2,1,54,0,0
29943,-100,4,2,2,66,0,0
49048,-100,4,2,1,63,0,0
63376,-100,4,2,1,54,0,0
67555,-100,4,2,1,60,0,0
68152,-80,4,2,3,75,0,0
101585,-133.333333333333,4,2,3,75,0,0
103973,-133.333333333333,4,2,1,75,0,0
106361,-133.333333333333,4,2,1,60,0,0
113525,-133.333333333333,4,2,1,54,0,0
130540,-100,4,2,1,54,0,0
132630,-100,4,2,1,42,0,0
142182,-100,4,2,1,54,0,0
146958,-100,4,2,1,48,0,0
149346,-100,4,2,1,51,0,0
150839,-100,4,2,1,57,0,0
151137,-100,4,2,1,60,0,0
151436,-100,4,2,1,63,0,0
151734,-80,4,2,3,78,0,0
185167,-100,4,2,3,78,0,0
189943,-100,4,2,1,54,0,0
200689,-133.333333333333,4,2,1,54,0,0
203675,-100,4,2,1,54,0,0
209048,-100,4,2,3,54,0,0
211436,-80,4,2,3,81,0,0
242481,-100,4,2,3,81,0,0
244869,-80,4,2,3,81,0,0
254421,-80,4,2,3,60,0,0
254645,-80,4,2,3,40,0,0
256809,-80,4,2,3,20,0,0
258003,-80,4,2,3,5,0,0
260391,-80,4,2,3,5,0,0

[Colours]
Combo1 : 255,230,130
Combo2 : 250,180,240
Combo3 : 110,190,225

[HitObjects]
98,156,1287,5,4,3:1:0:0:
98,156,1585,2,0,L|166:148,1,48.750001859665,2|2,0:0|0:0,0:0:0:0:
219,143,1884,1,2,0:0:0:0:
146,150,2033,2,0,B|133:87|133:87|149:55,1,97.50000371933,2|2,0:0|0:0,0:0:0:0:
366,234,2779,2,0,B|379:297|379:297|363:329,1,97.50000371933,2|2,0:0|0:0,0:0:0:0:
364,326,3525,5,2,0:0:0:0:
292,307,3675,2,0,B|258:299|258:299|186:326|186:326|151:321,1,146.250005578995,4|2,3:1|0:0,0:0:0:0:
30,239,4421,2,0,L|131:250,1,97.50000371933,2|2,0:0|0:0,0:0:0:0:
151,253,4869,5,2,0:0:0:0:
81,232,5018,1,2,0:0:0:0:
35,28,5316,2,0,L|48:125,1,97.5,2|2,0:0|0:0,0:0:0:0:
62,138,6063,6,0,P|89:145|127:140,2,48.750001859665,4|0|0,3:2|0:0|3:0,0:0:0:0:
123,217,6510,2,0,P|149:209|180:186,2,48.750001859665,0|0|0,0:0|3:0|0:0,0:0:0:0:
185,122,6958,2,0,P|212:115|250:120,2,48.750001859665,0|0|0,3:0|0:0|3:0,0:0:0:0:
246,43,7406,2,0,P|272:50|303:73,2,48.750001859665,0|0|0,0:0|3:0|0:0,0:0:0:0:
306,135,7854,1,0,3:0:0:0:
405,68,8003,2,0,P|381:74|361:87,1,48.750001859665,0|0,0:0|3:0,0:0:0:0:
415,148,8301,1,0,0:0:0:0:
415,148,8451,6,0,L|429:301,1,146.250005578995,4|0,3:1|0:0,0:0:0:0:
301,367,9197,2,0,P|267:348|261:334,2,48.750001859665
373,355,9645,1,2,0:0:0:0:
173,263,10092,1,2,0:0:0:0:
352,135,10540,1,2,0:0:0:0:
242,120,10839,5,6,3:2:0:0:
242,120,11137,2,0,P|255:156|240:274,1,146.250005578995,2|2,3:2|0:0,0:0:0:0:
98,262,11884,2,0,P|85:226|100:108,1,146.250005578995,2|2,0:0|3:2,0:0:0:0:
147,69,12481,2,0,L|209:67,1,48.750001859665,2|0,0:0|3:2,0:0:0:0:
339,176,12928,6,0,L|401:174,1,48.750001859665,2|0,3:2|0:0,0:0:0:0:
440,225,13227,2,0,B|466:185|466:185|451:136,1,97.50000371933,2|2,3:2|3:2,0:0:0:0:
346,21,13675,2,0,B|306:26|306:26|416:45,1,146.250005578995,2|2,0:0|3:2,0:0:0:0:
482,59,14272,1,2,0:0:0:0:
385,112,14421,5,0,3:2:0:0:
365,115,14719,1,0,3:2:0:0:
345,118,15018,1,0,3:2:0:0:
325,121,15316,1,0,3:2:0:0:
164,69,15615,6,0,P|202:51|267:61,1,97.50000371933,2|2,3:2|3:2,0:0:0:0:
256,55,16063,2,0,L|247:215,1,146.250005578995,2|2,0:0|3:2,0:0:0:0:
190,247,16660,2,0,L|43:238,1,146.250005578995,2|2,0:0|3:2,0:0:0:0:
43,238,17257,5,2,0:0:0:0:
165,319,17555,1,2,0:0:0:0:
154,172,17854,1,2,0:0:0:0:
128,240,18003,5,0,3:2:0:0:
146,245,18301,1,0,3:2:0:0:
165,245,18600,1,0,3:0:0:0:
183,238,18898,1,0,3:0:0:0:
237,336,19197,6,0,P|276:343|321:338,1,73.1250027894975,0|2,3:2|0:0,0:0:0:0:
322,325,19495,2,0,P|348:317|379:317,1,48.750001859665,0|0,3:2|0:0,0:0:0:0:
469,384,19794,2,0,P|449:365|433:338,1,48.750001859665,0|0,3:2|0:0,0:0:0:0:
447,228,20092,2,0,P|440:254|425:281,1,48.750001859665,2|0,3:0|0:0,0:0:0:0:
263,240,20391,6,0,P|321:246|362:238,1,97.50000371933,2|2,3:2|3:2,0:0:0:0:
359,238,20839,2,0,L|379:80,1,146.250005578995,2|2,0:0|3:2,0:0:0:0:
328,38,21436,2,0,L|182:19,1,146.250005578995,2|2,0:0|3:2,0:0:0:0:
182,19,22033,2,0,P|140:70|163:156,1,146.250005578995,2|2,0:0|3:2,0:0:0:0:
215,182,22630,1,2,0:0:0:0:
287,171,22779,5,0,3:2:0:0:
422,242,23078,1,0,3:2:0:0:
493,287,23227,6,0,B|451:280|451:280|427:300|427:300|333:287,1,146.250005578995,2|2,0:0|3:2,0:0:0:0:
355,290,23824,2,0,P|344:219|391:166,1,146.250005578995,2|2,0:0|3:2,0:0:0:0:
462,176,24421,1,2,0:0:0:0:
510,230,24570,5,0,3:2:0:0:
423,348,24869,1,0,3:2:0:0:
350,338,25018,5,2,0:0:0:0:
350,338,25167,2,0,L|339:242,1,97.50000371933,2|2,3:2|3:2,0:0:0:0:
266,248,25615,2,0,L|274:313,1,48.750001859665,2|0,0:0|3:2,0:0:0:0:
161,367,26063,2,0,L|155:318,1,48.750001859665,2|2,3:2|0:0,0:0:0:0:
146,246,26361,1,0,3:2:0:0:
14,180,26660,2,0,L|62:174,1,48.750001859665,2|2,3:2|0:0,0:0:0:0:
107,116,26958,1,0,3:2:0:0:
238,181,27257,2,0,L|189:186,1,48.750001859665,2|2,3:2|0:0,0:0:0:0:
146,246,27555,5,0,3:2:0:0:
128,228,27854,1,0,3:2:0:0:
118,207,28152,1,0,3:2:0:0:
115,182,28451,1,0,3:2:0:0:
210,71,28749,6,0,L|258:65,1,48.750001859665,0|0,3:2|0:0,0:0:0:0:
336,53,29048,1,0,3:2:0:0:
512,35,29197,1,12,0:0:0:0:
402,147,29346,1,0,3:0:0:0:
402,147,29495,1,4,3:0:0:0:
419,21,29645,2,0,L|412:85,1,48.750001859665,8|2,3:2|0:0,0:0:0:0:
405,241,29943,6,0,B|391:210|391:210|405:135,1,97.5,4|0,3:1|0:0,0:0:0:0:
417,139,30242,2,0,L|489:133,1,65,8|2,0:2|0:0,0:0:0:0:
486,214,30540,1,0,3:2:0:0:
486,214,30689,1,0,3:2:0:0:
444,323,30839,2,0,L|380:318,1,65,10|2,0:2|0:0,0:0:0:0:
191,258,31137,2,0,L|255:253,1,65,0|0,3:2|0:0,0:0:0:0:
254,379,31436,1,10,0:2:0:0:
254,379,31585,2,0,B|270:345|270:345|255:248,1,130,2|0,3:2|3:2,0:0:0:0:
115,272,32033,2,0,P|147:277|179:271,1,65,10|2,0:2|0:0,0:0:0:0:
207,133,32331,6,0,L|203:198,1,65,0|0,3:2|0:0,0:0:0:0:
0,122,32630,2,0,P|32:117|64:123,1,65,10|2,0:2|0:0,0:0:0:0:
133,166,32928,1,0,3:2:0:0:
133,166,33078,1,0,3:2:0:0:
127,22,33227,2,0,L|131:87,1,65,10|2,0:2|0:0,0:0:0:0:
131,87,33525,5,0,3:2:0:0:
323,179,33824,1,8,0:2:0:0:
410,14,33973,2,0,L|392:143,1,130,0|0,3:2|3:2,0:0:0:0:
231,188,34421,2,0,B|278:199|278:199|326:176,1,97.5,8|0,0:2|0:0,0:0:0:0:
310,166,34719,6,0,L|322:79,1,65,2|0,3:2|0:0,0:0:0:0:
505,37,35018,2,0,L|493:117,1,65,10|2,0:2|0:0,0:0:0:0:
392,142,35316,1,0,3:2:0:0:
392,142,35466,1,0,3:2:0:0:
478,247,35615,2,0,P|472:215|454:189,1,65,10|2,0:2|0:0,0:0:0:0:
309,320,35913,2,0,P|315:352|333:378,1,65,0|0,3:2|0:0,0:0:0:0:
430,306,36212,1,10,0:2:0:0:
430,306,36361,2,0,B|368:291|368:291|306:321,1,130,2|2,3:2|3:2,0:0:0:0:
241,360,36809,2,0,P|231:321|237:287,1,65,8|2,0:2|0:0,0:0:0:0:
292,245,37107,5,0,3:2:0:0:
103,195,37406,1,8,0:2:0:0:
240,56,37704,1,0,3:2:0:0:
215,130,37854,1,0,3:2:0:0:
163,71,38003,2,0,L|89:64,1,65,8|0,0:2|0:0,0:0:0:0:
215,130,38301,6,0,L|289:123,1,65,0|0,3:2|0:0,0:0:0:0:
333,66,38600,1,8,0:2:0:0:
371,263,38749,2,0,P|349:202|358:139,1,130,0|0,3:2|3:2,0:0:0:0:
410,80,39197,1,8,0:2:0:0:
512,218,39495,5,2,3:2:0:0:
512,218,39794,2,0,P|516:186|506:156,1,65,10|2,0:2|0:0,0:0:0:0:
438,194,40092,1,0,3:2:0:0:
438,194,40242,1,0,3:2:0:0:
287,232,40391,2,0,L|352:240,1,65,10|2,0:2|0:0,0:0:0:0:
317,344,40689,2,0,L|252:336,1,65,0|0,3:2|0:0,0:0:0:0:
139,349,40988,1,10,0:2:0:0:
139,349,41137,2,0,P|79:336|6:355,1,130,2|0,3:2|3:2,0:0:0:0:
72,180,41585,2,0,P|71:221|55:250,1,65,10|2,0:2|0:0,0:0:0:0:
60,242,41884,6,0,P|72:271|70:304,1,65,0|0,3:2|0:0,0:0:0:0:
199,264,42182,2,0,P|168:246|133:235,1,65,10|2,0:2|0:0,0:0:0:0:
217,190,42481,1,0,3:2:0:0:
217,190,42630,1,0,3:2:0:0:
132,103,42779,2,0,P|144:144|143:176,1,65,10|2,0:2|0:0,0:0:0:0:
144,166,43078,5,0,3:2:0:0:
43,55,43376,1,8,0:2:0:0:
117,31,43525,2,0,B|159:29|159:29|192:57|192:57|259:50,1,130,0|0,3:2|3:2,0:0:0:0:
306,16,43973,6,0,P|315:58|301:99,1,65,10|2,0:2|0:0,0:0:0:0:
265,143,44272,1,0,3:0:0:0:
423,215,44570,2,0,P|414:183|418:151,1,65,10|2,0:2|0:0,0:0:0:0:
495,181,44869,1,0,3:2:0:0:
495,181,45018,1,0,3:2:0:0:
461,312,45167,2,0,L|396:319,1,65,10|0,0:2|0:0,0:0:0:0:
319,328,45466,5,0,3:0:0:0:
246,160,45764,1,10,0:2:0:0:
246,160,45913,2,0,P|232:223|255:283,1,130,2|0,3:2|3:2,0:0:0:0:
319,327,46361,2,0,L|412:316,1,65,10|0,0:2|0:0,0:0:0:0:
255,283,46660,5,0,3:2:0:0:
73,211,46958,1,8,0:2:0:0:
226,89,47257,1,0,3:2:0:0:
181,152,47406,1,0,3:2:0:0:
258,160,47555,2,0,L|349:168,1,65,8|2,0:2|0:3,0:0:0:0:
400,175,47854,1,0,3:2:0:0:
477,8,48152,1,8,0:2:0:0:
477,8,48301,2,0,B|496:73|496:73|449:145,1,130,2|2,3:0|3:0,0:0:0:0:
401,168,48749,5,8,0:2:0:0:
497,259,48898,1,8,0:0:0:0:
489,228,48972,1,8,0:0:0:0:
469,204,49048,2,0,B|431:254|431:254|355:243,1,130,4|8,3:1|0:2,0:0:0:0:
236,127,49495,1,2,0:0:0:0:
288,255,49645,2,0,L|282:191,1,65,0|0,3:2|3:2,0:0:0:0:
178,5,49943,2,0,L|184:69,1,65,10|2,0:2|0:0,0:0:0:0:
129,126,50242,6,0,L|0:111,1,130,0|10,3:0|0:0,0:0:0:0:
40,312,50689,2,0,P|59:256|37:182,1,130,2|0,3:2|3:0,0:0:0:0:
41,189,51137,2,0,L|118:201,1,65,10|2,0:0|0:0,0:0:0:0:
197,369,51436,6,0,P|182:325|205:246,1,130,0|8,3:1|0:2,0:0:0:0:
358,272,51884,2,0,L|294:262,1,65,0|0,0:0|3:2,0:0:0:0:
265,182,52182,1,0,3:2:0:0:
117,153,52331,2,0,L|182:164,1,65,8|0,0:2|0:0,0:0:0:0:
337,23,52630,6,0,P|340:60|329:91,1,65,2|0,3:2|0:0,0:0:0:0:
453,73,52928,1,10,0:0:0:0:
391,193,53078,2,0,P|388:156|399:125,1,65,0|2,3:0|0:0,0:0:0:0:
466,169,53376,1,0,3:0:0:0:
509,236,53525,2,0,P|474:248|441:245,1,65,10|0,0:0|0:0,0:0:0:0:
256,254,53824,6,0,B|322:237|322:237|379:269,1,130,2|10,3:2|0:2,0:0:0:0:
189,195,54272,2,0,L|269:172,1,65,2|0,0:0|3:2,0:0:0:0:
327,159,54570,1,0,3:2:0:0:
304,381,54719,2,0,L|313:292,1,65,10|2,0:2|0:0,0:0:0:0:
211,313,55018,6,0,B|143:329|143:329|87:298,1,130,0|10,3:0|0:0,0:0:0:0:
148,175,55466,2,0,L|155:240,1,65,2|0,3:2|0:0,0:0:0:0:
73,225,55764,1,0,3:2:0:0:
30,354,55913,2,0,P|13:326|9:293,1,65,10|2,0:0|0:0,0:0:0:0:
60,95,56212,6,0,L|74:236,1,130,0|8,3:0|0:2,0:0:0:0:
205,184,56660,2,0,P|159:172|122:179,1,65,0|0,0:0|3:2,0:0:0:0:
128,37,56958,1,0,3:2:0:0:
128,37,57107,2,0,P|132:72|143:109,1,65,8|0,0:2|0:0,0:0:0:0:
223,112,57406,6,0,P|206:64|202:3,1,97.5,0|0,3:0|0:0,0:0:0:0:
210,5,57704,1,8,0:0:0:0:
349,58,57854,2,0,P|315:59|274:51,1,65,0|0,3:0|0:0,0:0:0:0:
126,4,58152,1,0,3:0:0:0:
126,4,58227,2,0,P|125:34|127:52,1,32.5,0|8,0:0|0:0,0:0:0:0:
219,183,58451,1,0,0:0:0:0:
25,167,58600,6,0,B|82:136|82:136|144:153,1,130,2|10,3:2|0:2,0:0:0:0:
112,288,59048,2,0,P|102:257|107:224,1,65,2|0,0:0|3:2,0:0:0:0:
180,249,59346,1,0,3:2:0:0:
348,384,59495,2,0,P|357:353|353:319,1,65,10|2,0:2|0:0,0:0:0:0:
149,353,59794,6,0,L|280:345,1,130,0|10,3:0|0:0,0:0:0:0:
408,244,60242,2,0,L|265:251,1,130,2|0,3:2|3:0,0:0:0:0:
206,146,60689,2,0,P|200:178|212:208,1,65,10|2,0:0|0:0,0:0:0:0:
280,372,60988,2,0,P|297:303|260:230,1,130,0|8,3:0|0:2,0:0:0:0:
142,289,61436,2,0,L|207:286,1,65,0|0,0:0|3:2,0:0:0:0:
278,250,61734,1,0,3:2:0:0:
306,119,61884,2,0,P|317:149|311:181,1,65,8|0,0:2|0:0,0:0:0:0:
512,218,62182,6,0,P|433:210|378:212,1,130,0|8,3:0|0:0,0:0:0:0:
303,323,62630,2,0,P|321:297|338:269,1,65,0|0,3:0|0:0,0:0:0:0:
382,211,62928,1,0,3:0:0:0:
288,118,63078,2,0,P|301:147|318:175,1,65,8|2,0:0|0:0,0:0:0:0:
414,290,63376,5,6,3:2:0:0:
414,290,64272,5,6,3:2:0:0:
98,94,65764,5,2,3:2:0:0:
293,110,67555,5,2,3:0:0:0:
183,165,67704,1,2,3:0:0:0:
169,185,68152,6,0,B|223:180|223:180|268:218|268:218|351:211,1,162.5,4|10,3:1|0:2,0:0:0:0:
302,133,68600,2,0,L|412:122,2,81.25,2|0|2,0:0|3:2|3:2,0:0:0:0:
114,276,69048,2,0,L|194:268,1,81.25,10|0,0:2|0:0,0:0:0:0:
225,343,69346,6,0,P|275:273|222:193,1,162.5,2|10,3:2|0:2,0:0:0:0:
185,157,69794,2,0,L|194:60,2,81.25,2|0|2,0:0|3:2|3:2,0:0:0:0:
39,284,70242,2,0,L|48:187,1,81.25,10|0,0:2|0:0,0:0:0:0:
185,157,70540,5,2,3:2:0:0:
72,119,70689,1,2,0:0:0:0:
230,211,70839,1,10,0:2:0:0:
113,234,70988,1,2,0:0:0:0:
247,278,71137,6,0,L|359:274,1,81.25,2|0,3:2|3:2,0:0:0:0:
409,275,71436,1,10,0:2:0:0:
371,203,71585,1,2,0:0:0:0:
345,349,71734,6,0,B|321:313|321:313|328:272,1,81.25,2|0,3:2|0:0,0:0:0:0:
217,179,72033,2,0,B|259:177|259:177|290:202,1,81.25,10|0,0:2|0:0,0:0:0:0:
427,152,72331,2,0,B|408:189|408:189|371:203,1,81.25,2|0,3:2|3:2,0:0:0:0:
325,0,72630,2,0,B|352:118,1,121.875,8|0,0:2|0:0,0:0:0:0:
358,138,72928,5,2,3:2:0:0:
267,99,73078,1,2,0:0:0:0:
413,60,73227,1,10,0:2:0:0:
504,99,73377,1,2,0:0:0:0:
444,174,73525,5,2,3:2:0:0:
440,189,73675,1,2,3:2:0:0:
368,227,73824,1,10,0:2:0:0:
372,242,73974,1,2,0:0:0:0:
398,318,74122,5,2,3:2:0:0:
317,302,74272,1,2,0:0:0:0:
250,348,74421,1,10,0:0:0:0:
169,332,74570,1,2,0:0:0:0:
102,198,74719,6,0,P|96:238|110:276,1,81.25,2|0,3:2|3:0,0:0:0:0:
256,223,75018,2,0,L|161:232,1,81.25,10|0,0:0|0:0,0:0:0:0:
30,159,75316,6,0,P|68:123|147:129,1,121.875,2|0,3:2|0:0,0:0:0:0:
152,132,75615,2,0,L|232:124,1,81.25,10|0,0:2|0:0,0:0:0:0:
361,8,75913,2,0,L|368:88,1,81.25,2|0,3:2|3:2,0:0:0:0:
512,133,76212,2,0,L|431:140,1,81.25,10|0,0:2|0:0,0:0:0:0:
294,265,76510,6,0,P|280:222|291:183,1,81.25,2|0,3:2|0:0,0:0:0:0:
358,221,76809,1,8,0:0:0:0:
412,280,76958,2,0,L|493:273,2,81.25,2|0|2,0:0|3:0|3:2,0:0:0:0:
213,271,77406,6,0,L|294:264,1,81.25,10|0,0:0|3:0,0:0:0:0:
191,340,77704,2,0,P|146:298|176:209,1,162.5,6|8,3:2|0:0,0:0:0:0:
213,271,78152,1,0,0:0:0:0:
281,384,78301,2,0,B|297:348|297:348|269:302,1,81.25,0|0,3:0|3:0,0:0:0:0:
52,286,78600,2,0,L|159:275,1,81.25,10|0,0:0|0:0,0:0:0:0:
270,172,78898,6,0,P|284:100|283:-1,1,162.5,2|10,3:2|0:2,0:0:0:0:
442,60,79346,1,2,0:0:0:0:
442,60,79495,2,0,P|401:63|362:48,1,81.25,0|0,3:2|3:2,0:0:0:0:
365,224,79794,6,0,P|361:183|376:142,1,81.25,10|0,0:2|0:0,0:0:0:0:
116,147,80092,2,0,P|206:141|280:180,1,162.5,2|8,3:2|0:2,0:0:0:0:
310,100,80540,1,0,0:0:0:0:
453,152,80689,2,0,P|412:155|359:138,1,81.25,0|0,3:2|3:2,0:0:0:0:
338,219,80988,1,10,0:2:0:0:
323,228,81286,6,0,P|317:307|354:379,1,162.5,2|8,3:2|0:2,0:0:0:0:
435,368,81734,1,2,0:0:0:0:
512,288,81884,2,0,L|417:279,1,81.25,2|0,3:2|3:2,0:0:0:0:
431,280,82107,1,2,0:0:0:0:
431,280,82182,1,8,0:2:0:0:
342,321,82331,1,2,0:0:0:0:
342,321,82481,6,0,P|247:299|212:303,1,121.875,2|0,3:2|0:0,0:0:0:0:
205,310,82779,2,0,L|99:301,1,81.25,10|0,0:2|0:0,0:0:0:0:
45,177,83078,2,0,P|40:217|57:254,1,81.25,2|0,3:2|3:2,0:0:0:0:
121,204,83376,1,10,0:2:0:0:
134,194,83675,6,0,L|274:183,1,121.875,2|0,3:2|0:0,0:0:0:0:
275,179,83973,2,0,P|280:139|263:102,1,81.25,10|0,0:2|0:0,0:0:0:0:
132,17,84272,2,0,P|164:42|204:46,1,81.25,2|0,3:2|3:2,0:0:0:0:
282,22,84570,1,10,0:2:0:0:
297,40,84869,6,0,B|359:51|359:51|395:39|395:39|456:50,1,162.5,2|8,3:2|0:2,0:0:0:0:
406,127,85316,1,0,0:0:0:0:
406,127,85466,2,0,P|419:175|419:217,1,81.25,2|0,3:2|3:2,0:0:0:0:
262,184,85764,2,0,L|351:193,1,81.25,10|0,0:2|0:0,0:0:0:0:
492,311,86063,6,0,P|465:258|369:276,1,162.5,2|8,3:2|0:2,0:0:0:0:
207,291,86510,2,0,P|251:354|325:334,1,162.5,0|0,3:2|3:2,0:0:0:0:
374,269,86958,1,12,0:2:0:0:
244,184,87107,5,0,3:0:0:0:
225,191,87182,1,0,3:0:0:0:
206,199,87257,2,0,B|197:178|197:178|201:160,1,40.625,4|0,3:1|0:0,0:0:0:0:
403,24,87555,1,10,0:2:0:0:
352,87,87704,2,0,L|267:82,1,81.25,2|0,0:0|3:2,0:0:0:0:
353,215,88003,1,2,3:2:0:0:
404,152,88152,2,0,L|489:157,1,81.25,10|0,0:2|0:0,0:0:0:0:
278,244,88451,6,0,B|269:223|269:223|273:205,1,40.625,2|0,3:2|0:0,0:0:0:0:
477,338,88749,1,10,0:2:0:0:
404,302,88898,2,0,P|346:307|308:333,1,81.25,2|0,0:0|3:2,0:0:0:0:
101,342,89197,1,2,3:2:0:0:
174,378,89346,2,0,P|232:373|270:347,1,81.25,10|0,0:2|0:0,0:0:0:0:
300,191,89645,5,2,3:2:0:0:
271,302,89794,1,2,0:0:0:0:
217,177,89943,1,10,0:2:0:0:
246,288,90092,1,2,0:0:0:0:
97,120,90242,5,2,3:2:0:0:
126,231,90391,1,2,3:2:0:0:
180,106,90540,1,10,0:2:0:0:
151,217,90689,1,2,0:0:0:0:
298,199,90839,6,0,P|261:183|221:180,1,81.25,2|0,3:2|0:0,0:0:0:0:
95,274,91137,2,0,P|128:250|151:216,1,81.25,10|0,0:2|0:0,0:0:0:0:
130,60,91436,2,0,P|136:100|152:136,1,81.25,2|0,3:2|3:2,0:0:0:0:
230,296,91734,1,8,0:2:0:0:
246,318,92033,6,0,L|380:310,1,121.875,2|0,3:2|0:0,0:0:0:0:
367,310,92331,1,10,0:2:0:0:
451,256,92481,1,2,0:0:0:0:
369,116,92630,2,0,L|279:110,1,81.25,2|0,3:2|3:2,0:0:0:0:
455,4,92928,2,0,P|460:58|440:97,1,81.25,10|0,0:2|0:0,0:0:0:0:
437,162,93227,1,2,3:2:0:0:
372,38,93376,1,2,0:0:0:0:
206,106,93525,2,0,L|287:110,1,81.25,10|0,0:2|0:0,0:0:0:0:
464,236,93824,6,0,P|417:240|383:220,1,81.25,2|0,3:2|3:2,0:0:0:0:
358,149,94122,1,10,0:2:0:0:
450,82,94272,1,0,0:0:0:0:
206,106,94421,6,0,L|124:101,1,81.25,4|0,3:1|0:0,0:0:0:0:
260,246,94719,2,0,P|273:208|261:170,1,81.25,10|0,0:2|0:0,0:0:0:0:
53,64,95018,2,0,P|40:102|52:140,1,81.25,2|0,3:2|3:2,0:0:0:0:
153,273,95316,5,10,0:2:0:0:
241,244,95466,1,4,3:2:0:0:
86,316,95615,2,0,B|196:309|138:344|248:336,1,162.5,2|8,0:0|0:2,0:0:0:0:
311,383,96063,2,0,P|326:329|313:296,1,81.25,0|0,0:0|3:2,0:0:0:0:
241,244,96361,1,0,3:2:0:0:
400,151,96510,6,0,P|382:207|384:235,1,81.25,10|0,0:2|0:0,0:0:0:0:
260,66,96809,2,0,P|299:109|324:121,1,81.25,4|0,3:1|0:0,0:0:0:0:
117,141,97107,2,0,P|152:122|192:116,1,81.25,10|0,0:2|0:0,0:0:0:0:
253,178,97406,1,2,3:2:0:0:
253,178,97555,1,0,3:2:0:0:
427,16,97704,2,0,P|392:35|352:41,1,81.25,10|0,0:2|0:0,0:0:0:0:
428,236,98003,6,0,P|423:175|400:119,1,121.875,2|0,3:2|0:0,0:0:0:0:
400,119,98301,2,0,P|438:107|473:86,1,81.25,10|0,0:2|0:0,0:0:0:0:
502,168,98600,1,2,3:2:0:0:
502,168,98749,1,0,3:2:0:0:
415,316,98898,2,0,P|380:295|341:283,1,81.25,8|0,0:2|0:0,0:0:0:0:
185,308,99197,6,0,L|352:303,2,162.5,2|10|2,3:2|0:2|3:2,0:0:0:0:
98,353,99943,1,0,3:2:0:0:
38,193,100092,2,0,P|31:233|42:272,1,81.25,10|0,0:2|0:0,0:0:0:0:
185,308,100391,2,0,P|191:268|181:229,1,81.25,2|0,3:2|0:0,0:0:0:0:
346,207,100689,2,0,L|265:216,1,81.25,10|0,0:2|0:0,0:0:0:0:
104,141,100988,2,0,L|184:150,1,81.25,0|0,3:2|3:2,0:0:0:0:
285,52,101286,1,8,0:2:0:0:
473,147,101436,5,2,0:0:0:0:
473,147,101585,2,0,P|406:149|332:101,1,146.250005578995,6|2,3:2|3:2,0:0:0:0:
339,109,102182,2,0,L|355:220,1,97.50000371933,8|0,0:0|3:0,0:0:0:0:
266,365,102779,2,0,B|246:237|246:237|260:281|299:301,1,195.00000743866,6|2,3:2|0:0,0:0:0:0:
512,342,103973,5,4,3:1:0:0:
48,275,106361,5,4,3:1:0:0:
321,1,108003,5,8,0:3:0:0:
282,142,108451,1,4,0:3:0:0:
377,124,108749,5,4,3:1:0:0:
449,250,109197,1,2,3:0:0:0:
303,249,109645,1,2,3:0:0:0:
375,202,110540,1,2,3:0:0:0:
206,103,111137,5,4,3:1:0:0:
206,103,112331,1,2,3:0:0:0:
133,73,113525,5,6,3:2:0:0:
38,184,113824,1,2,3:2:0:0:
101,148,113973,2,0,L|167:144,1,48.750001859665,2|0,0:0|3:2,0:0:0:0:
218,172,114272,2,0,L|284:168,1,48.750001859665,2|0,0:0|3:2,0:0:0:0:
333,138,114570,2,0,P|338:185|332:202,1,48.750001859665,2|0,0:0|3:2,0:0:0:0:
437,293,115018,1,2,3:2:0:0:
437,293,115167,2,0,P|432:246|438:229,1,48.750001859665,2|0,0:0|3:2,0:0:0:0:
298,299,115615,5,2,3:2:0:0:
298,299,115764,2,0,P|338:291|357:290,1,48.750001859665,2|0,0:0|3:2,0:0:0:0:
420,164,116212,1,2,3:2:0:0:
420,164,116361,2,0,P|412:124|411:105,1,48.750001859665,2|0,0:0|3:2,0:0:0:0:
304,16,116809,1,2,3:2:0:0:
248,62,116958,1,2,0:0:0:0:
316,87,117107,5,0,3:2:0:0:
325,85,117406,1,0,3:2:0:0:
334,83,117704,1,0,3:2:0:0:
343,81,118003,1,0,3:2:0:0:
239,183,118301,5,2,3:2:0:0:
95,151,118600,1,2,3:2:0:0:
145,203,118749,2,0,P|147:237|146:254,1,48.750001859665,2|0,0:0|3:2,0:0:0:0:
291,235,119197,1,2,3:2:0:0:
241,287,119346,2,0,P|239:321|240:338,1,48.750001859665,2|0,0:0|3:2,0:0:0:0:
391,286,119794,1,2,3:2:0:0:
339,236,119943,2,0,P|305:234|288:235,1,48.750001859665,2|0,0:0|3:2,0:0:0:0:
169,318,120391,1,2,3:2:0:0:
115,367,120540,1,2,0:0:0:0:
98,297,120689,5,0,3:2:0:0:
12,178,120988,1,0,3:2:0:0:
77,210,121137,2,0,P|85:178|80:154,1,48.750001859665,0|0,0:0|3:2,0:0:0:0:
13,65,121436,2,0,P|29:83|51:95,1,48.750001859665,0|0,0:0|3:2,0:0:0:0:
169,83,121734,2,0,P|145:88|125:101,1,48.750001859665,0|0,0:0|3:2,0:0:0:0:
62,233,122182,1,0,3:2:0:0:
62,233,122481,2,0,L|178:224,1,97.50000371933,0|0,3:2|3:2,0:0:0:0:
299,266,123078,5,2,3:2:0:0:
269,123,123376,1,2,3:2:0:0:
332,158,123525,2,0,L|387:152,1,48.750001859665,2|0,0:0|3:2,0:0:0:0:
497,240,123973,1,2,3:2:0:0:
434,275,124122,2,0,L|379:269,1,48.750001859665,2|0,0:0|3:2,0:0:0:0:
242,237,124570,5,2,3:2:0:0:
242,237,124719,2,0,P|281:231|302:237,1,48.750001859665,2|0,0:0|3:2,0:0:0:0:
189,339,125167,1,2,3:2:0:0:
189,339,125316,2,0,P|150:345|129:339,1,48.750001859665,2|0,0:0|3:2,0:0:0:0:
43,234,125764,1,2,3:2:0:0:
72,103,125913,1,0,0:0:0:0:
76,129,125988,2,0,L|83:164,1,24.3750009298325,0|2,0:0|3:2,0:0:0:0:
231,166,126361,1,2,3:2:0:0:
231,166,126510,2,0,P|195:175|171:172,1,48.750001859665,2|0,0:0|3:2,0:0:0:0:
102,52,126958,5,0,3:2:0:0:
168,82,127107,2,0,P|204:73|228:76,1,48.750001859665,0|0,0:0|3:2,0:0:0:0:
279,109,127406,2,0,P|303:108|326:100,1,48.750001859665,0|0,0:0|3:2,0:0:0:0:
461,36,127704,5,2,0:0:0:0:
388,22,127854,1,2,3:2:0:0:
394,167,128152,1,2,3:2:0:0:
467,181,128302,1,2,0:0:0:0:
417,235,128451,5,0,3:2:0:0:
414,244,128749,1,0,3:2:0:0:
275,291,129048,5,2,3:2:0:0:
414,334,129346,1,2,3:2:0:0:
350,298,129495,2,0,L|343:249,1,48.750001859665,2|0,0:0|3:2,0:0:0:0:
276,219,129794,1,2,0:0:0:0:
212,255,129943,2,0,P|171:278|118:278,1,97.50000371933,2|0,3:2|3:2,0:0:0:0:
30,54,130540,5,12,0:0:0:0:
96,164,130839,1,0,3:2:0:0:
96,177,131137,1,0,3:2:0:0:
201,101,131286,5,8,0:0:0:0:
237,170,131436,1,0,3:2:0:0:
440,8,131734,5,12,3:2:0:0:
506,118,132033,1,8,3:3:0:0:
426,144,132182,1,8,0:3:0:0:
490,198,132331,1,4,3:3:0:0:
345,286,132630,5,6,3:2:0:0:
345,286,132779,1,0,3:2:0:0:
55,107,134869,5,2,3:2:0:0:
133,137,135018,1,0,3:2:0:0:
133,137,135167,1,0,3:2:0:0:
443,50,137406,5,2,3:2:0:0:
443,50,137555,1,0,3:2:0:0:
159,363,139645,5,0,3:2:0:0:
148,279,139794,1,2,3:2:0:0:
148,279,139943,1,0,3:2:0:0:
478,102,142182,6,0,L|337:87,1,130,6|2,3:2|3:2,0:0:0:0:
387,252,142779,2,0,L|246:237,1,130,0|2,3:2|3:2,0:0:0:0:
137,118,143376,2,0,L|-4:103,1,130,0|2,3:2|3:2,0:0:0:0:
239,40,143973,2,0,L|98:25,1,130,0|2,3:2|3:2,0:0:0:0:
359,168,144495,5,0,0:0:0:0:
363,183,144570,1,0,3:2:0:0:
243,234,144869,1,0,3:2:0:0:
339,320,145167,1,0,3:2:0:0:
459,269,145466,1,0,3:2:0:0:
245,123,145764,5,0,3:2:0:0:
364,173,146063,1,0,3:2:0:0:
269,260,146361,1,0,3:2:0:0:
149,209,146660,1,0,3:2:0:0:
256,192,146809,5,2,0:0:0:0:
256,192,146884,1,0,0:0:0:0:
256,192,146958,1,6,3:2:0:0:
256,192,147854,1,2,3:2:0:0:
419,324,148898,5,8,0:0:0:0:
341,290,149048,1,8,0:3:0:0:
329,327,149197,1,4,0:3:0:0:
341,364,149347,1,2,3:2:0:0:
499,250,149645,1,8,0:0:0:0:
372,101,149943,1,2,3:2:0:0:
390,127,150092,1,0,3:0:0:0:
456,54,150242,1,10,0:0:0:0:
456,54,150540,6,0,L|469:133,1,65,2|0,3:2|3:0,0:0:0:0:
286,45,150839,2,0,L|299:124,1,65,12|0,0:0|3:0,0:0:0:0:
116,36,151137,1,8,0:0:0:0:
186,154,151286,5,0,3:0:0:0:
111,225,151436,1,8,0:0:0:0:
187,345,151585,1,8,0:0:0:0:
348,256,151734,6,0,L|440:244,1,81.25,4|0,3:1|0:0,0:0:0:0:
428,245,152033,1,10,0:2:0:0:
480,160,152182,2,0,P|492:96|464:36,1,121.875,2|0,0:0|0:0,0:0:0:0:
460,28,152481,1,2,3:2:0:0:
316,92,152630,2,0,L|408:80,1,81.25,10|0,0:2|0:0,0:0:0:0:
208,232,152928,6,0,L|116:220,1,81.25,2|0,3:2|0:0,0:0:0:0:
127,221,153227,1,10,0:2:0:0:
76,136,153376,2,0,P|64:72|92:12,1,121.875,2|0,0:0|0:0,0:0:0:0:
96,4,153675,1,2,3:2:0:0:
160,120,153824,2,0,L|240:130,1,81.25,10|0,0:2|0:0,0:0:0:0:
348,296,154122,5,2,3:2:0:0:
428,272,154272,1,2,0:0:0:0:
408,156,154421,5,10,0:2:0:0:
328,180,154571,1,2,0:0:0:0:
496,352,154719,6,0,P|512:264|484:212,1,121.875,2|0,3:2|0:0,0:0:0:0:
492,220,155018,1,10,0:2:0:0:
428,272,155167,1,2,0:0:0:0:
184,300,155316,6,0,B|245:289|245:289|280:300|280:300|348:288,2,162.5,2|10|2,3:2|0:2|3:2,0:0:0:0:
104,312,156063,1,0,3:2:0:0:
104,312,156212,2,0,L|112:224,1,81.25,8|0,0:2|0:0,0:0:0:0:
104,36,156510,5,2,3:2:0:0:
104,36,156660,2,0,P|88:88|144:164,1,121.875,2|0,0:0|0:0,0:0:0:0:
115,146,156958,1,2,0:0:0:0:
220,104,157107,2,0,L|312:96,1,81.25,2|0,3:2|3:2,0:0:0:0:
364,0,157406,2,0,B|356:44|356:44|384:88,1,81.25,10|2,0:2|0:0,0:0:0:0:
488,152,157704,5,2,3:2:0:0:
496,68,157854,1,2,0:0:0:0:
464,240,158003,5,10,0:0:0:0:
472,156,158153,1,2,0:0:0:0:
380,232,158301,6,0,P|328:224|256:264,1,121.875,2|0,3:2|0:0,0:0:0:0:
256,264,158600,2,0,L|168:280,1,81.25,10|0,0:0|0:0,0:0:0:0:
0,172,158898,6,0,P|72:160|132:200,1,121.875,2|0,3:2|0:0,0:0:0:0:
128,192,159197,2,0,B|156:168|156:168|148:104,1,81.25,10|0,0:0|0:0,0:0:0:0:
44,40,159495,6,0,L|136:48,1,81.25,2|0,3:2|3:0,0:0:0:0:
208,32,159794,2,0,P|264:48|340:24,1,121.875,10|0,0:0|0:0,0:0:0:0:
336,24,160092,6,0,L|484:36,1,121.875,2|0,3:2|0:0,0:0:0:0:
472,28,160391,1,8,0:0:0:0:
456,172,160540,2,0,P|444:120|400:104,1,81.25,0|0,0:0|3:0,0:0:0:0:
372,172,160839,1,0,3:0:0:0:
264,288,160988,2,0,L|180:296,1,81.25,10|0,0:0|3:0,0:0:0:0:
344,304,161286,6,0,P|416:292|508:352,1,162.5,6|8,3:2|0:0,0:0:0:0:
253,368,161734,2,0,L|265:280,2,81.25,0|0|0,0:0|3:0|3:0,0:0:0:0:
183,295,162182,2,0,L|194:215,1,81.25,10|0,0:0|0:0,0:0:0:0:
128,24,162481,2,0,P|156:108|120:180,1,162.5,2|10,3:2|0:2,0:0:0:0:
48,288,162928,6,0,L|-4:300,2,40.625,0|0|0,0:0|0:0|3:2,0:0:0:0:
136,324,163227,1,0,3:2:0:0:
136,324,163376,2,0,P|180:324|224:284,1,81.25,10|0,0:2|0:0,0:0:0:0:
396,200,163675,6,0,P|316:188|248:252,1,162.5,2|8,3:2|0:2,0:0:0:0:
255,235,164122,1,0,0:0:0:0:
308,304,164272,2,0,B|320:344|320:344|380:360,1,81.25,0|0,3:2|3:2,0:0:0:0:
472,304,164570,2,0,B|491:267|491:267|460:213,1,81.25,10|0,0:2|0:0,0:0:0:0:
396,200,164869,6,0,L|408:20,1,162.5,2|8,3:2|0:2,0:0:0:0:
406,37,165316,1,2,0:0:0:0:
308,104,165466,2,0,P|264:120|204:112,1,81.25,2|0,3:2|3:2,0:0:0:0:
216,116,165689,1,2,0:0:0:0:
200,112,165764,2,0,P|157:92|120:44,1,81.25,8|2,0:2|0:0,0:0:0:0:
0,220,166063,6,0,P|68:184|164:196,1,162.5,2|10,3:2|0:2,0:0:0:0:
228,216,166510,1,0,0:0:0:0:
224,348,166660,2,0,L|312:340,1,81.25,2|0,3:2|3:2,0:0:0:0:
144,332,166958,2,0,L|56:340,1,81.25,10|0,0:2|0:0,0:0:0:0:
228,216,167257,6,0,P|307:223|379:186,1,162.5,2|10,3:2|0:2,0:0:0:0:
428,120,167704,1,0,0:0:0:0:
488,176,167854,2,0,P|468:224|440:232,1,81.25,2|0,3:2|3:2,0:0:0:0:
384,352,168152,2,0,P|336:332|328:304,1,81.25,10|0,0:2|0:0,0:0:0:0:
252,124,168451,6,0,L|68:144,1,162.5,2|8,3:2|0:2,0:0:0:0:
90,141,168898,1,0,0:0:0:0:
16,160,169048,2,0,P|36:88|60:76,1,81.25,2|0,3:2|3:2,0:0:0:0:
156,212,169346,2,0,P|160:276|120:332,1,121.875,10|0,0:2|0:0,0:0:0:0:
120,336,169645,6,0,L|300:312,1,162.5,2|8,3:2|0:2,0:0:0:0:
416,352,170092,2,0,P|404:284|452:184,1,162.5,0|0,3:2|3:2,0:0:0:0:
496,48,170540,1,12,0:2:0:0:
488,132,170689,1,0,0:0:0:0:
364,64,170839,6,0,L|272:76,1,81.25,4|0,3:1|0:0,0:0:0:0:
283,74,171137,1,10,0:2:0:0:
208,128,171286,2,0,P|144:120|72:160,1,121.875,2|0,0:0|0:0,0:0:0:0:
80,152,171585,1,2,3:2:0:0:
48,280,171734,2,0,P|112:272|140:248,1,81.25,10|0,0:2|0:0,0:0:0:0:
252,272,172033,6,0,L|264:176,1,81.25,2|0,3:2|0:0,0:0:0:0:
262,191,172331,1,10,0:2:0:0:
348,144,172481,2,0,P|412:136|484:176,1,121.875,2|0,0:0|0:0,0:0:0:0:
476,168,172780,1,2,3:2:0:0:
512,300,172928,2,0,P|448:292|420:268,1,81.25,10|0,0:2|0:0,0:0:0:0:
262,191,173227,5,2,3:2:0:0:
184,176,173376,1,2,0:0:0:0:
180,64,173525,1,10,0:2:0:0:
258,79,173674,1,2,0:0:0:0:
96,152,173824,6,0,P|44:108|72:64,1,121.875,2|0,3:2|0:0,0:0:0:0:
84,60,174122,1,10,0:2:0:0:
160,80,174272,1,2,0:0:0:0:
217,329,174421,2,0,B|212:268|212:268|189:241|189:241|181:149,2,162.5,2|10|2,3:2|0:2|3:2,0:0:0:0:
304,332,175167,1,0,3:2:0:0:
304,332,175316,2,0,P|344:348|384:332,1,81.25,8|0,0:2|0:0,0:0:0:0:
480,200,175615,5,2,3:2:0:0:
480,200,175764,2,0,L|344:224,1,121.875,2|0,0:0|0:0,0:0:0:0:
344,224,176063,1,2,0:0:0:0:
384,84,176212,2,0,P|444:92|472:128,1,81.25,2|2,3:2|3:2,0:0:0:0:
320,136,176510,5,10,0:2:0:0:
320,136,176660,2,0,P|260:160|196:152,1,121.875,2|0,0:0|0:0,0:0:0:0:
188,148,176958,1,2,0:0:0:0:
48,108,177107,2,0,L|32:4,1,81.25,10|0,0:2|0:0,0:0:0:0:
104,172,177406,2,0,L|130:344,1,162.5,2|8,3:2|0:2,0:0:0:0:
128,332,177854,1,2,0:0:0:0:
344,280,178003,6,0,P|284:252|208:276,1,121.875,4|0,3:1|0:0,0:0:0:0:
216,268,178301,2,0,L|232:364,1,81.25,10|0,0:2|0:0,0:0:0:0:
312,372,178600,5,2,3:2:0:0:
392,348,178749,2,0,P|436:364|484:352,1,81.25,0|10,3:2|0:2,0:0:0:0:
469,359,179048,1,4,3:2:0:0:
496,252,179197,2,0,L|480:80,1,162.5,2|8,0:0|0:2,0:0:0:0:
408,140,179645,2,0,B|372:124|372:124|384:68,1,81.25,0|0,0:0|3:2,0:0:0:0:
396,8,179943,1,0,3:2:0:0:
292,112,180092,2,0,L|192:124,1,81.25,10|0,0:2|0:0,0:0:0:0:
16,92,180391,6,0,P|72:72|152:88,1,121.875,4|0,3:1|0:0,0:0:0:0:
148,84,180689,2,0,P|160:136|144:168,1,81.25,10|0,0:2|0:0,0:0:0:0:
64,260,180988,5,2,3:2:0:0:
72,180,181137,1,0,3:2:0:0:
152,240,181286,2,0,P|220:240|288:200,1,121.875,10|0,0:2|0:0,0:0:0:0:
280,208,181585,2,0,L|372:196,1,81.25,2|0,3:2|0:0,0:0:0:0:
436,252,181884,2,0,L|444:160,1,81.25,10|0,0:2|0:0,0:0:0:0:
460,40,182182,5,2,3:2:0:0:
500,112,182331,1,0,3:2:0:0:
400,96,182481,2,0,P|360:112|316:100,1,81.25,10|0,0:2|0:0,0:0:0:0:
96,48,182779,6,0,P|148:28|224:44,1,121.875,2|0,3:2|0:0,0:0:0:0:
228,44,183078,2,0,B|220:88|220:88|256:128,1,81.25,10|0,0:2|0:0,0:0:0:0:
320,184,183376,2,0,L|307:301,1,81.25,2|0,3:2|3:2,0:0:0:0:
512,280,183675,6,0,P|452:272|388:324,1,121.875,10|0,0:2|0:0,0:0:0:0:
392,316,183973,1,2,3:2:0:0:
316,348,184122,1,0,0:0:0:0:
220,308,184272,6,0,P|224:252|184:224,1,81.25,10|0,0:2|0:0,0:0:0:0:
68,340,184570,2,0,P|114:371|158:350,1,81.25,0|0,3:2|3:2,0:0:0:0:
160,168,184869,1,8,0:2:0:0:
108,232,185018,1,2,0:0:0:0:
108,232,185167,6,0,L|116:80,1,130,6|2,3:2|0:0,0:0:0:0:
114,102,185615,1,2,0:0:0:0:
316,44,185764,2,0,P|268:76|172:68,1,130,8|0,0:0|0:0,0:0:0:0:
120,108,186212,2,0,L|34:118,1,65,0|0,3:0|0:0,0:0:0:0:
188,160,186510,1,0,0:0:0:0:
252,212,186660,2,0,P|316:196|392:208,1,130,0|8,3:0|0:0,0:0:0:0:
472,100,187257,6,0,L|480:32,1,65
464,184,187555,2,0,P|468:220|440:260,1,65,2|0,3:2|0:0,0:0:0:0:
300,228,188003,1,0,0:0:0:0:
300,228,188152,2,0,L|148:252,1,130,8|0,0:0|0:0,0:0:0:0:
96,280,188600,1,0,3:0:0:0:
96,280,188749,2,0,P|48:296|16:284,2,65,2|0|0,0:0|0:0|3:0,0:0:0:0:
156,168,189346,6,0,L|168:24,1,130,10|0,0:0|0:0,0:0:0:0:
166,38,189794,1,0,0:0:0:0:
284,100,189943,6,0,B|404:88|352:128|476:112,2,195,4|0|2,3:2|3:0|3:2,0:0:0:0:
204,104,191436,2,0,L|208:40,1,65,2|0,0:0|0:0,0:0:0:0:
124,128,191734,5,10,0:2:0:0:
152,312,192033,1,2,0:0:0:0:
228,284,192331,6,0,B|108:296|160:256|36:272,2,195,6|0|0,3:2|3:0|3:0,0:0:0:0:
464,84,193824,2,0,P|448:36|416:40,1,65,4|0,0:0|0:0,0:0:0:0:
380,92,194122,1,0,0:0:0:0:
428,160,194272,2,0,L|416:312,1,130,8|4,0:3|0:3,0:0:0:0:
323,328,194719,6,0,P|418:317|500:368,2,195,6|0|2,3:2|3:0|3:2,0:0:0:0:
252,224,196212,2,0,L|260:160,1,65,2|0,0:2|0:0,0:0:0:0:
132,172,196510,2,0,P|76:148|0:164,1,130,10|2,0:0|0:0,0:0:0:0:
188,55,197107,6,0,P|93:66|12:16,2,195,6|0|2,3:2|3:0|3:2,0:0:0:0:
396,88,198301,2,0,L|468:76,2,65,2|0|4,0:0|0:0|0:0,0:0:0:0:
456,176,198898,1,10,0:0:0:0:
400,236,199048,2,0,P|400:304|288:332,1,195,8|2,0:3|0:0,0:0:0:0:
112,148,199943,6,0,P|112:80|224:52,1,195
316,92,200689,2,0,L|420:80,1,97.50000371933
488,120,201286,2,0,P|500:68|476:24,1,97.50000371933
412,80,201734,2,0,L|408:120,2,24.3750009298325,0|0|2,0:0|0:0|0:0,0:0:0:0:
316,92,202182,2,0,P|260:88|204:116,2,97.50000371933
400,184,203078,2,0,L|388:300,1,97.50000371933
404,360,203675,5,2,0:0:0:0:
268,208,203973,1,2,0:0:0:0:
108,336,204272,5,6,3:2:0:0:
184,316,204570,1,2,3:2:0:0:
140,196,204869,2,0,P|124:244|140:280,1,65,2|0,3:2|0:0,0:0:0:0:
264,288,205167,2,0,P|280:240|264:204,1,65,2|0,3:2|0:0,0:0:0:0:
232,136,205466,2,0,L|372:120,1,130,2|0,3:2|3:2,0:0:0:0:
361,121,205913,1,2,0:0:0:0:
448,160,206063,6,0,P|492:152|500:120,1,65,2|0,3:2|0:0,0:0:0:0:
508,24,206361,1,2,3:2:0:0:
448,76,206510,1,2,0:0:0:0:
244,44,206660,6,0,L|400:32,2,130,2|2|2,3:2|3:2|3:2,0:0:0:0:
168,28,207406,1,0,0:0:0:0:
92,52,207555,2,0,L|14:57,1,65,2|0,3:2|0:0,0:0:0:0:
20,184,207854,2,0,P|-8:124|104:156,1,260,2|0,3:2|3:2,0:0:0:0:
476,200,209048,6,0,B|537:292|458:359|365:319|391:244|391:244|414:182|256:144|328:312|188:268,1,520,4|2,3:1|3:2,0:0:0:0:
408,40,211436,5,4,3:1:0:0:
436,116,211585,1,2,0:0:0:0:
284,100,211734,5,10,0:2:0:0:
328,32,211884,1,2,0:0:0:0:
284,100,212033,6,0,P|216:136|156:120,1,121.875,2|0,3:2|0:0,0:0:0:0:
174,129,212331,1,10,0:2:0:0:
100,104,212481,1,2,0:0:0:0:
0,200,212630,2,0,P|40:180|80:184,1,81.25,2|0,3:2|0:0,0:0:0:0:
124,372,212928,2,0,L|136:224,1,121.875,10|0,0:2|0:0,0:0:0:0:
136,236,213227,5,2,3:2:0:0:
248,288,213376,1,0,3:2:0:0:
248,288,213451,1,0,0:0:0:0:
248,288,213525,2,0,B|328:292|284:264|380:268,1,121.875,8|0,0:2|0:0,0:0:0:0:
444,256,213824,5,2,3:2:0:0:
448,236,213973,1,2,0:0:0:0:
424,160,214122,5,10,0:2:0:0:
428,140,214272,1,2,0:0:0:0:
464,68,214421,5,2,3:2:0:0:
388,40,214570,1,2,3:2:0:0:
312,60,214719,1,10,0:2:0:0:
264,124,214869,1,2,0:0:0:0:
192,80,215018,6,0,P|144:60|56:80,1,121.875,2|0,3:2|0:0,0:0:0:0:
60,76,215316,1,10,0:2:0:0:
76,156,215466,1,2,0:0:0:0:
16,244,215615,2,0,L|112:232,1,81.25,2|0,3:2|3:2,0:0:0:0:
173,251,215913,2,0,L|327:231,1,121.875,10|0,0:2|0:0,0:0:0:0:
308,228,216212,6,0,P|356:228|392:272,1,81.25,2|0,3:2|0:0,0:0:0:0:
460,228,216510,2,0,P|460:276|416:312,1,81.25,10|0,0:2|0:0,0:0:0:0:
364,324,216809,1,2,3:2:0:0:
288,352,216958,1,0,3:2:0:0:
208,328,217107,2,0,B|184:352|184:352|120:360,1,81.25,10|0,0:2|0:0,0:0:0:0:
144,276,217406,6,0,L|156:124,1,121.875,2|0,3:2|0:0,0:0:0:0:
153,154,217704,1,8,0:2:0:0:
32,104,217854,2,0,P|84:100|112:72,1,81.25,0|0,0:0|3:2,0:0:0:0:
105,82,218152,1,0,3:2:0:0:
224,72,218301,2,0,L|360:52,1,121.875,10|0,0:2|0:0,0:0:0:0:
356,44,218600,6,0,P|408:28|456:48,1,81.25,4|0,3:1|0:0,0:0:0:0:
504,72,218898,1,8,0:2:0:0:
456,136,219048,2,0,L|448:224,1,81.25,0|0,0:0|3:2,0:0:0:0:
448,216,219346,1,0,3:2:0:0:
388,272,219495,2,0,P|324:272|256:328,1,121.875,10|0,0:2|0:0,0:0:0:0:
264,316,219794,6,0,L|172:328,1,81.25,2|0,3:2|0:0,0:0:0:0:
112,360,220092,1,10,0:2:0:0:
0,272,220242,2,0,P|48:272|80:292,1,81.25,0|0,0:0|3:2,0:0:0:0:
148,252,220540,1,0,3:2:0:0:
292,160,220689,2,0,L|160:180,1,121.875,10|0,0:2|0:0,0:0:0:0:
160,164,220988,6,0,P|164:96|184:68,1,81.25,2|0,3:2|0:0,0:0:0:0:
212,20,221286,1,8,0:2:0:0:
284,52,221436,1,0,0:0:0:0:
292,160,221585,2,0,L|476:132,2,162.5,0|10|2,3:2|0:2|3:2,0:0:0:0:
240,300,222481,5,8,0:2:0:0:
320,284,222630,1,2,0:0:0:0:
392,320,222779,2,0,P|452:320|488:292,1,81.25,2|0,3:2|3:2,0:0:0:0:
472,296,223003,1,2,0:0:0:0:
476,280,223078,2,0,L|488:180,1,81.25,8|2,0:2|0:0,0:0:0:0:
484,48,223376,6,0,P|460:104|476:136,1,81.25,2|0,3:2|0:0,0:0:0:0:
352,116,223675,1,10,0:2:0:0:
280,84,223824,1,0,0:0:0:0:
208,120,223973,2,0,L|112:132,1,81.25,2|0,3:2|3:2,0:0:0:0:
56,8,224272,2,0,P|64:68|28:128,1,121.875,10|0,0:2|0:0,0:0:0:0:
20,128,224570,6,0,L|12:234,1,81.25,2|0,3:2|0:0,0:0:0:0:
56,276,224869,1,10,0:2:0:0:
96,344,225018,2,0,P|144:332|184:344,1,81.25,0|2,0:0|3:2,0:0:0:0:
248,312,225316,1,0,3:2:0:0:
340,200,225466,2,0,L|324:332,1,121.875,10|0,0:2|0:0,0:0:0:0:
336,332,225764,6,0,P|432:336|492:296,1,162.5,2|8,3:2|0:2,0:0:0:0:
464,224,226212,1,0,0:0:0:0:
488,144,226361,2,0,L|496:60,1,81.25,2|0,3:2|3:2,0:0:0:0:
416,60,226660,2,0,P|360:48|292:76,1,121.875,10|0,0:2|0:0,0:0:0:0:
288,80,226958,6,0,L|184:92,1,81.25,2|0,3:2|0:0,0:0:0:0:
344,144,227257,1,8,0:2:0:0:
320,328,227406,2,0,L|332:156,1,162.5,0|0,3:2|3:2,0:0:0:0:
320,327,227854,2,0,P|303:364|268:384,1,81.25,8|0,0:2|0:0,0:0:0:0:
199,346,228152,5,2,0:0:0:0:
199,346,228451,1,14,0:0:0:0:
136,296,228600,2,0,P|136:244|164:212,1,81.25,2|0,0:0|3:0,0:0:0:0:
212,168,228898,1,2,3:2:0:0:
288,140,229048,2,0,P|340:140|372:168,1,81.25,10|0,0:0|0:0,0:0:0:0:
448,260,229346,6,0,L|435:157,1,81.25,2|0,3:2|0:0,0:0:0:0:
464,104,229645,1,10,0:2:0:0:
432,28,229794,2,0,P|380:28|336:72,1,81.25,2|0,0:0|3:2,0:0:0:0:
304,104,230092,1,2,3:2:0:0:
108,32,230242,2,0,P|172:24|232:56,1,121.875,10|0,0:2|0:0,0:0:0:0:
236,60,230540,5,2,3:2:0:0:
224,140,230689,1,2,0:0:0:0:
120,116,230839,1,10,0:2:0:0:
108,196,230988,1,2,0:0:0:0:
64,308,231137,5,2,3:2:0:0:
148,268,231286,1,2,3:2:0:0:
144,364,231436,1,10,0:2:0:0:
64,308,231585,1,0,0:0:0:0:
224,324,231734,6,0,L|400:308,1,162.5,2|10,3:2|0:2,0:0:0:0:
452,268,232182,1,0,0:0:0:0:
464,188,232331,2,0,P|448:136|412:120,1,81.25,2|0,3:2|3:2,0:0:0:0:
340,164,232630,2,0,L|352:28,1,121.875,8|0,0:2|0:0,0:0:0:0:
352,28,232928,6,0,L|260:48,1,81.25,2|0,3:2|0:0,0:0:0:0:
196,32,233227,1,10,0:2:0:0:
180,112,233376,1,2,0:0:0:0:
20,124,233525,2,0,L|112:104,1,81.25,2|0,3:2|3:2,0:0:0:0:
243,209,233824,6,0,L|164:192,1,81.25,10|0,0:2|0:0,0:0:0:0:
320,196,234123,1,2,3:2:0:0:
336,276,234272,1,2,0:0:0:0:
416,270,234421,2,0,L|496:288,1,81.25,10|0,0:2|0:0,0:0:0:0:
400,184,234719,6,0,P|396:108|356:60,1,121.875,2|0,3:2|0:0,0:0:0:0:
360,60,235018,1,10,0:2:0:0:
296,16,235167,1,0,0:0:0:0:
244,192,235316,6,0,P|296:172|308:136,1,81.25,4|0,3:1|0:0,0:0:0:0:
96,124,235615,2,0,P|52:88|15:96,1,81.25,4|0,3:2|0:0,0:0:0:0:
112,287,235913,2,0,P|103:342|128:370,1,81.25,4|0,3:1|0:0,0:0:0:0:
188,320,236212,1,4,3:2:0:0:
264,352,236361,1,4,3:2:0:0:
340,328,236510,6,0,L|428:316,1,81.25,2|0,0:0|0:0,0:0:0:0:
484,264,236809,5,8,3:2:0:0:
448,188,236958,1,0,0:0:0:0:
368,240,237107,5,0,3:0:0:0:
374,155,237256,1,8,0:3:0:0:
448,24,237406,2,0,P|452:80|428:116,1,81.25,2|4,3:2|0:3,0:0:0:0:
304,104,237704,6,0,P|244:96|160:136,1,121.875,4|0,3:1|0:0,0:0:0:0:
172,124,238003,2,0,L|64:140,1,81.25,10|0,0:2|0:0,0:0:0:0:
100,8,238301,1,2,3:2:0:0:
188,28,238451,1,0,3:2:0:0:
172,124,238600,2,0,L|168:224,1,81.25,10|0,0:2|0:0,0:0:0:0:
72,320,238898,6,0,P|147:291|204:304,1,121.875,2|0,3:2|0:0,0:0:0:0:
200,304,239197,2,0,L|300:292,1,81.25,10|0,0:2|0:0,0:0:0:0:
348,248,239495,1,2,3:2:0:0:
412,296,239645,1,0,3:2:0:0:
488,272,239794,2,0,P|492:328|456:348,1,81.25,8|0,0:2|0:0,0:0:0:0:
488,184,240092,6,0,P|480:108|504:44,1,121.875,2|0,3:2|0:0,0:0:0:0:
496,48,240391,2,0,L|404:64,1,81.25,10|0,0:2|0:0,0:0:0:0:
284,24,240689,1,2,3:2:0:0:
340,92,240839,1,0,3:2:0:0:
132,40,240988,2,0,P|188:60|220:48,1,81.25,10|0,0:2|0:0,0:0:0:0:
256,136,241286,6,0,P|196:144|136:208,1,121.875,2|0,3:2|0:0,0:0:0:0:
144,196,241585,2,0,L|48:212,1,81.25,10|0,0:2|0:0,0:0:0:0:
216,236,241884,1,0,3:2:0:0:
336,264,242033,1,0,3:2:0:0:
412,156,242182,2,0,P|464:144|504:156,1,81.25,8|2,0:2|0:0,0:0:0:0:
448,360,242481,6,0,L|460:200,1,130,6|2,3:2|0:0,0:0:0:0:
490,149,242928,1,2,3:2:0:0:
512,68,243078,2,0,P|496:16|432:24,1,130,8|0,0:0|3:0,0:0:0:0:
352,48,243525,1,0,0:0:0:0:
224,36,243675,6,0,B|147:28|147:28|112:52|112:52|32:44,2,195,6|2|2,3:2|0:0|0:0,0:0:0:0:
284,92,244719,1,2,0:0:0:0:
300,204,244869,6,0,L|388:196,1,81.25,4|0,3:1|0:0,0:0:0:0:
464,204,245167,2,0,P|484:136|460:76,1,121.875,10|0,0:2|0:0,0:0:0:0:
460,76,245466,1,2,3:2:0:0:
384,108,245615,1,2,3:2:0:0:
392,24,245764,1,8,0:2:0:0:
308,80,245913,2,0,B|284:104|284:104|228:96,1,81.25,2|0,0:0|3:2,0:0:0:0:
64,32,246361,5,8,0:2:0:0:
92,108,246510,1,0,0:0:0:0:
64,196,246660,2,0,P|116:188|196:232,1,121.875,2|0,3:2|0:0,0:0:0:0:
192,224,246958,1,8,0:2:0:0:
144,352,247107,1,0,0:0:0:0:
220,320,247257,6,0,L|312:312,1,81.25,2|2,3:2|0:0,0:0:0:0:
376,308,247555,1,10,0:2:0:0:
432,248,247704,2,0,P|432:200|472:136,1,121.875,2|0,0:0|0:0,0:0:0:0:
480,128,248003,1,2,3:2:0:0:
448,56,248152,1,8,0:2:0:0:
376,24,248301,2,0,L|284:36,1,81.25,2|0,0:0|3:2,0:0:0:0:
128,40,248600,6,0,P|176:40|228:72,1,81.25,2|8,0:0|0:2,0:0:0:0:
216,184,248898,2,0,P|136:188|52:140,1,162.5,2|0,0:0|3:2,0:0:0:0:
8,204,249346,1,8,0:2:0:0:
20,280,249495,1,0,0:0:0:0:
80,336,249645,6,0,P|124:336|148:288,1,81.25,2|2,3:2|0:0,0:0:0:0:
152,232,249943,1,10,0:2:0:0:
212,176,250092,6,0,P|256:176|280:224,1,81.25,2|0,0:0|3:2,0:0:0:0:
284,280,250390,1,2,3:2:0:0:
352,332,250540,6,0,P|396:332|420:284,1,81.25,8|0,0:2|0:0,0:0:0:0:
424,228,250838,1,2,3:2:0:0:
476,64,250988,6,0,L|464:156,1,81.25,2|8,0:0|0:2,0:0:0:0:
416,208,251286,1,2,0:0:0:0:
283,105,251436,5,2,3:2:0:0:
327,9,251585,1,0,3:2:0:0:
403,85,251734,2,0,P|467:73|483:49,1,81.25,10|2,0:2|0:0,0:0:0:0:
283,105,252033,6,0,P|212:100|160:140,1,121.875,2|0,3:2|0:0,0:0:0:0:
160,140,252331,1,10,0:2:0:0:
320,292,252481,6,0,P|359:233|351:167,1,121.875,2|0,0:0|0:0,0:0:0:0:
351,167,252779,1,2,3:2:0:0:
160,224,252928,1,8,0:2:0:0:
156,308,253078,1,4,0:3:0:0:
48,356,253227,6,0,B|60:248|24:296|36:184,1,162.5,4|2,3:1|0:0,0:0:0:0:
34,195,253824,1,10,0:0:0:0:
200,156,253973,2,0,P|128:156|76:80,1,162.5,6|0,3:2|0:0,0:0:0:0:
256,192,254520,12,0,259197,0:0:0:0:
