osu file format v14

[General]
AudioFilename: audio.mp3
AudioLeadIn: 0
PreviewTime: 19707
Countdown: 0
SampleSet: Soft
StackLeniency: 0.4
Mode: 0
LetterboxInBreaks: 0
WidescreenStoryboard: 1

[Editor]
DistanceSpacing: 1.3
BeatDivisor: 4
GridSize: 16
TimelineZoom: 1.6

[Metadata]
Title:oyasumi
TitleUnicode:oyasumi
Artist:Shiggy Jr.
ArtistUnicode:Shiggy Jr.
Creator:Incomp
Version:Fucking Weebs
Source:
Tags:listen to the music jpop japanese pop おやすみ tomoko ikeda 池田 智子 shigeyuki harada 原田 茂幸 natsuhiko mori 森 夏彦 kazma moroishi 諸石 和馬
BeatmapID:1855779
BeatmapSetID:887782

[Difficulty]
HPDrainRate:5
CircleSize:4
OverallDifficulty:9
ApproachRate:9.4
SliderMultiplier:1.76
SliderTickRate:1

[Events]
//Background and Video events
0,0,"bg.jpg",0,0
//Break Periods
2,10307,11578
2,12707,13978
2,15257,16678
//Storyboard Layer 0 (Background)
//Storyboard Layer 1 (Fail)
//Storyboard Layer 2 (Pass)
//Storyboard Layer 3 (Foreground)
//Storyboard Sound Samples

[TimingPoints]
507,300,4,2,1,65,1,0
507,-133.333333333333,4,2,1,65,0,0
5307,-117.647058823529,4,2,1,65,0,0
18507,-100,4,2,1,65,0,0
19707,-100,4,1,1,65,0,1
29007,-100,4,1,1,65,0,0
29307,-100,4,1,1,65,0,1
38907,-100,4,1,1,65,0,0
48507,-100,4,2,1,65,0,0
56907,-100,4,2,1,65,0,0
57507,-83.3333333333333,4,2,1,65,0,0
58107,-100,4,1,1,65,0,1
67407,-100,4,1,1,65,0,0
67707,-100,4,1,1,65,0,1
77307,-100,4,1,1,65,0,0
82107,-133.333333333333,4,1,1,65,0,0
86907,-100,4,1,1,65,0,0
91707,-100,4,1,1,80,0,1
101007,-100,4,1,1,65,0,0
101307,-100,4,1,1,65,0,1
110307,-76.9230769230769,4,1,1,65,0,1
110907,-100,4,1,1,65,0,0
111207,-100,4,1,1,65,0,1
111507,-100,4,1,1,65,0,0
111807,-90.9090909090909,4,1,1,65,0,1
112107,-100,4,1,1,65,0,0
112407,-83.3333333333333,4,1,1,65,0,1
112707,-200,4,1,1,65,0,0
113007,-100,4,1,1,65,0,1
113082,-100,4,1,1,65,0,0
113157,-80,4,1,1,65,0,1
120207,-100,4,1,1,65,0,0
120507,-100,4,1,1,65,0,1
129807,-100,4,1,1,65,0,0
130107,-58.8235294117647,4,1,1,65,0,1
130407,-100,4,1,1,65,0,0
130707,-43.4782608695652,4,1,1,65,0,1
131007,-100,4,1,1,65,0,0
131307,-40,4,1,1,65,0,1
131607,-100,4,1,1,65,0,0
132507,-100,4,1,1,65,0,1
134757,-100,4,1,1,65,0,0

[Colours]
Combo1 : 119,108,137
Combo2 : 250,14,18
Combo3 : 253,83,81
Combo4 : 13,38,61
Combo5 : 69,100,136

[HitObjects]
237,278,507,5,2,0:0:0:0:
359,78,807,1,2,0:0:0:0:
237,278,1107,1,2,0:0:0:0:
359,78,1257,2,0,P|389:55|426:49,1,66.0000025177003,2|0,0:0|0:0,0:0:0:0:
171,219,1557,2,0,P|141:242|104:248,2,66.0000025177003,0|2|0,0:0|0:0|0:0,0:0:0:0:
275,106,2007,1,2,0:0:0:0:
275,106,2307,5,2,0:0:0:0:
340,164,2457,1,0,0:0:0:0:
191,134,2607,1,2,0:0:0:0:
325,254,2757,1,2,0:0:0:0:
325,254,2907,6,0,P|301:275|266:286,1,66.0000025177003,2|0,0:0|0:0,0:0:0:0:
88,248,3207,2,0,P|112:227|147:216,1,66.0000025177003,2|0,0:0|0:0,0:0:0:0:
340,164,3507,1,2,0:0:0:0:
153,306,3657,2,0,P|124:328|91:335,1,66.0000025177003,2|0,0:0|0:0,0:0:0:0:
191,134,3957,2,0,P|220:112|253:105,2,66.0000025177003,0|2|0,0:0|0:0|0:0,0:0:0:0:
172,220,4407,1,2,0:0:0:0:
172,220,4707,6,0,P|110:250|53:231,1,132.000005035401,2|0,0:0|0:0,0:0:0:0:
107,162,5157,1,0,0:0:0:0:
237,278,5307,6,0,P|312:261|344:196,1,149.600002853394,2|8,0:0|0:0,0:0:0:0:
210,48,5907,1,2,0:0:0:0:
256,192,6057,1,0,0:0:0:0:
359,78,6207,1,8,0:0:0:0:
172,220,6357,2,0,P|153:252|150:292,2,74.8000014266968,0|2|0,0:0|0:0|0:0,0:0:0:0:
256,192,6807,1,8,0:0:0:0:
256,192,7107,5,2,0:0:0:0:
302,336,7257,1,2,0:0:0:0:
172,220,7407,2,0,P|167:179|179:148,1,74.8000014266968,8|0,0:0|0:0,0:0:0:0:
359,78,7707,5,2,0:0:0:0:
237,278,8007,1,8,0:0:0:0:
359,78,8307,1,2,0:0:0:0:
237,278,8457,2,0,P|208:300|168:307,1,74.8000014266968,2|8,0:0|0:0,0:0:0:0:
340,164,8757,2,0,P|369:142|409:135,2,74.8000014266968,0|2|0,0:0|0:0|0:0,0:0:0:0:
321,250,9207,1,8,0:0:0:0:
321,250,9507,6,0,P|264:209|258:131,1,149.600002853394,2|8,0:0|0:0,0:0:0:0:
340,164,9957,1,0,0:0:0:0:
172,220,10107,1,6,0:0:0:0:
172,220,12207,5,2,0:0:0:0:
237,278,12357,1,2,0:0:0:0:
275,106,12507,1,2,0:0:0:0:
275,106,14607,5,2,0:0:0:0:
321,250,14757,1,2,0:0:0:0:
359,78,14907,1,2,0:0:0:0:
237,278,15057,1,2,0:0:0:0:
237,278,17307,5,2,0:0:0:0:
210,48,17457,1,2,0:0:0:0:
302,336,17757,5,2,0:0:0:0:
256,192,18507,5,2,0:0:0:0:
259,235,18582,1,2,0:0:0:0:
241,275,18657,1,2,0:0:0:0:
207,301,18732,1,2,0:0:0:0:
164,308,18807,1,10,0:0:0:0:
122,294,18882,1,2,0:0:0:0:
93,262,18957,1,2,0:0:0:0:
83,219,19032,1,2,0:0:0:0:
94,177,19107,5,2,0:0:0:0:
123,145,19182,1,2,0:0:0:0:
164,131,19257,1,2,0:0:0:0:
207,138,19332,1,2,0:0:0:0:
242,165,19407,1,10,0:0:0:0:
172,220,19707,6,0,P|200:262|237:279,1,88,6|0,0:0|0:0,0:0:0:0:
256,192,20007,1,8,0:0:0:0:
88,248,20157,1,0,0:0:0:0:
321,250,20307,2,0,P|371:246|404:223,1,88,2|0,0:0|0:0,0:0:0:0:
191,134,20607,2,0,L|107:162,1,88,8|0,0:0|0:0,0:0:0:0:
153,306,20907,5,2,0:0:0:0:
256,192,21057,1,0,0:0:0:0:
88,248,21207,1,8,0:0:0:0:
237,278,21357,1,0,0:0:0:0:
210,48,21507,1,2,0:0:0:0:
107,162,21657,1,0,0:0:0:0:
275,106,21807,1,8,0:0:0:0:
42,104,21957,6,0,P|22:142|25:192,1,88,0|2,0:0|0:0,0:0:0:0:
153,306,22257,2,0,P|173:268|170:218,1,88,0|8,0:0|0:0,0:0:0:0:
88,248,22557,1,0,0:0:0:0:
256,192,22707,2,0,P|300:216|321:251,1,88,2|0,0:0|0:0,0:0:0:0:
302,336,23007,1,8,0:0:0:0:
424,136,23157,1,0,0:0:0:0:
237,278,23307,5,2,0:0:0:0:
275,106,23457,2,0,P|317:79|358:79,1,88,0|8,0:0|0:0,0:0:0:0:
172,220,23757,2,0,P|121:221|86:201,2,88,0|2|0,0:0|0:0|0:0,0:0:0:0:
340,164,24207,2,0,L|423:136,1,88,8|0,0:0|0:0,0:0:0:0:
153,306,24507,6,0,P|117:330|67:332,1,88,6|0,0:0|0:0,0:0:0:0:
340,164,24807,2,0,P|376:140|426:138,1,88,8|0,0:0|0:0,0:0:0:0:
88,248,25107,2,0,P|49:228|22:186,1,88,2|0,0:0|0:0,0:0:0:0:
405,222,25407,2,0,P|443:241|470:283,1,88,8|0,0:0|0:0,0:0:0:0:
218,364,25707,5,2,0:0:0:0:
340,164,25857,1,0,0:0:0:0:
386,308,26007,1,8,0:0:0:0:
172,220,26157,2,0,P|133:200|106:158,1,88,0|2,0:0|0:0,0:0:0:0:
294,20,26457,1,0,0:0:0:0:
256,192,26607,1,8,0:0:0:0:
126,76,26757,1,0,0:0:0:0:
359,78,26907,6,0,P|397:97|424:139,1,88,2|0,0:0|0:0,0:0:0:0:
321,250,27207,2,0,P|323:292|300:336,1,88,8|0,0:0|0:0,0:0:0:0:
424,136,27507,2,0,P|459:112|509:110,1,88,2|0,0:0|0:0,0:0:0:0:
302,336,27807,2,0,P|266:359|216:361,1,88,8|0,0:0|0:0,0:0:0:0:
23,190,28107,5,2,0:0:0:0:
307,200,28257,1,2,0:0:0:0:
307,200,28332,1,2,0:0:0:0:
307,200,28407,1,10,0:0:0:0:
153,306,28557,1,2,0:0:0:0:
275,106,28707,1,8,0:0:0:0:
237,278,28857,1,2,0:0:0:0:
210,48,29007,1,8,0:0:0:0:
321,250,29157,1,2,0:0:0:0:
126,76,29307,6,0,P|49:96|22:186,1,176,6|8,0:0|0:0,0:0:0:0:
153,306,29757,2,0,P|195:305|239:277,1,88,0|2,0:0|0:0,0:0:0:0:
340,164,30057,1,0,0:0:0:0:
172,220,30207,1,8,0:0:0:0:
386,308,30357,1,0,0:0:0:0:
191,134,30507,6,0,P|114:154|87:244,1,176,2|8,0:0|0:0,0:0:0:0:
256,192,30957,2,0,P|276:154|273:103,1,88,0|2,0:0|0:0,0:0:0:0:
69,334,31257,1,0,0:0:0:0:
321,250,31407,1,8,0:0:0:0:
88,248,31557,1,0,0:0:0:0:
302,336,31707,6,0,L|387:354,1,88,2|0,0:0|0:0,0:0:0:0:
107,162,32007,2,0,L|21:143,1,88,8|0,0:0|0:0,0:0:0:0:
218,364,32307,5,2,0:0:0:0:
191,134,32457,1,0,0:0:0:0:
153,306,32607,5,8,0:0:0:0:
126,76,32757,1,0,0:0:0:0:
302,336,32907,6,0,P|344:335|388:307,1,88,2|0,0:0|0:0,0:0:0:0:
88,248,33207,2,0,P|45:248|2:277,1,88,8|0,0:0|0:0,0:0:0:0:
107,162,33507,5,2,0:0:0:0:
321,250,33657,1,0,0:0:0:0:
187,128,33807,5,8,0:0:0:0:
69,334,33957,1,0,0:0:0:0:
42,104,34107,6,0,P|120:76|191:139,1,176,6|8,0:0|0:0,0:0:0:0:
237,278,34557,2,0,P|259:314|301:337,1,88,0|2,0:0|0:0,0:0:0:0:
340,164,34857,1,0,0:0:0:0:
107,162,35007,1,8,0:0:0:0:
218,364,35157,1,0,0:0:0:0:
191,134,35307,6,0,P|135:78|43:101,1,176,2|8,0:0|0:0,0:0:0:0:
237,278,35757,2,0,P|279:276|320:252,1,88,0|2,0:0|0:0,0:0:0:0:
443,50,36057,1,0,0:0:0:0:
256,192,36207,1,8,0:0:0:0:
294,20,36357,1,0,0:0:0:0:
386,308,36507,6,0,P|348:334|307:337,1,88,2|0,0:0|0:0,0:0:0:0:
359,78,36807,2,0,P|397:52|438:49,1,88,8|0,0:0|0:0,0:0:0:0:
191,134,37107,2,0,P|170:174|172:217,1,88,2|0,0:0|0:0,0:0:0:0:
404,217,37407,2,0,P|425:177|423:134,1,88,8|0,0:0|0:0,0:0:0:0:
210,48,37707,5,2,0:0:0:0:
170,270,37857,1,2,0:0:0:0:
170,270,37932,1,2,0:0:0:0:
170,270,38007,1,10,0:0:0:0:
256,192,38157,1,2,0:0:0:0:
88,248,38307,1,8,0:0:0:0:
302,336,38457,1,2,0:0:0:0:
107,162,38607,1,8,0:0:0:0:
218,364,38757,1,2,0:0:0:0:
275,106,38907,6,0,P|296:66|293:20,2,88,6|8|0,0:0|0:0|0:0,0:0:0:0:
191,134,39357,1,0,0:0:0:0:
405,222,39507,2,0,P|450:220|488:194,2,88,8|0|0,0:0|0:0|0:0,0:0:0:0:
256,192,39957,2,0,P|214:193|166:225,1,88,2|0,0:0|0:0,0:0:0:0:
153,306,40257,1,8,0:0:0:0:
340,164,40407,5,0,0:0:0:0:
359,125,40482,1,0,0:0:0:0:
358,81,40557,1,0,0:0:0:0:
336,44,40632,1,0,0:0:0:0:
298,22,40707,1,8,0:0:0:0:
405,222,40857,1,0,0:0:0:0:
443,50,41007,1,0,0:0:0:0:
321,250,41157,1,0,0:0:0:0:
210,48,41307,5,6,0:0:0:0:
237,278,41457,1,8,0:0:0:0:
237,278,41532,1,0,0:0:0:0:
237,278,41607,2,0,P|239:328|221:364,1,88
88,248,41907,1,8,0:0:0:0:
256,192,42057,1,0,0:0:0:0:
153,306,42207,1,0,0:0:0:0:
275,106,42357,2,0,P|311:82|366:81,1,88,0|2,0:0|0:0,0:0:0:0:
424,136,42657,1,8,0:0:0:0:
237,278,42807,5,0,0:0:0:0:
200,302,42882,1,0,0:0:0:0:
157,305,42957,1,0,0:0:0:0:
117,288,43032,1,0,0:0:0:0:
90,253,43107,1,8,0:0:0:0:
256,192,43257,1,0,0:0:0:0:
107,162,43407,1,2,0:0:0:0:
237,278,43557,1,0,0:0:0:0:
126,76,43707,5,6,0:0:0:0:
153,306,43857,1,8,0:0:0:0:
153,306,43932,1,0,0:0:0:0:
153,306,44007,2,0,P|177:344|217:365,1,88
302,336,44307,1,8,0:0:0:0:
172,220,44457,2,0,L|106:162,1,88
106,161,44757,6,0,P|87:195|88:248,1,88,0|2,0:0|0:0,0:0:0:0:
153,306,45057,1,8,0:0:0:0:
275,106,45207,5,0,0:0:0:0:
311,81,45282,1,0,0:0:0:0:
354,78,45357,1,0,0:0:0:0:
394,96,45432,1,0,0:0:0:0:
420,131,45507,1,8,0:0:0:0:
256,192,45657,1,0,0:0:0:0:
294,20,45807,1,0,0:0:0:0:
340,164,45957,1,0,0:0:0:0:
126,76,46107,5,6,0:0:0:0:
237,278,46257,1,8,0:0:0:0:
237,278,46332,1,0,0:0:0:0:
237,278,46407,1,0,0:0:0:0:
275,106,46557,1,8,0:0:0:0:
153,306,46707,6,0,P|206:361|300:340,1,176,2|8,0:0|0:0,0:0:0:0:
172,220,47157,2,0,L|127:209,2,44,0|0|6,0:0|0:0|0:0,0:0:0:0:
256,192,47457,5,8,0:0:0:0:
256,192,47532,1,8,0:0:0:0:
256,192,47607,1,8,0:0:0:0:
275,106,47757,1,8,0:0:0:0:
386,308,47907,1,8,0:0:0:0:
191,134,48057,1,2,0:0:0:0:
405,222,48207,1,0,0:0:0:0:
172,220,48357,2,0,B|138:212|138:212|106:168,1,88,0|6,0:0|0:0,0:0:0:0:
126,76,48807,5,8,0:0:0:0:
256,192,49107,1,2,0:0:0:0:
275,106,49407,1,8,0:0:0:0:
172,220,49707,5,2,0:0:0:0:
107,162,50007,1,8,0:0:0:0:
237,278,50307,1,2,0:0:0:0:
256,192,50607,5,10,0:0:0:0:
172,220,50757,1,2,0:0:0:0:
321,250,50907,5,6,0:0:0:0:
340,164,51207,1,8,0:0:0:0:
153,306,51507,1,2,0:0:0:0:
172,220,51807,1,8,0:0:0:0:
386,308,52107,5,2,0:0:0:0:
470,280,52407,1,8,0:0:0:0:
256,192,52707,1,2,0:0:0:0:
275,106,53007,5,8,0:0:0:0:
321,250,53157,1,2,0:0:0:0:
191,134,53307,5,6,0:0:0:0:
172,220,53607,1,8,0:0:0:0:
359,78,53907,1,2,0:0:0:0:
424,136,54207,1,8,0:0:0:0:
237,278,54507,5,2,0:0:0:0:
256,192,54807,1,8,0:0:0:0:
451,366,55107,1,2,0:0:0:0:
470,280,55407,5,10,0:0:0:0:
302,336,55557,1,2,0:0:0:0:
424,136,55707,5,6,0:0:0:0:
489,194,56007,1,8,0:0:0:0:
256,192,56307,1,2,0:0:0:0:
340,164,56607,1,8,0:0:0:0:
126,76,56907,5,12,0:0:0:0:
105,114,56982,1,8,0:0:0:0:
107,158,57057,1,8,0:0:0:0:
129,195,57132,1,8,0:0:0:0:
166,217,57207,1,8,0:0:0:0:
210,218,57282,1,8,0:0:0:0:
248,198,57357,1,8,0:0:0:0:
272,162,57432,1,8,0:0:0:0:
276,119,57507,5,10,0:0:0:0:
301,73,57582,1,10,0:0:0:0:
347,49,57657,1,10,0:0:0:0:
399,56,57732,1,10,0:0:0:0:
438,90,57807,1,10,0:0:0:0:
191,134,58107,6,0,P|144:136|104:163,1,88,6|0,0:0|0:0,0:0:0:0:
302,336,58407,2,0,P|349:334|389:307,1,88,8|0,0:0|0:0,0:0:0:0:
275,106,58707,1,2,0:0:0:0:
237,278,58857,1,0,0:0:0:0:
359,78,59007,2,0,P|391:55|444:51,1,88,8|0,0:0|0:0,0:0:0:0:
321,250,59307,5,2,0:0:0:0:
275,106,59457,1,0,0:0:0:0:
405,222,59607,1,8,0:0:0:0:
191,134,59757,1,0,0:0:0:0:
302,336,59907,1,2,0:0:0:0:
340,164,60057,1,0,0:0:0:0:
153,306,60207,1,8,0:0:0:0:
386,308,60357,6,0,P|433:306|473:279,1,88,0|2,0:0|0:0,0:0:0:0:
256,192,60657,2,0,P|209:194|169:221,1,88,0|8,0:0|0:0,0:0:0:0:
218,364,60957,1,0,0:0:0:0:
340,164,61107,2,0,P|372:141|425:137,1,88,2|0,0:0|0:0,0:0:0:0:
321,250,61407,1,8,0:0:0:0:
489,194,61557,1,0,0:0:0:0:
256,192,61707,6,0,P|220:175|190:131,1,88,2|0,0:0|0:0,0:0:0:0:
294,20,62007,1,8,0:0:0:0:
321,250,62157,2,0,P|324:289|301:337,2,88,0|2|0,0:0|0:0|0:0,0:0:0:0:
275,106,62607,1,8,0:0:0:0:
172,220,62757,1,0,0:0:0:0:
340,164,62907,6,0,L|423:136,1,88,6|0,0:0|0:0,0:0:0:0:
107,162,63207,2,0,L|23:189,1,88,8|0,0:0|0:0,0:0:0:0:
359,78,63507,2,0,L|442:50,1,88,2|0,0:0|0:0,0:0:0:0:
88,248,63807,2,0,L|4:275,1,88,8|0,0:0|0:0,0:0:0:0:
321,250,64107,5,2,0:0:0:0:
210,48,64257,1,0,0:0:0:0:
237,278,64407,1,8,0:0:0:0:
359,78,64557,2,0,P|391:55|444:51,1,88,0|2,0:0|0:0,0:0:0:0:
321,250,64857,1,0,0:0:0:0:
275,106,65007,1,8,0:0:0:0:
405,222,65157,1,0,0:0:0:0:
191,134,65307,6,0,P|144:136|104:163,1,88,6|0,0:0|0:0,0:0:0:0:
321,250,65607,2,0,P|368:248|408:221,1,88,8|0,0:0|0:0,0:0:0:0:
211,52,65907,2,0,P|189:93|192:141,1,88,2|0,0:0|0:0,0:0:0:0:
300,331,66207,2,0,P|321:289|318:241,1,88,8|0,0:0|0:0,0:0:0:0:
211,52,66507,5,2,0:0:0:0:
237,278,66657,1,2,0:0:0:0:
237,278,66732,1,2,0:0:0:0:
237,278,66807,1,10,0:0:0:0:
340,164,66957,1,2,0:0:0:0:
191,134,67107,1,8,0:0:0:0:
302,336,67257,1,2,0:0:0:0:
275,106,67407,1,8,0:0:0:0:
153,306,67557,1,2,0:0:0:0:
405,222,67707,6,0,P|425:143|364:81,1,176,6|8,0:0|0:0,0:0:0:0:
386,308,68157,2,0,P|411:347|456:368,1,88,0|2,0:0|0:0,0:0:0:0:
340,164,68457,1,0,0:0:0:0:
302,336,68607,1,8,0:0:0:0:
470,280,68757,1,0,0:0:0:0:
275,106,68907,6,0,B|237:90|237:90|100:134,1,176,2|8,0:0|0:0,0:0:0:0:
321,250,69357,2,0,L|405:222,1,88,0|2,0:0|0:0,0:0:0:0:
256,192,69657,1,0,0:0:0:0:
302,336,69807,1,8,0:0:0:0:
470,280,69957,1,0,0:0:0:0:
237,278,70107,6,0,P|201:261|171:217,1,88,2|0,0:0|0:0,0:0:0:0:
294,20,70407,2,0,P|329:36|359:80,1,88,8|0,0:0|0:0,0:0:0:0:
302,336,70707,5,2,0:0:0:0:
275,106,70857,1,0,0:0:0:0:
386,308,71007,5,8,0:0:0:0:
191,134,71157,1,0,0:0:0:0:
470,280,71307,6,0,P|491:238|486:189,1,88,2|0,0:0|0:0,0:0:0:0:
237,278,71607,2,0,P|215:319|220:368,1,88,8|0,0:0|0:0,0:0:0:0:
424,136,71907,5,2,0:0:0:0:
172,220,72057,1,0,0:0:0:0:
381,303,72207,5,8,0:0:0:0:
294,20,72357,1,0,0:0:0:0:
237,278,72507,6,0,P|146:304|89:249,1,176,6|8,0:0|0:0,0:0:0:0:
256,192,72957,2,0,P|257:247|236:282,1,88,0|2,0:0|0:0,0:0:0:0:
107,162,73257,1,0,0:0:0:0:
340,164,73407,1,8,0:0:0:0:
172,220,73557,1,0,0:0:0:0:
359,78,73707,6,0,P|424:137|407:222,1,176,2|8,0:0|0:0,0:0:0:0:
275,106,74157,2,0,P|313:81|356:79,1,88,0|2,0:0|0:0,0:0:0:0:
321,250,74457,1,0,0:0:0:0:
191,134,74607,1,8,0:0:0:0:
405,222,74757,1,0,0:0:0:0:
210,48,74907,6,0,L|126:76,1,88,2|0,0:0|0:0,0:0:0:0:
340,164,75207,2,0,L|424:136,1,88,8|0,0:0|0:0,0:0:0:0:
172,220,75507,2,0,L|88:248,1,88,2|0,0:0|0:0,0:0:0:0:
302,336,75807,2,0,L|386:308,1,88,8|0,0:0|0:0,0:0:0:0:
153,306,76107,6,0,P|114:287|89:251,1,88,2|0,0:0|0:0,0:0:0:0:
126,76,76407,1,8,0:0:0:0:
126,76,76482,1,0,0:0:0:0:
126,76,76557,1,2,0:0:0:0:
172,220,76707,1,10,0:0:0:0:
42,104,76857,1,2,0:0:0:0:
256,192,77007,1,8,0:0:0:0:
23,190,77157,1,2,0:0:0:0:
275,106,77307,6,0,P|315:80|357:78,2,88,6|8|0,0:0|0:0|0:0,0:0:0:0:
172,220,77757,1,0,0:0:0:0:
424,136,77907,2,0,P|492:204|472:280,1,176,8|2,0:0|0:0,0:0:0:0:
153,306,78507,6,0,P|113:287|88:250,2,88,6|8|0,0:0|0:0|0:0,0:0:0:0:
321,250,78957,1,0,0:0:0:0:
107,162,79107,2,0,P|42:107|55:21,1,176,8|2,0:0|0:0,0:0:0:0:
237,278,79707,6,0,L|217:371,2,88,6|8|0,0:0|0:0|0:0,0:0:0:0:
275,106,80157,1,0,0:0:0:0:
153,306,80307,2,0,P|66:333|4:277,1,176,8|2,0:0|0:0,0:0:0:0:
42,104,80907,5,6,0:0:0:0:
42,104,82107,5,2,0:0:0:0:
42,104,82257,2,0,P|23:136|20:167,2,66.0000025177003
126,76,82707,1,0,0:0:0:0:
88,247,82857,2,0,P|87:285|100:313,1,66.0000025177003
163,369,83157,1,0,0:0:0:0:
256,192,83307,5,2,0:0:0:0:
302,336,83457,1,0,0:0:0:0:
172,220,83607,1,0,0:0:0:0:
386,308,83757,1,0,0:0:0:0:
153,306,83907,6,0,P|124:295|97:268,1,66.0000025177003
42,104,84207,1,0,0:0:0:0:
172,220,84357,2,0,P|209:220|237:207,1,66.0000025177003,0|2,0:0|0:0,0:0:0:0:
359,78,84657,6,0,L|402:29,2,66.0000025177003
256,192,85107,1,0,0:0:0:0:
210,48,85257,1,0,0:0:0:0:
340,164,85407,1,0,0:0:0:0:
126,76,85557,1,0,0:0:0:0:
172,220,85707,5,2,0:0:0:0:
275,106,85857,1,0,0:0:0:0:
107,162,86007,1,0,0:0:0:0:
210,48,86157,1,0,0:0:0:0:
237,278,86307,6,0,L|244:344,1,66.0000025177003
359,78,86607,2,0,L|351:11,1,66.0000025177003
321,250,86907,5,6,0:0:0:0:
321,250,87057,2,0,L|416:218,2,88,0|8|0,0:0|0:0|0:0,0:0:0:0:
237,278,87507,2,0,L|161:211,1,88,2|0,0:0|0:0,0:0:0:0:
107,162,87807,1,8,0:0:0:0:
256,192,87957,1,0,0:0:0:0:
42,104,88107,5,2,0:0:0:0:
23,190,88257,1,0,0:0:0:0:
172,220,88407,1,8,0:0:0:0:
88,248,88557,1,0,0:0:0:0:
275,106,88707,6,0,P|312:81|360:80,1,88,2|0,0:0|0:0,0:0:0:0:
153,306,89007,2,0,P|116:331|68:332,1,88,8|0,0:0|0:0,0:0:0:0:
340,164,89307,5,6,0:0:0:0:
237,278,89607,5,12,0:0:0:0:
210,48,89907,5,6,0:0:0:0:
386,308,90207,5,12,0:0:0:0:
42,104,90507,5,6,0:0:0:0:
42,104,91707,6,0,P|22:141|23:187,1,88,6|0,0:0|0:0,0:0:0:0:
153,306,92007,2,0,P|173:269|172:223,1,88,8|0,0:0|0:0,0:0:0:0:
386,308,92307,2,0,P|423:327|468:326,1,88,2|0,0:0|0:0,0:0:0:0:
232,160,92607,2,0,P|195:139|149:139,1,88,8|0,0:0|0:0,0:0:0:0:
218,364,92907,5,2,0:0:0:0:
340,164,93057,1,0,0:0:0:0:
88,248,93207,1,8,0:0:0:0:
302,336,93357,1,0,0:0:0:0:
126,76,93507,1,2,0:0:0:0:
153,306,93657,1,0,0:0:0:0:
275,106,93807,1,8,0:0:0:0:
88,248,93957,6,0,P|68:285|69:331,1,88,0|2,0:0|0:0,0:0:0:0:
191,134,94257,2,0,P|211:97|210:51,1,88,0|8,0:0|0:0,0:0:0:0:
42,104,94557,1,0,0:0:0:0:
256,192,94707,2,0,P|297:213|320:247,1,88,2|0,0:0|0:0,0:0:0:0:
153,306,95007,1,8,0:0:0:0:
172,220,95157,1,0,0:0:0:0:
386,308,95307,6,0,P|428:307|467:284,1,88,2|0,0:0|0:0,0:0:0:0:
508,108,95607,1,8,0:0:0:0:
237,278,95757,2,0,P|198:303|157:305,2,88,0|2|0,0:0|0:0|0:0,0:0:0:0:
340,164,96207,2,0,B|361:136|361:136|360:76,1,88,8|0,0:0|0:0,0:0:0:0:
88,248,96507,6,0,P|68:285|68:331,1,88,6|0,0:0|0:0,0:0:0:0:
275,106,96807,2,0,P|294:68|294:22,1,88,8|0,0:0|0:0,0:0:0:0:
68,329,97107,2,0,P|110:327|149:303,1,88,2|0,0:0|0:0,0:0:0:0:
294,24,97407,2,0,P|251:25|212:49,1,88,8|0,0:0|0:0,0:0:0:0:
237,278,97707,5,2,0:0:0:0:
275,106,97857,1,0,0:0:0:0:
107,162,98007,1,8,0:0:0:0:
321,250,98157,2,0,P|362:271|385:305,1,88,0|2,0:0|0:0,0:0:0:0:
172,220,98457,1,0,0:0:0:0:
302,336,98607,1,8,0:0:0:0:
112,284,98757,1,0,0:0:0:0:
340,164,98907,6,0,P|378:138|419:136,1,88,2|0,0:0|0:0,0:0:0:0:
237,278,99207,2,0,P|198:303|157:305,1,88,8|0,0:0|0:0,0:0:0:0:
355,81,99507,2,0,P|396:102|419:136,1,88,2|0,0:0|0:0,0:0:0:0:
172,220,99807,2,0,P|131:199|108:165,1,88,8|0,0:0|0:0,0:0:0:0:
290,23,100107,5,6,0:0:0:0:
245,286,100257,1,2,0:0:0:0:
245,286,100332,1,2,0:0:0:0:
245,286,100407,1,8,0:0:0:0:
191,134,100557,1,2,0:0:0:0:
340,164,100707,1,8,0:0:0:0:
153,306,100857,1,2,0:0:0:0:
275,106,101007,1,8,0:0:0:0:
386,308,101157,1,2,0:0:0:0:
107,162,101307,6,0,P|48:117|56:24,1,176,6|8,0:0|0:0,0:0:0:0:
172,220,101757,2,0,L|199:303,1,88,0|2,0:0|0:0,0:0:0:0:
256,192,102057,1,0,0:0:0:0:
112,284,102207,1,8,0:0:0:0:
264,361,102357,1,0,0:0:0:0:
107,162,102507,6,0,P|116:87|201:46,1,176,2|8,0:0|0:0,0:0:0:0:
88,248,102957,2,0,P|47:227|24:193,1,88,0|2,0:0|0:0,0:0:0:0:
191,134,103257,1,0,0:0:0:0:
153,306,103407,1,8,0:0:0:0:
42,104,103557,1,0,0:0:0:0:
237,278,103707,6,0,L|301:336,1,88,2|0,0:0|0:0,0:0:0:0:
191,134,104007,2,0,L|173:219,1,88,8|0,0:0|0:0,0:0:0:0:
302,336,104307,2,0,L|384:308,1,88,2|0,0:0|0:0,0:0:0:0:
172,220,104607,2,0,L|89:247,1,88,8|0,0:0|0:0,0:0:0:0:
405,222,104907,6,0,P|447:220|486:196,1,88,2|0,0:0|0:0,0:0:0:0:
420,132,105207,1,8,0:0:0:0:
424,136,105357,1,0,0:0:0:0:
451,366,105507,5,2,0:0:0:0:
340,164,105657,1,0,0:0:0:0:
470,280,105807,1,8,0:0:0:0:
237,278,105957,1,0,0:0:0:0:
359,78,106107,6,0,P|428:48|506:101,1,176,6|8,0:0|0:0,0:0:0:0:
275,106,106557,2,0,P|226:109|188:135,1,88,0|2,0:0|0:0,0:0:0:0:
153,306,106857,1,0,0:0:0:0:
340,164,107007,1,8,0:0:0:0:
88,248,107157,1,0,0:0:0:0:
386,308,107307,6,0,P|462:290|491:204,1,176,2|8,0:0|0:0,0:0:0:0:
302,336,107757,2,0,P|263:361|222:364,1,88,0|2,0:0|0:0,0:0:0:0:
172,220,108057,1,0,0:0:0:0:
405,222,108207,1,8,0:0:0:0:
237,278,108357,1,0,0:0:0:0:
359,78,108507,6,0,P|395:54|439:50,1,88,2|0,0:0|0:0,0:0:0:0:
256,192,108807,2,0,P|220:216|176:220,1,88,8|0,0:0|0:0,0:0:0:0:
424,136,109107,2,0,P|462:155|488:191,1,88,2|0,0:0|0:0,0:0:0:0:
191,134,109407,2,0,P|152:114|126:78,1,88,8|0,0:0|0:0,0:0:0:0:
405,222,109707,5,14,0:0:0:0:
408,265,109782,1,8,0:0:0:0:
390,305,109857,1,8,0:0:0:0:
355,331,109932,1,8,0:0:0:0:
313,338,110007,1,8,0:0:0:0:
271,324,110082,1,8,0:0:0:0:
242,291,110157,1,8,0:0:0:0:
232,249,110232,1,8,0:0:0:0:
243,207,110307,5,6,0:0:0:0:
265,155,110382,1,2,0:0:0:0:
251,101,110457,1,2,0:0:0:0:
207,66,110532,1,2,0:0:0:0:
151,65,110607,1,2,0:0:0:0:
106,98,110682,1,2,0:0:0:0:
90,152,110757,1,2,0:0:0:0:
110,204,110832,1,2,0:0:0:0:
157,234,110907,5,2,0:0:0:0:
178,149,111057,1,0,0:0:0:0:
321,250,111207,2,0,L|402:307,1,88,6|0,0:0|0:0,0:0:0:0:
340,164,111507,5,2,0:0:0:0:
237,278,111657,1,0,0:0:0:0:
275,106,111807,2,0,L|297:6,1,96.8000029541017,6|0,0:0|0:0,0:0:0:0:
191,134,112107,5,2,0:0:0:0:
359,78,112257,1,0,0:0:0:0:
172,220,112407,2,0,L|64:301,1,105.599996777344,6|0,0:0|0:0,0:0:0:0:
302,336,112707,5,2,0:0:0:0:
323,337,112782,1,2,0:0:0:0:
345,334,112857,1,2,0:0:0:0:
365,325,112932,1,2,0:0:0:0:
382,312,113007,2,0,P|398:293|407:269,1,44,6|0,0:0|0:0,0:0:0:0:
332,148,113157,6,0,P|309:203|321:250,1,110,4|2,0:0|0:0,0:0:0:0:
267,90,113457,2,0,P|207:97|173:131,1,110,0|8,0:0|0:0,0:0:0:0:
154,217,113757,1,0,0:0:0:0:
351,62,113907,2,0,P|398:35|463:46,1,110,2|0,0:0|0:0,0:0:0:0:
248,176,114207,1,8,0:0:0:0:
416,120,114357,1,0,0:0:0:0:
229,262,114507,6,0,P|182:289|117:278,1,110,2|0,0:0|0:0,0:0:0:0:
15,174,114807,1,8,0:0:0:0:
248,176,114957,2,0,P|294:203|317:264,2,110,0|2|0,0:0|0:0|0:0,0:0:0:0:
15,174,115407,1,8,0:0:0:0:
61,318,115557,1,0,0:0:0:0:
183,118,115707,6,0,P|227:91|285:97,1,110,2|0,0:0|0:0,0:0:0:0:
99,146,116007,2,0,P|53:121|29:68,1,110,8|0,0:0|0:0,0:0:0:0:
164,204,116307,2,0,P|165:255|131:302,1,110,2|0,0:0|0:0,0:0:0:0:
248,176,116607,2,0,P|293:200|317:253,1,110,8|0,0:0|0:0,0:0:0:0:
210,348,116907,5,2,0:0:0:0:
164,204,117057,1,0,0:0:0:0:
294,320,117207,1,8,0:0:0:0:
80,232,117357,2,0,P|34:207|10:154,1,110,0|2,0:0|0:0,0:0:0:0:
202,32,117657,1,0,0:0:0:0:
145,290,117807,1,8,0:0:0:0:
99,146,117957,1,0,0:0:0:0:
294,320,118107,6,0,B|329:336|329:336|396:312,1,110,6|0,0:0|0:0,0:0:0:0:
248,176,118407,2,0,B|213:160|213:160|146:184,1,110,8|0,0:0|0:0,0:0:0:0:
396,311,118707,2,0,L|419:204,1,110,2|0,0:0|0:0,0:0:0:0:
145,184,119007,2,0,L|121:290,1,110,8|0,0:0|0:0,0:0:0:0:
332,148,119307,5,6,0:0:0:0:
210,242,119457,1,2,0:0:0:0:
210,242,119532,1,2,0:0:0:0:
210,242,119607,1,10,0:0:0:0:
397,206,119757,1,2,0:0:0:0:
183,118,119907,1,8,0:0:0:0:
275,300,120057,1,2,0:0:0:0:
351,62,120207,1,8,0:0:0:0:
126,270,120357,1,2,0:0:0:0:
416,120,120507,6,0,B|454:99|454:99|392:216,1,176,6|8,0:0|0:0,0:0:0:0:
267,90,120957,2,0,L|311:11,1,88,0|2,0:0|0:0,0:0:0:0:
378,292,121257,1,0,0:0:0:0:
332,148,121407,1,8,0:0:0:0:
462,264,121557,1,0,0:0:0:0:
229,262,121707,6,0,P|166:210|183:116,1,176,2|8,0:0|0:0,0:0:0:0:
313,234,122157,2,0,L|381:289,1,88,0|2,0:0|0:0,0:0:0:0:
210,348,122457,1,0,0:0:0:0:
248,176,122607,1,8,0:0:0:0:
294,320,122757,1,0,0:0:0:0:
99,146,122907,6,0,P|95:102|115:61,1,88,2|0,0:0|0:0,0:0:0:0:
229,262,123207,2,0,P|233:306|213:347,1,88,8|0,0:0|0:0,0:0:0:0:
183,118,123507,5,2,0:0:0:0:
145,290,123657,1,0,0:0:0:0:
118,60,123807,5,8,0:0:0:0:
210,348,123957,1,0,0:0:0:0:
267,90,124107,6,0,P|303:64|348:61,1,88,2|0,0:0|0:0,0:0:0:0:
80,232,124407,2,0,P|43:257|-1:260,1,88,8|0,0:0|0:0,0:0:0:0:
202,32,124707,5,2,0:0:0:0:
145,290,124857,1,0,0:0:0:0:
118,60,125007,5,8,0:0:0:0:
294,320,125157,1,0,0:0:0:0:
99,146,125307,6,0,P|119:57|211:34,1,176,6|8,0:0|0:0,0:0:0:0:
145,290,125757,2,0,P|108:315|63:318,1,88,0|2,0:0|0:0,0:0:0:0:
183,118,126057,1,0,0:0:0:0:
294,320,126207,1,8,0:0:0:0:
80,232,126357,1,0,0:0:0:0:
332,148,126507,6,0,P|420:168|440:261,1,176,2|8,0:0|0:0,0:0:0:0:
351,62,126957,2,0,P|385:38|436:35,1,88,0|2,0:0|0:0,0:0:0:0:
294,320,127257,1,0,0:0:0:0:
267,90,127407,1,8,0:0:0:0:
359,230,127557,1,0,0:0:0:0:
99,146,127707,6,0,P|47:150|11:177,1,88,6|0,0:0|0:0,0:0:0:0:
313,234,128007,2,0,P|365:230|401:203,1,88,8|0,0:0|0:0,0:0:0:0:
118,60,128307,5,2,0:0:0:0:
229,262,128457,1,0,0:0:0:0:
351,62,128607,5,8,0:0:0:0:
80,232,128757,1,0,0:0:0:0:
332,148,128907,6,0,P|373:144|419:167,1,88,6|0,0:0|0:0,0:0:0:0:
210,348,129207,2,0,P|168:351|122:328,1,88,8|0,0:0|0:0,0:0:0:0:
294,320,129507,5,2,0:0:0:0:
80,232,129657,1,0,0:0:0:0:
397,206,129807,5,8,0:0:0:0:
61,318,129957,1,0,0:0:0:0:
267,90,130107,6,0,B|307:66|307:66|266:177,1,149.600002853394,6|0,0:0|0:0,0:0:0:0:
271,162,130707,2,0,B|281:151|299:146|313:157|321:175|321:175|324:202|301:219|258:228|258:228|300:255,1,202.400003860474,6|0,0:0|0:0,0:0:0:0:
298,254,131307,2,0,B|348:263|348:263|344:290|325:300|325:300|345:304|363:324|366:349|341:372|314:370|291:350,1,220,6|0,0:0|0:0,0:0:0:0:
164,204,131607,5,0,0:0:0:0:
267,90,131757,1,0,0:0:0:0:
267,90,131832,1,0,0:0:0:0:
267,90,131907,2,0,P|303:65|356:64,1,88
229,262,132207,1,0,0:0:0:0:
332,148,132357,1,0,0:0:0:0:
294,320,132507,1,6,0:0:0:0:
256,192,132657,12,0,134757,0:0:0:0:
