osu file format v14

[General]
AudioFilename: audio.mp3
AudioLeadIn: 0
PreviewTime: 45452
Countdown: 0
SampleSet: Soft
StackLeniency: 0.6
Mode: 0
LetterboxInBreaks: 0
WidescreenStoryboard: 0

[Editor]
Bookmarks: 31745
DistanceSpacing: 1.5
BeatDivisor: 2
GridSize: 32
TimelineZoom: 1

[Metadata]
Title:Tsuki to Taiyou (TV Size)
TitleUnicode:月と太陽 (TV Size)
Artist:shela
ArtistUnicode:shela
Creator:Chaoslitz
Version:Insane
Source:ONE PIECE
Tags:ワンピース ending ed ed12 Jpop pop J-pop anime japanese arronchu1207 bossandy
BeatmapID:4427893
BeatmapSetID:2109521

[Difficulty]
HPDrainRate:5
CircleSize:4.2
OverallDifficulty:7
ApproachRate:8
SliderMultiplier:2.6
SliderTickRate:1

[Events]
//Background and Video events
0,0,"bg.jpg",0,0
Video,1363,"jjjj.mp4"
//Break Periods
//Storyboard Layer 0 (Background)
//Storyboard Layer 1 (Fail)
//Storyboard Layer 2 (Pass)
//Storyboard Layer 3 (Foreground)
//Storyboard Layer 4 (Overlay)
//Storyboard Sound Samples

[TimingPoints]
711,689.655172413793,4,2,1,50,1,0
711,-125,4,2,1,50,0,0
1401,689.655172413793,4,2,1,50,1,0
1401,-125,4,2,1,50,0,0
12435,-111.111111111111,4,2,1,60,0,0
37263,-111.111111111111,4,2,1,65,0,0
40021,-111.111111111111,4,2,1,70,0,0
41745,-111.111111111111,4,2,1,73,0,0
42090,-111.111111111111,4,2,1,76,0,0
42607,-111.111111111111,4,2,1,80,0,0
44504,-111.111111111111,4,2,1,70,0,0
44676,-111.111111111111,4,2,2,70,0,0
45538,-100,4,2,1,80,0,1
62090,-100,4,2,1,75,0,1
64849,-100,4,2,1,70,0,1
67607,-100,4,2,1,60,0,0
68297,-100,4,2,1,40,0,0
68987,-100,4,2,1,20,0,0
69676,-100,4,2,1,10,0,0

[Colours]
Combo1 : 61,135,203
Combo2 : 248,152,65
Combo3 : 65,194,107
Combo4 : 236,96,55

[HitObjects]
202,198,711,5,8,0:0:0:0:
202,198,883,1,8,0:0:0:0:
136,247,1055,2,0,L|35:257,1,52,0|8,0:0|0:1,0:0:0:0:
77,361,1401,6,0,B|116:391|191:350|152:284|152:284,1,104,10|0,0:1|0:0,0:0:0:0:
136,247,1918,2,0,B|178:325|255:259|255:259,1,104,2|2,0:0|0:0,0:0:0:0:
270,346,2435,2,0,P|341:213|242:274,1,208,2|0,0:0|0:0,0:0:0:0:
318,159,3469,1,0,0:0:0:0:
228,230,3814,2,0,P|252:293|268:290,1,52,2|10,0:0|0:1,0:0:0:0:
77,361,4159,6,0,B|116:391|191:350|152:284|152:284,1,104,10|2,0:1|0:0,0:0:0:0:
136,247,4676,2,0,B|178:325|255:259|255:259,1,104,10|2,0:1|0:0,0:0:0:0:
304,261,5194,1,10,0:1:0:0:
378,361,5538,2,0,B|433:393|497:342|464:263|464:263,1,104,8|0,0:0|0:0,0:0:0:0:
497,255,6056,1,0,0:0:0:0:
455,185,6228,6,0,L|354:195,1,52,2|0,0:0|0:0,0:0:0:0:
304,261,6573,2,0,L|405:251,1,52,2|8,0:0|0:1,0:0:0:0:
455,185,6918,6,0,B|518:123|430:59|430:59,1,104,10|2,0:1|0:0,0:0:0:0:
488,14,7435,2,0,B|439:91|363:13|363:13,1,104,2|2,0:0|0:0,0:0:0:0:
326,0,7952,1,2,0:0:0:0:
248,78,8125,2,0,B|185:146|275:204|275:204,1,104,2|0,0:0|0:0,0:0:0:0:
323,177,8642,6,0,B|386:110|295:49|295:49,2,104,2|2|2,0:0|0:0|0:0,0:0:0:0:
278,246,9504,1,8,0:1:0:0:
381,366,9676,6,0,B|424:388|491:335|440:276|440:276,1,104,10|2,0:1|0:0,0:0:0:0:
411,246,10194,2,0,L|310:256,1,52,10|0,0:1|0:0,0:0:0:0:
314,319,10538,1,2,0:0:0:0:
309,324,10711,2,0,L|104:343,1,104,10|8,0:1|0:0,0:0:0:0:
82,371,11400,6,0,B|33:297|119:249|119:249,1,104,2|2,0:0|0:0,0:0:0:0:
156,229,11918,1,8,0:1:0:0:
82,194,12090,2,0,L|-19:204,1,52,2|8,0:0|0:1,0:0:0:0:
36,41,12435,6,0,B|113:-4|145:81|145:81,1,116.999996429443,14|0,0:1|0:0,0:0:0:0:
72,114,12952,1,8,0:1:0:0:
215,43,13125,2,0,P|186:107|160:100,1,58.4999982147217,2|0,0:0|0:0,0:0:0:0:
146,145,13469,2,0,B|223:100|255:185|255:185,1,116.999996429443,10|0,0:1|0:0,0:0:0:0:
220,366,14159,6,0,P|183:304|193:297,1,58.4999982147217,10|0,0:1|0:0,0:0:0:0:
181,224,14504,2,0,L|67:236,1,58.4999982147217,10|0,0:0|0:0,0:0:0:0:
233,286,14849,2,0,L|347:274,1,58.4999982147217,2|8,0:0|0:1,0:0:0:0:
441,331,15194,6,0,B|375:414|304:309|304:309,1,116.999996429443,10|0,0:1|0:0,0:0:0:0:
291,280,15711,1,8,0:1:0:0:
389,167,15883,2,0,P|414:239|400:249,1,58.4999982147217,2|0,0:0|0:0,0:0:0:0:
441,331,16228,1,10,0:1:0:0:
382,275,16401,2,0,B|334:202|411:145|411:145,1,116.999996429443,2|0,0:0|0:0,0:0:0:0:
437,99,16918,1,8,0:1:0:0:
443,95,17090,1,0,0:0:0:0:
350,41,17263,6,0,L|236:52,1,58.4999982147217,10|0,0:0|0:0,0:0:0:0:
237,106,17607,1,10,0:1:0:0:
273,178,17779,2,0,L|501:156,1,116.999996429443,2|0,0:0|0:0,0:0:0:0:
437,99,18297,5,0,0:0:0:0:
443,95,18469,2,0,B|510:92|542:192|445:222|445:222,1,116.999996429443,8|0,0:1|0:0,0:0:0:0:
512,256,18987,2,0,B|463:350|375:259|375:259,1,116.999996429443,10|2,0:1|0:0,0:0:0:0:
371,356,19504,1,0,0:0:0:0:
367,362,19676,2,0,P|312:329|330:296,1,58.4999982147217,10|0,0:1|0:0,0:0:0:0:
244,191,20021,2,0,B|191:185|160:279|233:297|233:297,1,116.999996429443,10|2,0:0|0:0,0:0:0:0:
133,312,20538,1,10,0:1:0:0:
200,357,20711,6,0,L|428:336,1,116.999996429443,10|0,0:1|0:0,0:0:0:0:
322,266,21228,2,0,L|94:287,1,116.999996429443,10|0,0:1|0:0,0:0:0:0:
133,312,21745,1,10,0:1:0:0:
126,314,21918,2,0,B|63:238|151:169|151:169,1,116.999996429443,2|0,0:0|0:0,0:0:0:0:
115,88,22435,6,0,L|0:99,1,58.4999982147217,10|0,0:1|0:0,0:0:0:0:
119,206,22780,2,0,L|347:185,1,116.999996429443,10|2,0:0|0:0,0:0:0:0:
285,132,23297,1,8,0:1:0:0:
179,39,23469,6,0,B|119:104|187:161|187:161,1,116.999996429443,10|0,0:1|0:0,0:0:0:0:
236,195,23987,1,8,0:1:0:0:
187,329,24159,2,0,B|127:407|61:324|61:324,2,116.999996429443,2|10|0,0:0|0:1|0:0,0:0:0:0:
348,250,25194,6,0,L|233:261,1,58.4999982147217,10|0,0:1|0:0,0:0:0:0:
187,329,25538,2,0,L|302:318,1,58.4999982147217,10|0,0:0|0:0,0:0:0:0:
370,359,25883,2,0,P|340:298|346:295,1,58.4999982147217,2|8,0:0|0:1,0:0:0:0:
211,247,26228,6,0,B|157:175|240:121|240:121,1,116.999996429443,10|0,0:1|0:0,0:0:0:0:
271,0,26745,2,0,B|339:44|286:103|286:103,1,116.999996429443,10|0,0:1|0:0,0:0:0:0:
218,60,27263,2,0,L|103:71,1,58.4999982147217,10|0,0:1|0:0,0:0:0:0:
109,269,27607,6,0,B|165:192|234:265|234:265,1,116.999996429443,10|8,0:1|0:1,0:0:0:0:
341,161,28125,2,0,B|419:226|324:301|324:301,1,116.999996429443,2|0,0:0|0:0,0:0:0:0:
390,338,28642,2,0,P|324:355|318:332,1,58.4999982147217,2|8,0:0|0:1,0:0:0:0:
288,222,28987,5,10,0:1:0:0:
455,292,29332,1,2,0:0:0:0:
493,363,29504,2,0,B|436:287|364:356|364:356,1,116.999996429443,10|0,0:1|0:0,0:0:0:0:
362,261,30021,1,10,0:1:0:0:
356,265,30194,2,0,B|270:228|242:323|242:323,1,116.999996429443,2|0,0:0|0:0,0:0:0:0:
214,367,30711,1,8,0:1:0:0:
214,367,30883,1,0,0:0:0:0:
190,248,31056,2,0,L|75:259,1,58.4999982147217,8|0,0:0|0:0,0:0:0:0:
17,317,31400,2,0,L|132:306,1,58.4999982147217,2|8,0:0|0:1,0:0:0:0:
122,149,31745,6,0,B|197:217|98:287|98:287,1,116.999996429443,14|0,0:1|0:0,0:0:0:0:
75,311,32263,2,0,B|0:243|99:173|99:173,1,116.999996429443,8|0,0:1|0:0,0:0:0:0:
118,143,32780,1,10,0:1:0:0:
122,149,32952,2,0,B|211:178|220:81|220:81,1,116.999996429443,2|0,0:0|0:0,0:0:0:0:
196,26,33469,2,0,L|81:37,1,58.4999982147217,8|0,0:1|0:0,0:0:0:0:
273,169,33814,2,0,L|501:148,1,116.999996429443,8|2,0:0|0:0,0:0:0:0:
440,95,34332,1,8,0:1:0:0:
333,2,34504,6,0,B|273:67|341:124|341:124,1,116.999996429443,10|0,0:1|0:0,0:0:0:0:
390,158,35021,2,0,B|442:230|367:278|367:278,1,116.999996429443,8|0,0:1|0:0,0:0:0:0:
420,336,35538,1,10,0:1:0:0:
420,343,35711,2,0,B|360:421|294:338|294:338,1,116.999996429443,2|0,0:0|0:0,0:0:0:0:
275,292,36228,1,8,0:1:0:0:
138,230,36573,6,0,L|23:241,1,58.4999982147217,10|0,0:0|0:0,0:0:0:0:
75,355,36918,2,0,P|135:314|130:293,1,58.4999982147217,2|8,0:0|0:1,0:0:0:0:
200,181,37263,6,0,B|140:246|208:303|208:303,1,116.999996429443,10|0,0:1|0:0,0:0:0:0:
275,292,37780,2,0,B|335:227|267:170|267:170,1,116.999996429443,8|0,0:1|0:0,0:0:0:0:
245,114,38297,2,0,B|295:191|372:120|372:120,1,116.999996429443,10|0,0:1|0:0,0:0:0:0:
183,64,38987,6,0,L|68:75,1,58.4999982147217,10|0,0:1|0:0,0:0:0:0:
14,137,39332,2,0,L|129:126,1,58.4999982147217,10|0,0:0|0:0,0:0:0:0:
56,2,39676,2,0,P|70:75|83:77,1,58.4999982147217,2|8,0:0|0:1,0:0:0:0:
150,154,40021,6,0,B|202:226|127:274|127:274,1,116.999996429443,10|0,0:1|0:0,0:0:0:0:
127,339,40538,2,0,B|184:416|254:335|254:335,1,116.999996429443,8|0,0:1|0:0,0:0:0:0:
303,317,41056,1,8,0:1:0:0:
303,317,41228,1,0,0:0:0:0:
265,204,41400,6,0,L|150:215,1,58.4999982147217,8|0,0:0|0:0,0:0:0:0:
336,243,41745,2,0,L|451:232,1,58.4999982147217,8|0,0:0|0:0,0:0:0:0:
512,176,42090,2,0,L|397:187,1,58.4999982147217,8|0,0:0|0:0,0:0:0:0:
336,243,42435,5,10,0:0:0:0:
467,318,42607,2,0,L|477:203,1,58.4999982147217,14|8,0:1|0:1,0:0:0:0:
460,75,42952,2,0,B|512:146|435:199|435:199,1,116.999996429443,10|8,0:0|0:1,0:0:0:0:
315,143,43469,2,0,P|336:76|368:76,1,58.4999982147217,4|0,0:3|0:0,0:0:0:0:
396,125,43814,1,8,0:1:0:0:
396,125,43987,1,4,0:3:0:0:
256,298,44504,6,0,P|189:292|189:271,1,58.4999982147217,8|8,0:1|0:0,0:0:0:0:
78,303,44849,1,8,0:0:0:0:
78,303,45021,1,8,0:0:0:0:
187,234,45194,1,8,0:3:0:0:
138,357,45366,1,4,0:3:0:0:
107,226,45538,6,0,P|279:130|225:268,2,260,14|10|2,0:1|0:0|0:0,0:0:0:0:
49,283,47090,1,8,0:1:0:0:
92,352,47263,2,0,P|157:302|148:287,1,65,8|0,0:1|0:0,0:0:0:0:
272,377,47606,2,0,B|326:301|252:248|252:248,1,130,10|2,0:0|0:0,0:0:0:0:
196,100,48124,2,0,L|185:274,1,130,2|0,0:0|0:0,0:0:0:0:
107,226,48642,6,0,L|118:52,2,130,10|10|2,0:1|0:0|0:0,0:0:0:0:
62,158,49504,1,0,0:0:0:0:
196,100,49676,2,0,P|196:180|181:180,1,65,2|8,0:0|0:1,0:0:0:0:
307,281,50021,2,0,B|273:205|353:144|407:188|407:188,2,130,10|10|2,0:1|0:0|0:0,0:0:0:0:
278,205,50883,1,2,0:0:0:0:
355,346,51056,2,0,B|285:258|210:355|210:355,1,130,8|0,0:1|0:0,0:0:0:0:
172,369,51573,1,8,0:1:0:0:
118,146,51745,6,0,P|56:290|94:307,1,195,10|2,0:0|0:0,0:0:0:0:
61,359,52435,2,0,P|-1:304|6:294,2,65,2|8|8,0:0|0:1|0:1,0:0:0:0:
122,305,52952,1,0,0:0:0:0:
0,185,53125,6,0,B|97:145|116:253|116:253,1,130,10|2,0:0|0:0,0:0:0:0:
152,51,53642,2,0,B|225:114|150:183|150:183,1,130,2|0,0:0|0:0,0:0:0:0:
85,146,54159,2,0,P|101:79|121:82,1,65,10|0,0:1|0:0,0:0:0:0:
83,7,54504,2,0,L|-44:19,1,65,10|0,0:0|0:0,0:0:0:0:
164,166,54849,2,0,L|421:143,1,130,2|2,0:0|0:0,0:0:0:0:
358,104,55366,5,8,0:1:0:0:
358,104,55539,1,8,0:1:0:0:
424,192,55711,1,2,0:0:0:0:
302,37,55883,2,0,B|236:106|305:167|305:167,1,130,10|0,0:0|0:0,0:0:0:0:
347,217,56401,1,2,0:0:0:0:
262,364,56573,2,0,P|191:235|205:229,1,195,14|0,0:1|0:0,0:0:0:0:
347,217,57263,6,0,B|402:294|324:345|324:345,1,130,10|0,0:0|0:0,0:0:0:0:
286,272,57780,1,10,0:0:0:0:
347,217,57952,2,0,P|383:284|375:288,1,65,2|8,0:0|0:1,0:0:0:0:
420,373,58297,1,8,0:1:0:0:
420,373,58470,1,0,0:0:0:0:
286,272,58642,6,0,B|230:194|308:143|308:143,1,130,10|2,0:0|0:0,0:0:0:0:
256,45,59159,1,2,0:0:0:0:
218,117,59332,2,0,L|90:129,1,65,8|0,0:1|0:0,0:0:0:0:
20,173,59676,2,0,L|148:161,1,65,10|0,0:1|0:0,0:0:0:0:
141,8,60021,6,0,B|215:67|139:140|139:140,1,130,10|0,0:0|0:0,0:0:0:0:
89,72,60539,1,10,0:0:0:0:
157,205,60711,2,0,P|81:223|76:206,1,65,2|8,0:0|0:1,0:0:0:0:
20,173,61056,1,8,0:1:0:0:
20,173,61228,1,0,0:0:0:0:
47,290,61401,6,0,B|131:240|174:329|174:329,1,130,10|2,0:0|0:0,0:0:0:0:
218,370,61918,1,2,0:0:0:0:
359,348,62090,2,0,B|425:279|356:218|356:218,1,130,8|0,0:1|0:0,0:0:0:0:
289,207,62607,1,8,0:1:0:0:
242,292,62780,2,0,L|370:280,1,65,8|0,0:0|0:0,0:0:0:0:
478,201,63125,6,0,B|422:291|345:213|345:213,1,130,10|2,0:1|0:0,0:0:0:0:
256,122,63642,1,8,0:1:0:0:
185,162,63814,2,0,P|204:83|220:82,1,65,10|0,0:1|0:0,0:0:0:0:
327,82,64159,2,0,P|308:161|292:162,1,65,10|0,0:0|0:0,0:0:0:0:
185,162,64504,5,2,0:0:0:0:
256,122,64676,1,2,0:0:0:0:
336,141,64849,2,0,B|430:192|462:79|462:79,1,130,10|8,0:1|0:1,0:0:0:0:
176,298,65539,2,0,B|82:349|50:236|50:236,1,130,8|2,0:0|0:0,0:0:0:0:
135,226,66056,5,8,0:0:0:0:
220,365,66228,2,0,P|282:308|273:294,1,65,10|8,0:1|0:1,0:0:0:0:
332,168,66573,2,0,B|402:138|463:239|386:271|386:271,1,130,10|10,0:1|0:0,0:0:0:0:
354,377,67090,1,8,0:0:0:0:
462,300,67263,2,0,P|382:287|381:268,1,65,10|2,0:1|0:0,0:0:0:0:
260,205,67607,5,12,0:1:0:0:
256,192,67780,12,0,70194,0:0:0:0:
