osu file format v14

[General]
AudioFilename: audio.mp3
AudioLeadIn: 0
PreviewTime: 78301
Countdown: 0
SampleSet: Soft
StackLeniency: 0.7
Mode: 3
LetterboxInBreaks: 0
SpecialStyle: 0
WidescreenStoryboard: 1

[Editor]
DistanceSpacing: 0.5
BeatDivisor: 16
GridSize: 32
TimelineZoom: 1.5

[Metadata]
Title:ari venti w/ Young Citrus
TitleUnicode:ari venti w/ Young Citrus
Artist:sheki.
ArtistUnicode:sheki.
Creator:-MysticEyes
Version:intermediate
Source:
Tags:chill trap electronic english thank u next ariana grande
BeatmapID:1971721
BeatmapSetID:933455

[Difficulty]
HPDrainRate:7
CircleSize:4
OverallDifficulty:7
ApproachRate:5
SliderMultiplier:1.4
SliderTickRate:1

[Events]
//Background and Video events
0,0,"beepbeepbg.jpg",0,0
//Break Periods
//Storyboard Layer 0 (Background)
//Storyboard Layer 1 (Fail)
//Storyboard Layer 2 (Pass)
//Storyboard Layer 3 (Foreground)
//Storyboard Sound Samples

[TimingPoints]
489,468.75,4,2,1,90,1,0
140645,-100,4,2,1,90,0,1
154239,-100,4,2,1,90,0,0
155645,-100,4,2,1,90,0,1
169239,-100,4,2,1,90,0,0

[HitObjects]
64,192,489,5,0,0:0:0:0:
192,192,1895,1,0,0:0:0:0:
192,192,4239,1,0,0:0:0:0:
448,192,5410,1,0,0:0:0:0:
320,192,5645,1,0,0:0:0:0:
320,192,6201,128,0,6436:0:0:0:0:
192,192,6436,128,0,6582:0:0:0:0:
64,192,7989,1,0,0:0:0:0:
448,192,9160,1,0,0:0:0:0:
192,192,9395,1,0,0:0:0:0:
448,192,11739,1,0,0:0:0:0:
320,192,13145,1,0,0:0:0:0:
64,192,15489,1,0,0:0:0:30:soft-hitfinish.wav
448,192,15489,1,0,0:0:0:0:
64,192,16660,1,0,0:0:0:0:
448,192,16895,1,0,0:0:0:0:
64,192,19004,1,0,0:0:0:0:
192,192,19121,1,0,0:0:0:0:
320,192,19239,1,0,0:0:0:0:
320,192,20410,1,0,0:0:0:0:
448,192,20528,1,0,0:0:0:0:
192,192,20645,1,0,0:0:0:0:
320,192,21201,128,0,21436:0:0:0:0:
192,192,21436,128,0,21582:0:0:0:0:
192,192,22285,1,0,0:0:0:0:
64,192,22989,1,0,0:0:0:0:
192,192,24160,1,0,0:0:0:0:
448,192,24395,1,0,0:0:0:0:
320,192,26739,1,0,0:0:0:0:
192,192,28145,1,0,0:0:0:0:
64,192,28614,128,0,29082:0:0:0:0:
448,192,29082,128,0,29317:0:0:0:0:
320,192,29317,128,0,29551:0:0:0:0:
64,192,30489,1,2,0:0:0:0:
192,192,30489,1,0,0:0:0:0:
64,192,31426,1,8,0:0:0:0:
320,192,31426,1,0,0:0:0:0:
448,192,31778,1,2,0:0:0:0:
64,192,31895,1,2,0:0:0:0:
192,192,31895,1,0,0:0:0:0:
192,192,32364,1,0,0:0:0:0:
320,192,32598,1,0,0:0:0:0:
64,192,32832,1,2,0:0:0:0:
448,192,33096,1,0,0:0:0:0:
64,192,33301,1,8,0:0:0:0:
320,192,33301,1,0,0:0:0:0:
192,192,33594,1,0,0:0:0:0:
320,192,33965,128,0,34239:0:0:0:0:
64,192,34239,1,2,0:0:0:0:
192,192,34239,1,0,0:0:0:0:
448,192,34356,1,2,0:0:0:0:
64,192,34590,1,2,0:0:0:0:
320,192,34707,1,0,0:0:0:0:
64,192,34942,1,2,0:0:0:0:
64,192,35176,1,8,0:0:0:0:
320,192,35176,128,0,35528:0:0:0:0:
448,192,35528,1,2,0:0:0:0:
64,192,35645,1,2,0:0:0:0:
192,192,35645,1,0,0:0:0:0:
320,192,36201,128,0,36436:0:0:0:0:
192,192,36436,128,0,36582:0:0:0:0:
64,192,36582,1,2,0:0:0:0:
448,192,36817,128,0,37051:0:0:0:0:
64,192,37051,1,8,0:0:0:0:
320,192,37051,1,0,0:0:0:0:
64,192,37285,1,2,0:0:0:0:
320,192,37715,128,0,37871:0:0:0:0:
448,192,37871,1,2,0:0:0:0:
64,192,37989,1,2,0:0:0:0:
192,192,37989,1,0,0:0:0:0:
64,192,38692,1,2,0:0:0:0:
64,192,38926,1,8,0:0:0:0:
320,192,38926,1,0,0:0:0:0:
448,192,39278,1,2,0:0:0:0:
64,192,39395,1,2,0:0:0:0:
192,192,39395,1,0,0:0:0:0:
192,192,40098,1,0,0:0:0:0:
64,192,40332,1,2,0:0:0:0:
320,192,40567,1,0,0:0:0:0:
64,192,40801,1,8,0:0:0:0:
320,192,40801,1,0,0:0:0:0:
192,192,41035,1,0,0:0:0:0:
448,192,41270,1,2,0:0:0:0:
64,192,41387,1,2,0:0:0:0:
448,192,41621,1,2,0:0:0:0:
192,192,41739,1,0,0:0:0:0:
64,192,41973,1,2,0:0:0:0:
448,192,42207,1,2,0:0:0:0:
64,192,42676,1,8,0:0:0:0:
320,192,42676,1,0,0:0:0:0:
64,192,43145,1,2,0:0:0:0:
192,192,43145,1,0,0:0:0:0:
448,192,43614,1,0,0:0:0:0:
448,192,44317,1,0,0:0:0:0:
320,192,44551,1,0,0:0:0:0:
192,192,44707,1,0,0:0:0:0:
64,192,44864,1,0,0:0:0:0:
448,192,45020,1,0,0:0:0:0:
64,192,45489,1,2,0:0:0:0:
192,192,45489,1,0,0:0:0:0:
320,192,45811,1,0,0:0:0:0:
192,192,45957,1,0,0:0:0:0:
320,192,46162,1,0,0:0:0:0:
64,192,46426,1,8,0:0:0:0:
320,192,46426,1,0,0:0:0:0:
64,192,46778,1,2,0:0:0:0:
320,192,46895,1,2,0:0:0:0:
448,192,46895,1,0,0:0:0:0:
192,192,47129,1,0,0:0:0:0:
320,192,47364,1,0,0:0:0:0:
192,192,47598,1,0,0:0:0:0:
64,192,47832,1,2,0:0:0:0:
192,192,47949,1,0,0:0:0:0:
320,192,48067,1,0,0:0:0:0:
64,192,48184,1,0,0:0:0:0:
192,192,48301,1,8,0:0:0:0:
448,192,48301,1,0,0:0:0:0:
320,192,48535,1,0,0:0:0:0:
192,192,48770,1,0,0:0:0:0:
320,192,49004,1,0,0:0:0:0:
64,192,49239,1,2,0:0:0:0:
192,192,49239,1,0,0:0:0:0:
448,192,49356,1,2,0:0:0:0:
64,192,49590,1,2,0:0:0:0:
192,192,49707,1,0,0:0:0:0:
448,192,49942,1,2,0:0:0:0:
64,192,50176,1,8,0:0:0:0:
320,192,50176,1,0,0:0:0:0:
192,192,50410,1,0,0:0:0:0:
64,192,50528,1,2,0:0:0:0:
320,192,50645,1,2,0:0:0:0:
448,192,50645,1,0,0:0:0:0:
192,192,50879,1,0,0:0:0:0:
320,192,51114,1,0,0:0:0:0:
192,192,51348,1,0,0:0:0:0:
448,192,51582,1,2,0:0:0:0:
320,192,51758,1,0,0:0:0:0:
64,192,51934,1,0,0:0:0:0:
192,192,52051,1,8,0:0:0:0:
448,192,52051,1,0,0:0:0:0:
64,192,52285,1,2,0:0:0:0:
448,192,52520,1,2,0:0:0:0:
192,192,52637,1,0,0:0:0:0:
320,192,52754,1,0,0:0:0:0:
448,192,52871,1,2,0:0:0:0:
64,192,52989,1,2,0:0:0:0:
192,192,52989,1,0,0:0:0:0:
320,192,53223,1,0,0:0:0:0:
448,192,53340,1,0,0:0:0:0:
192,192,53457,1,0,0:0:0:0:
448,192,53692,1,2,0:0:0:0:
64,192,53926,1,8,0:0:0:0:
320,192,53926,1,0,0:0:0:0:
192,192,54160,1,0,0:0:0:0:
64,192,54278,1,2,0:0:0:0:
320,192,54395,1,2,0:0:0:0:
448,192,54395,1,0,0:0:0:0:
192,192,54629,1,0,0:0:0:0:
320,192,54864,1,0,0:0:0:0:
64,192,55098,1,2,0:0:0:0:
448,192,55332,1,2,0:0:0:0:
192,192,55449,1,0,0:0:0:0:
64,192,55567,1,0,0:0:0:0:
320,192,55684,1,0,0:0:0:0:
192,192,55801,1,8,0:0:0:0:
448,192,55801,1,0,0:0:0:0:
320,192,56035,1,0,0:0:0:0:
64,192,56270,1,2,0:0:0:0:
448,192,56387,1,2,0:0:0:0:
64,192,56621,1,2,0:0:0:0:
192,192,56739,1,0,0:0:0:0:
448,192,56973,1,2,0:0:0:0:
448,192,57207,1,2,0:0:0:0:
192,192,57442,1,0,0:0:0:0:
64,192,57676,1,8,0:0:0:0:
320,192,57676,1,0,0:0:0:0:
192,192,57910,1,0,0:0:0:0:
320,192,58145,1,2,0:0:0:0:
448,192,58145,1,0,0:0:0:0:
192,192,58379,1,0,0:0:0:0:
320,192,58614,1,0,0:0:0:0:
192,192,58848,1,0,0:0:0:0:
448,192,59082,1,2,0:0:0:0:
320,192,59317,1,0,0:0:0:0:
192,192,59551,1,8,0:0:0:0:
448,192,59551,1,0,0:0:0:0:
320,192,59785,1,0,0:0:0:0:
192,192,60020,1,0,0:0:0:0:
64,192,60137,1,0,0:0:0:0:
320,192,60254,1,0,0:0:0:0:
192,192,60371,1,0,0:0:0:0:
448,192,60489,128,0,60957:0:0:0:0:
64,192,60957,128,0,61426:0:0:0:0:
448,192,61426,128,0,61895:0:0:0:0:
64,192,61895,128,0,62364:0:0:0:0:
448,192,62364,128,0,62832:0:0:0:0:
64,192,62832,128,0,63301:0:0:0:0:
320,192,63301,1,0,0:0:0:0:
64,192,64239,1,0,0:0:0:0:
192,192,65176,1,8,0:0:0:0:
448,192,65176,1,0,0:0:0:0:
192,192,65645,1,0,0:0:0:0:
192,192,66114,1,0,0:0:0:0:
320,192,66348,1,0,0:0:0:0:
320,192,66817,1,0,0:0:0:0:
192,192,67051,1,8,0:0:0:0:
448,192,67051,1,0,0:0:0:0:
448,192,67989,1,0,0:0:0:0:
192,192,68223,1,0,0:0:0:0:
192,192,68926,1,8,0:0:0:0:
448,192,68926,1,0,0:0:0:0:
192,192,69395,1,0,0:0:0:0:
320,192,69951,128,0,70186:0:0:0:0:
192,192,70186,128,0,70332:0:0:0:0:
192,192,70801,1,8,0:0:0:0:
448,192,70801,1,0,0:0:0:0:
64,192,71739,1,0,0:0:0:0:
192,192,72676,1,8,0:0:0:0:
448,192,72676,1,0,0:0:0:0:
448,192,73145,1,0,0:0:0:0:
192,192,73848,1,0,0:0:0:0:
320,192,74317,1,0,0:0:0:0:
192,192,74551,1,8,0:0:0:0:
448,192,74551,1,0,0:0:0:0:
64,192,75020,1,0,0:0:0:0:
64,192,75254,1,0,0:0:0:0:
320,192,75489,1,0,0:0:0:0:
192,192,75723,1,0,0:0:0:0:
192,192,76426,1,8,0:0:0:0:
448,192,76426,1,0,0:0:0:0:
192,192,76895,1,0,0:0:0:0:
192,192,78301,128,8,78770:0:0:0:0:
448,192,78301,1,0,0:0:0:0:
448,192,78770,1,0,0:0:0:0:
320,192,78887,1,0,0:0:0:0:
192,192,79004,1,0,0:0:0:0:
64,192,79121,1,0,0:0:0:0:
320,192,79239,1,2,0:0:0:0:
448,192,79239,1,0,0:0:0:0:
192,192,79561,1,0,0:0:0:0:
320,192,79707,1,0,0:0:0:0:
192,192,79912,1,0,0:0:0:0:
64,192,80176,1,8,0:0:0:0:
320,192,80176,1,0,0:0:0:0:
448,192,80528,1,2,0:0:0:0:
64,192,80645,1,2,0:0:0:0:
192,192,80645,1,0,0:0:0:0:
320,192,80879,1,0,0:0:0:0:
192,192,81114,1,0,0:0:0:0:
320,192,81348,1,0,0:0:0:0:
448,192,81582,1,2,0:0:0:0:
192,192,81817,1,0,0:0:0:0:
64,192,82051,1,8,0:0:0:0:
320,192,82051,1,0,0:0:0:0:
192,192,82285,1,0,0:0:0:0:
320,192,82520,1,0,0:0:0:0:
192,192,82754,1,0,0:0:0:0:
320,192,82989,1,2,0:0:0:0:
448,192,82989,1,0,0:0:0:0:
64,192,83106,1,2,0:0:0:0:
448,192,83340,1,2,0:0:0:0:
320,192,83457,1,0,0:0:0:0:
64,192,83692,1,2,0:0:0:0:
192,192,83926,1,8,0:0:0:0:
448,192,83926,1,0,0:0:0:0:
320,192,84160,1,0,0:0:0:0:
448,192,84278,1,2,0:0:0:0:
64,192,84395,1,2,0:0:0:0:
192,192,84395,1,0,0:0:0:0:
320,192,84629,1,0,0:0:0:0:
192,192,84864,1,0,0:0:0:0:
320,192,85098,1,0,0:0:0:0:
64,192,85332,1,2,0:0:0:0:
192,192,85567,1,0,0:0:0:0:
64,192,85801,1,8,0:0:0:0:
320,192,85801,1,0,0:0:0:0:
448,192,86035,1,2,0:0:0:0:
320,192,86270,1,0,0:0:0:0:
192,192,86504,1,0,0:0:0:0:
64,192,86621,1,2,0:0:0:0:
320,192,86739,1,2,0:0:0:0:
448,192,86739,1,0,0:0:0:0:
192,192,86973,1,0,0:0:0:0:
320,192,87207,1,0,0:0:0:0:
64,192,87442,1,2,0:0:0:0:
192,192,87676,1,8,0:0:0:0:
448,192,87676,1,0,0:0:0:0:
320,192,87910,1,0,0:0:0:0:
448,192,88028,1,2,0:0:0:0:
64,192,88145,1,2,0:0:0:0:
192,192,88145,1,0,0:0:0:0:
320,192,88379,1,0,0:0:0:0:
192,192,88614,1,0,0:0:0:0:
320,192,88848,1,0,0:0:0:0:
448,192,89082,1,2,0:0:0:0:
192,192,89317,1,0,0:0:0:0:
64,192,89551,1,8,0:0:0:0:
320,192,89551,1,0,0:0:0:0:
192,192,89785,1,0,0:0:0:0:
320,192,90020,1,0,0:0:0:0:
192,192,90254,1,0,0:0:0:0:
320,192,90489,1,2,0:0:0:0:
448,192,90489,1,0,0:0:0:0:
192,192,90723,1,0,0:0:0:0:
320,192,90957,1,0,0:0:0:0:
64,192,91192,1,2,0:0:0:0:
192,192,91426,1,8,0:0:0:0:
448,192,91426,1,0,0:0:0:0:
320,192,91660,1,0,0:0:0:0:
64,192,91895,1,2,0:0:0:0:
192,192,91895,1,0,0:0:0:0:
320,192,92129,1,0,0:0:0:0:
192,192,92364,1,0,0:0:0:0:
320,192,92598,1,0,0:0:0:0:
192,192,92832,1,0,0:0:0:0:
320,192,93067,1,0,0:0:0:0:
192,192,93301,1,8,0:0:0:0:
448,192,93301,1,0,0:0:0:0:
320,192,93535,1,0,0:0:0:0:
64,192,93770,128,0,94004:0:0:0:0:
192,192,94004,128,0,94239:0:0:0:0:
320,192,94239,1,2,0:0:0:0:
448,192,94239,1,0,0:0:0:0:
192,192,94561,1,0,0:0:0:0:
320,192,94707,1,0,0:0:0:0:
192,192,94912,1,0,0:0:0:0:
192,192,95176,1,8,0:0:0:0:
448,192,95176,1,0,0:0:0:0:
448,192,95528,1,2,0:0:0:0:
64,192,95645,1,2,0:0:0:0:
192,192,95645,1,0,0:0:0:0:
320,192,95879,1,0,0:0:0:0:
192,192,96114,1,0,0:0:0:0:
320,192,96348,1,0,0:0:0:0:
448,192,96582,1,2,0:0:0:0:
64,192,96699,1,0,0:0:0:0:
192,192,96817,1,0,0:0:0:0:
448,192,96934,1,0,0:0:0:0:
64,192,97051,1,8,0:0:0:0:
320,192,97051,1,0,0:0:0:0:
192,192,97285,1,0,0:0:0:0:
320,192,97520,1,0,0:0:0:0:
192,192,97754,1,0,0:0:0:0:
320,192,97989,1,2,0:0:0:0:
448,192,97989,1,0,0:0:0:0:
64,192,98106,1,2,0:0:0:0:
448,192,98340,1,2,0:0:0:0:
320,192,98457,1,0,0:0:0:0:
64,192,98692,1,2,0:0:0:0:
192,192,98926,1,8,0:0:0:0:
448,192,98926,1,0,0:0:0:0:
320,192,99160,1,0,0:0:0:0:
448,192,99278,1,2,0:0:0:0:
64,192,99395,1,2,0:0:0:0:
192,192,99395,1,0,0:0:0:0:
320,192,99629,1,0,0:0:0:0:
192,192,99864,1,0,0:0:0:0:
320,192,100098,1,0,0:0:0:0:
64,192,100332,1,2,0:0:0:0:
192,192,100508,1,0,0:0:0:0:
448,192,100684,1,0,0:0:0:0:
64,192,100801,1,8,0:0:0:0:
320,192,100801,1,0,0:0:0:0:
448,192,101035,1,2,0:0:0:0:
64,192,101270,1,2,0:0:0:0:
448,192,101387,1,0,0:0:0:0:
192,192,101504,1,0,0:0:0:0:
64,192,101621,1,2,0:0:0:0:
320,192,101739,1,2,0:0:0:0:
448,192,101739,1,0,0:0:0:0:
192,192,101973,1,0,0:0:0:0:
64,192,102090,1,0,0:0:0:0:
320,192,102207,1,0,0:0:0:0:
64,192,102442,1,2,0:0:0:0:
192,192,102676,1,8,0:0:0:0:
448,192,102676,1,0,0:0:0:0:
320,192,102910,1,0,0:0:0:0:
448,192,103028,1,2,0:0:0:0:
64,192,103145,1,2,0:0:0:0:
192,192,103145,1,0,0:0:0:0:
320,192,103379,1,0,0:0:0:0:
192,192,103614,1,0,0:0:0:0:
448,192,103848,1,0,0:0:0:0:
64,192,104082,1,2,0:0:0:0:
320,192,104199,1,0,0:0:0:0:
448,192,104317,1,0,0:0:0:0:
192,192,104434,1,0,0:0:0:0:
64,192,104551,1,8,0:0:0:0:
320,192,104551,1,0,0:0:0:0:
192,192,104785,1,0,0:0:0:0:
448,192,105020,1,2,0:0:0:0:
64,192,105137,1,2,0:0:0:0:
448,192,105371,1,2,0:0:0:0:
320,192,105489,1,0,0:0:0:0:
64,192,105723,1,2,0:0:0:0:
64,192,105957,1,2,0:0:0:0:
320,192,106192,1,0,0:0:0:0:
192,192,106426,1,8,0:0:0:0:
448,192,106426,1,0,0:0:0:0:
320,192,106660,1,0,0:0:0:0:
64,192,106895,1,2,0:0:0:0:
192,192,106895,1,0,0:0:0:0:
320,192,107129,1,0,0:0:0:0:
192,192,107364,1,0,0:0:0:0:
320,192,107598,1,0,0:0:0:0:
64,192,107832,1,2,0:0:0:0:
192,192,108067,1,0,0:0:0:0:
64,192,108301,1,8,0:0:0:0:
320,192,108301,1,0,0:0:0:0:
192,192,108535,1,0,0:0:0:0:
448,192,108770,1,0,0:0:0:0:
320,192,108887,1,0,0:0:0:0:
192,192,109004,1,0,0:0:0:0:
448,192,109121,1,0,0:0:0:0:
64,192,109239,1,0,0:0:0:30:soft-hitfinish.wav
192,192,109707,1,0,0:0:0:70:clapclap.wav
320,192,109707,1,0,0:0:0:0:
192,192,110410,1,0,0:0:0:70:clapclap.wav
320,192,110410,1,0,0:0:0:0:
448,192,110645,1,0,0:0:0:0:
320,192,111114,1,0,0:0:0:0:
64,192,111348,1,0,0:0:0:0:
192,192,111582,1,0,0:0:0:70:clapclap.wav
320,192,111582,1,0,0:0:0:0:
192,192,112520,1,0,0:0:0:70:clapclap.wav
320,192,112520,1,0,0:0:0:0:
320,192,112989,1,0,0:0:0:0:
192,192,113457,1,0,0:0:0:70:clapclap.wav
320,192,113457,1,0,0:0:0:0:
192,192,114395,1,0,0:0:0:70:clapclap.wav
320,192,114395,1,0,0:0:0:0:
64,192,114864,1,0,0:0:0:0:
320,192,115098,1,0,0:0:0:0:
192,192,115332,1,0,0:0:0:70:clapclap.wav
320,192,115332,1,0,0:0:0:0:
64,192,115567,1,0,0:0:0:0:
192,192,116270,1,0,0:0:0:70:clapclap.wav
320,192,116270,1,0,0:0:0:0:
64,192,116739,1,0,0:0:0:0:
192,192,117207,1,0,0:0:0:70:clapclap.wav
320,192,117207,1,0,0:0:0:0:
192,192,117910,1,0,0:0:0:70:clapclap.wav
320,192,117910,1,0,0:0:0:0:
448,192,118145,1,0,0:0:0:0:
320,192,118614,1,0,0:0:0:0:
192,192,118848,1,0,0:0:0:0:
192,192,119082,1,0,0:0:0:70:clapclap.wav
320,192,119082,1,0,0:0:0:0:
64,192,119317,1,0,0:0:0:0:
192,192,120020,1,0,0:0:0:70:clapclap.wav
320,192,120020,1,0,0:0:0:0:
320,192,120489,1,0,0:0:0:0:
192,192,120957,1,0,0:0:0:70:clapclap.wav
320,192,120957,1,0,0:0:0:0:
192,192,121895,1,0,0:0:0:70:clapclap.wav
320,192,121895,1,0,0:0:0:0:
64,192,122364,1,0,0:0:0:0:
320,192,122598,1,0,0:0:0:0:
192,192,122832,1,0,0:0:0:70:clapclap.wav
320,192,122832,1,0,0:0:0:0:
64,192,123067,1,0,0:0:0:0:
192,192,123535,1,0,0:0:0:0:
64,192,124239,1,0,0:0:0:30:soft-hitfinish.wav
448,192,124239,1,0,0:0:0:0:
192,192,124707,1,0,0:0:0:70:clapclap.wav
320,192,124707,1,0,0:0:0:0:
192,192,125410,1,0,0:0:0:70:clapclap.wav
320,192,125410,1,0,0:0:0:0:
448,192,125645,1,0,0:0:0:0:
320,192,126114,1,0,0:0:0:0:
192,192,126348,1,0,0:0:0:0:
192,192,126582,1,0,0:0:0:70:clapclap.wav
320,192,126582,1,0,0:0:0:0:
192,192,127520,1,0,0:0:0:70:clapclap.wav
320,192,127520,1,0,0:0:0:0:
320,192,127989,1,0,0:0:0:0:
192,192,128457,1,0,0:0:0:70:clapclap.wav
320,192,128457,1,0,0:0:0:0:
192,192,129395,1,0,0:0:0:70:clapclap.wav
320,192,129395,1,0,0:0:0:0:
64,192,129864,1,0,0:0:0:0:
320,192,130098,1,0,0:0:0:0:
192,192,130332,1,0,0:0:0:70:clapclap.wav
320,192,130332,1,0,0:0:0:0:
64,192,130567,1,0,0:0:0:0:
64,192,131065,1,0,0:0:0:0:
192,192,131270,1,0,0:0:0:70:clapclap.wav
320,192,131270,1,0,0:0:0:0:
64,192,131739,1,0,0:0:0:0:
192,192,132207,1,0,0:0:0:70:clapclap.wav
320,192,132207,1,0,0:0:0:0:
192,192,132910,1,0,0:0:0:70:clapclap.wav
320,192,132910,1,0,0:0:0:0:
448,192,133145,1,0,0:0:0:0:
320,192,133614,1,0,0:0:0:0:
192,192,133848,1,0,0:0:0:0:
192,192,134082,1,0,0:0:0:70:clapclap.wav
320,192,134082,1,0,0:0:0:0:
64,192,134317,1,0,0:0:0:0:
192,192,135020,1,0,0:0:0:70:clapclap.wav
320,192,135020,1,0,0:0:0:0:
320,192,135489,1,0,0:0:0:0:
192,192,136895,1,0,0:0:0:0:
448,192,137364,1,0,0:0:0:0:
64,192,137598,1,0,0:0:0:0:
448,192,137832,1,0,0:0:0:0:
64,192,138067,1,0,0:0:0:0:
448,192,138301,1,0,0:0:0:0:
64,192,138535,1,0,0:0:0:0:
448,192,138770,1,0,0:0:0:0:
448,192,139004,1,0,0:0:0:0:
64,192,139239,1,0,0:0:0:0:
64,192,139473,1,0,0:0:0:0:
192,192,139707,1,0,0:0:0:0:
192,192,139942,1,0,0:0:0:0:
448,192,140176,1,8,0:0:0:0:
320,192,140293,1,0,0:0:0:0:
192,192,140410,1,0,0:0:0:0:
64,192,140528,1,2,0:0:0:0:
320,192,140645,1,2,0:0:0:0:
448,192,140645,1,4,0:0:0:0:
192,192,140879,1,0,0:0:0:0:
320,192,141114,1,0,0:0:0:0:
192,192,141348,1,0,0:0:0:0:
64,192,141582,1,2,0:0:0:0:
448,192,141699,1,0,0:0:0:0:
320,192,141817,1,0,0:0:0:0:
64,192,141934,1,0,0:0:0:0:
192,192,142051,1,8,0:0:0:0:
448,192,142051,1,0,0:0:0:0:
320,192,142285,1,0,0:0:0:0:
64,192,142520,1,0,0:0:0:0:
192,192,142637,1,0,0:0:0:0:
320,192,142754,1,0,0:0:0:0:
448,192,142871,1,0,0:0:0:0:
64,192,142989,1,2,0:0:0:0:
192,192,142989,1,0,0:0:0:0:
448,192,143106,1,2,0:0:0:0:
64,192,143340,1,2,0:0:0:0:
192,192,143457,1,0,0:0:0:0:
448,192,143692,1,2,0:0:0:0:
64,192,143926,1,8,0:0:0:0:
320,192,143926,1,0,0:0:0:0:
192,192,144160,1,0,0:0:0:0:
64,192,144278,1,2,0:0:0:0:
320,192,144395,1,2,0:0:0:0:
448,192,144395,1,0,0:0:0:0:
320,192,144629,1,0,0:0:0:0:
192,192,144864,1,0,0:0:0:0:
320,192,145098,1,0,0:0:0:0:
64,192,145332,1,2,0:0:0:0:
320,192,145567,1,0,0:0:0:0:
192,192,145801,1,8,0:0:0:0:
448,192,145801,1,0,0:0:0:0:
64,192,146035,1,2,0:0:0:0:
64,192,146270,1,2,0:0:0:0:
320,192,146387,1,0,0:0:0:0:
192,192,146504,1,0,0:0:0:0:
448,192,146621,1,2,0:0:0:0:
64,192,146739,1,2,0:0:0:0:
192,192,146739,1,0,0:0:0:0:
320,192,146973,128,0,147207:0:0:0:0:
192,192,147207,1,0,0:0:0:0:
448,192,147442,1,2,0:0:0:0:
64,192,147676,1,8,0:0:0:0:
320,192,147676,1,0,0:0:0:0:
192,192,147910,1,0,0:0:0:0:
320,192,148145,1,2,0:0:0:0:
448,192,148145,1,0,0:0:0:0:
192,192,148379,1,0,0:0:0:0:
320,192,148614,1,0,0:0:0:0:
64,192,148848,1,2,0:0:0:0:
64,192,149082,1,2,0:0:0:0:
448,192,149199,1,0,0:0:0:0:
320,192,149317,1,0,0:0:0:0:
64,192,149434,1,0,0:0:0:0:
192,192,149551,1,8,0:0:0:0:
448,192,149551,1,0,0:0:0:0:
320,192,149785,1,0,0:0:0:0:
64,192,150020,1,2,0:0:0:0:
448,192,150137,1,2,0:0:0:0:
448,192,150371,1,2,0:0:0:0:
64,192,150489,1,2,0:0:0:0:
192,192,150489,1,0,0:0:0:0:
64,192,150723,1,2,0:0:0:0:
192,192,150723,1,0,0:0:0:0:
64,192,150957,1,2,0:0:0:0:
192,192,150957,1,0,0:0:0:0:
320,192,151192,1,0,0:0:0:0:
64,192,151426,1,8,0:0:0:0:
320,192,151426,1,0,0:0:0:0:
192,192,151660,1,0,0:0:0:0:
320,192,151895,1,2,0:0:0:0:
448,192,151895,1,0,0:0:0:0:
192,192,152129,1,0,0:0:0:0:
320,192,152364,1,0,0:0:0:0:
192,192,152598,1,0,0:0:0:0:
64,192,152832,1,2,0:0:0:0:
320,192,153067,1,0,0:0:0:0:
192,192,153301,1,8,0:0:0:0:
448,192,153301,1,0,0:0:0:0:
64,192,153535,1,2,0:0:0:0:
192,192,153535,1,0,0:0:0:0:
448,192,153770,1,0,0:0:0:0:
320,192,153887,1,0,0:0:0:0:
192,192,154004,1,0,0:0:0:0:
64,192,154121,1,0,0:0:0:0:
448,192,154239,1,0,0:0:0:0:
448,192,154473,1,0,0:0:0:0:
192,192,154707,1,0,0:0:0:0:
192,192,154942,1,0,0:0:0:0:
64,192,155176,1,8,0:0:0:0:
320,192,155176,1,0,0:0:0:0:
320,192,155410,1,0,0:0:0:0:
64,192,155645,1,2,0:0:0:0:
192,192,155645,1,4,0:0:0:0:
320,192,155879,1,0,0:0:0:0:
192,192,156114,1,0,0:0:0:0:
320,192,156348,1,0,0:0:0:0:
64,192,156582,1,2,0:0:0:0:
320,192,156699,1,0,0:0:0:0:
448,192,156817,1,0,0:0:0:0:
192,192,156934,1,0,0:0:0:0:
64,192,157051,1,8,0:0:0:0:
320,192,157051,1,0,0:0:0:0:
192,192,157285,1,0,0:0:0:0:
320,192,157520,128,0,157754:0:0:0:0:
192,192,157754,128,0,157989:0:0:0:0:
320,192,157989,1,2,0:0:0:0:
448,192,157989,1,0,0:0:0:0:
64,192,158106,1,2,0:0:0:0:
448,192,158340,1,2,0:0:0:0:
192,192,158457,1,0,0:0:0:0:
320,192,158692,1,2,0:0:0:0:
192,192,158926,1,8,0:0:0:0:
448,192,158926,1,0,0:0:0:0:
192,192,159160,1,0,0:0:0:0:
64,192,159395,1,2,0:0:0:0:
192,192,159395,1,0,0:0:0:0:
320,192,159629,1,0,0:0:0:0:
192,192,159864,1,0,0:0:0:0:
320,192,160098,1,0,0:0:0:0:
448,192,160332,1,2,0:0:0:0:
192,192,160567,1,0,0:0:0:0:
64,192,160801,1,8,0:0:0:0:
320,192,160801,1,0,0:0:0:0:
448,192,161035,1,2,0:0:0:0:
64,192,161270,1,2,0:0:0:0:
320,192,161387,1,0,0:0:0:0:
192,192,161504,1,0,0:0:0:0:
64,192,161621,1,2,0:0:0:0:
320,192,161739,1,2,0:0:0:0:
448,192,161739,1,0,0:0:0:0:
192,192,161973,1,0,0:0:0:0:
64,192,162090,1,0,0:0:0:0:
320,192,162207,1,0,0:0:0:0:
64,192,162442,1,2,0:0:0:0:
192,192,162676,1,8,0:0:0:0:
448,192,162676,1,0,0:0:0:0:
320,192,162910,1,0,0:0:0:0:
448,192,163028,1,2,0:0:0:0:
64,192,163145,1,2,0:0:0:0:
192,192,163145,1,0,0:0:0:0:
320,192,163379,1,0,0:0:0:0:
192,192,163614,1,0,0:0:0:0:
320,192,163848,1,0,0:0:0:0:
192,192,164082,128,2,164551:0:0:0:0:
64,192,164551,1,8,0:0:0:0:
320,192,164551,1,0,0:0:0:0:
192,192,164785,1,0,0:0:0:0:
448,192,165020,1,2,0:0:0:0:
64,192,165137,1,2,0:0:0:0:
64,192,165371,1,2,0:0:0:0:
320,192,165489,1,2,0:0:0:0:
448,192,165489,1,0,0:0:0:0:
320,192,165723,1,2,0:0:0:0:
448,192,165723,1,0,0:0:0:0:
320,192,165957,1,2,0:0:0:0:
448,192,165957,1,0,0:0:0:0:
192,192,166192,1,0,0:0:0:0:
192,192,166426,1,8,0:0:0:0:
448,192,166426,1,0,0:0:0:0:
320,192,166660,1,0,0:0:0:0:
64,192,166895,1,2,0:0:0:0:
192,192,166895,1,0,0:0:0:0:
320,192,167129,1,0,0:0:0:0:
192,192,167364,1,0,0:0:0:0:
320,192,167598,1,0,0:0:0:0:
64,192,167832,128,2,168067:0:0:0:0:
448,192,168067,128,0,168301:0:0:0:0:
64,192,168301,1,8,0:0:0:0:
320,192,168301,1,0,0:0:0:0:
192,192,168535,1,0,0:0:0:0:
448,192,168770,1,0,0:0:0:0:
320,192,168887,1,0,0:0:0:0:
192,192,169004,1,0,0:0:0:0:
448,192,169121,1,0,0:0:0:0:
64,192,169268,1,0,0:0:0:0:
448,192,170674,1,0,0:0:0:0:
64,192,171114,1,0,0:0:0:0:
448,192,171348,1,0,0:0:0:0:
320,192,171817,1,0,0:0:0:0:
192,192,172051,1,0,0:0:0:0:
320,192,173018,1,0,0:0:0:0:
64,192,173223,1,0,0:0:0:0:
448,192,173457,1,0,0:0:0:0:
320,192,173692,1,0,0:0:0:0:
64,192,173926,1,0,0:0:0:0:
192,192,174043,1,0,0:0:0:0:
448,192,174160,1,0,0:0:0:0:
64,192,174395,1,0,0:0:0:0:
320,192,174951,128,0,175186:0:0:0:0:
192,192,175186,128,0,175332:0:0:0:0:
448,192,175449,1,0,0:0:0:0:
64,192,175801,1,0,0:0:0:0:
64,192,176768,1,0,0:0:0:0:
192,192,177949,1,0,0:0:0:0:
448,192,178174,1,0,0:0:0:0:
192,192,178848,1,0,0:0:0:0:
320,192,179317,1,0,0:0:0:0:
64,192,179785,1,0,0:0:0:0:
448,192,180020,1,0,0:0:0:0:
192,192,180254,1,0,0:0:0:0:
320,192,180518,1,0,0:0:0:0:
64,192,180723,1,0,0:0:0:0:
64,192,181895,1,0,0:0:0:0:
448,192,181895,1,0,0:0:0:0:
448,192,182949,1,0,0:0:0:0:
192,192,183301,1,0,0:0:0:0:
