osu file format v14

[General]
AudioFilename: audio.ogg
AudioLeadIn: 0
PreviewTime: 54317
Countdown: 0
SampleSet: Normal
StackLeniency: 0.7
Mode: 1
LetterboxInBreaks: 0
WidescreenStoryboard: 1

[Editor]
Bookmarks: 1824,18624,33024,54624,64224,73724
DistanceSpacing: 1
BeatDivisor: 3
GridSize: 32
TimelineZoom: 1.8

[Metadata]
Title:Tokimeki Rendezvous (TV Size)
TitleUnicode:ときめきランデヴー (TV Size)
Artist:shami momo (Kohara Konomi, Kito Akari)
ArtistUnicode:shami momo (小原好美・⻤頭明里)
Creator:Faputa
Version:reealy_'s Muzukashii
Source:まちカドまぞく 2丁目
Tags:reealy_ realy0_ 吉田優子 Yoshida Yuuko 千代田桃 Chiyoda Momo Kitou Machikado Mazoku 2-Choume 2Choume Season second 2 Miho Tsujibayashi Jpop J-pop pop Japanese op opening Anime
BeatmapID:3563943
BeatmapSetID:1737278

[Difficulty]
HPDrainRate:6
CircleSize:5
OverallDifficulty:5
ApproachRate:10
SliderMultiplier:1.4
SliderTickRate:1

[Events]
//Background and Video events
0,0,"mazo.jpg",0,75
Video,-27,"toki.mp4"
//Break Periods
//Storyboard Layer 0 (Background)
//Storyboard Layer 1 (Fail)
//Storyboard Layer 2 (Pass)
//Storyboard Layer 3 (Foreground)
//Storyboard Layer 4 (Overlay)
//Storyboard Sound Samples

[TimingPoints]
-1783,300,4,1,0,80,1,0
317,-111.111111111111,4,1,0,80,0,0
2114,-110.599078341014,4,1,0,80,0,0
2414,-110.091743119266,4,1,0,80,0,0
2614,-109.756097560976,4,1,0,80,0,0
2714,-109.58904109589,4,1,0,80,0,0
3014,-109.090909090909,4,1,0,80,0,0
3314,-108.597285067873,4,1,0,80,0,0
3514,-108.270676691729,4,1,0,80,0,0
3614,-108.108108108108,4,1,0,80,0,0
3914,-107.62331838565,4,1,0,80,0,0
4217,-107.138074193116,4,1,0,80,0,0
4514,-106.666666666667,4,1,0,80,0,0
4814,-106.194690265487,4,1,0,80,0,0
5014,-105.882352941176,4,1,0,80,0,0
5114,-105.726872246696,4,1,0,80,0,0
5414,-105.263157894737,4,1,0,80,0,0
5614,-104.956268221574,4,1,0,80,0,0
5714,-104.803493449782,4,1,0,80,0,0
5914,-104.499274310595,4,1,0,80,0,0
6214,-104.046242774566,4,1,0,80,0,0
6614,-103.448275862069,4,1,0,80,0,0
6914,-103.004291845494,4,1,0,80,0,0
7214,-102.564102564103,4,1,0,80,0,0
7414,-102.272727272727,4,1,0,80,0,0
7514,-102.127659574468,4,1,0,80,0,0
7814,-101.694915254237,4,1,0,80,0,0
8114,-101.26582278481,4,1,0,80,0,0
8314,-100.981767180926,4,1,0,80,0,0
8414,-100.840336134454,4,1,0,80,0,0
8714,-100.418410041841,4,1,0,80,0,0
9014,-100,4,1,0,80,0,0
9164,-95.2380952380952,4,1,0,80,0,0
9614,-97.378277153558,4,1,0,80,0,0
9914,-98.8593155893536,4,1,0,80,0,0
10064,-99.6168582375479,4,1,0,80,0,0
10217,-100,4,1,0,80,0,0
10514,-101.960784313725,4,1,0,80,0,0
10714,-103.038309114927,4,1,0,80,0,0
11114,-105.263157894737,4,1,0,80,0,0
11417,-108.695652173913,4,1,0,80,0,0
11614,-111.111111111111,4,1,0,80,0,0
11914,-109.375,4,1,0,80,0,0
12014,-108.80829015544,4,1,0,80,0,0
12314,-107.142857142857,4,1,0,80,0,0
12614,-105.527638190955,4,1,0,80,0,0
12814,-104.477611940299,4,1,0,80,0,0
12914,-103.960396039604,4,1,0,80,0,0
13114,-102.941176470588,4,1,0,80,0,0
13214,-102.439024390244,4,1,0,80,0,0
13414,-101.449275362319,4,1,0,80,0,0
13714,-95.2380952380952,4,1,0,80,0,0
13817,-95.4653937947494,4,1,0,80,0,0
14014,-96.3618485742379,4,1,0,80,0,0
14114,-96.7423494570582,4,1,0,80,0,0
14314,-97.5124378109453,4,1,0,80,0,0
14614,-98.6908358509567,4,1,0,80,0,0
14714,-99.0899898887765,4,1,0,80,0,0
14914,-99.8980632008155,4,1,0,80,0,0
15017,-100.250626566416,4,1,0,80,0,0
15214,-101.135190918473,4,1,0,80,0,0
15314,-101.554404145078,4,1,0,80,0,0
15514,-102.403343782654,4,1,0,80,0,0
15814,-103.703703703704,4,1,0,80,0,0
15914,-104.144527098831,4,1,0,80,0,0
16114,-105.037513397642,4,1,0,80,0,0
16217,-105.540897097625,4,1,0,80,0,0
16514,-106.870229007634,4,1,0,80,0,0
16814,-108.28729281768,4,1,0,80,0,0
17114,-109.742441209407,4,1,0,80,0,0
17414,-111.237230419977,4,1,0,80,0,0
17914,-113.821138211382,4,1,0,80,0,0
18214,-115.429917550059,4,1,0,80,0,0
18517,-117.647058823529,4,1,0,60,0,0
22814,-113.989637305699,4,1,0,60,0,0
23014,-112.820512820513,4,1,0,60,0,0
23114,-112.244897959184,4,1,0,60,0,0
23217,-111.111111111111,4,1,0,60,0,0
23417,-111.111111111111,4,1,0,70,0,0
24617,-111.111111111111,4,1,0,70,0,0
25817,-111.111111111111,4,1,0,70,0,0
27017,-111.111111111111,4,1,0,70,0,0
27614,-108.433734939759,4,1,0,70,0,0
27814,-107.142857142857,4,1,0,70,0,0
27914,-106.508875739645,4,1,0,70,0,0
28114,-105.263157894737,4,1,0,70,0,0
28217,-105.263157894737,4,1,0,80,0,0
28417,-105.263157894737,4,1,0,80,0,0
28514,-105,4,1,0,80,0,0
28814,-104.218362282878,4,1,0,80,0,0
29114,-103.448275862069,4,1,0,80,0,0
29414,-102.689486552567,4,1,0,80,0,0
29614,-102.189781021898,4,1,0,80,0,0
29714,-101.941747572816,4,1,0,80,0,0
29914,-101.449275362319,4,1,0,80,0,0
30214,-100.719424460432,4,1,0,80,0,0
30314,-100.478468899522,4,1,0,80,0,0
30514,-100,4,1,0,80,0,0
30617,-100,4,1,0,80,0,0
30814,-100.603621730382,4,1,0,80,0,0
31214,-101.419878296146,4,1,0,80,0,0
31514,-102.040816326531,4,1,0,80,0,0
31814,-102.669404517454,4,1,0,80,0,0
32014,-103.092783505155,4,1,0,80,0,0
32114,-103.305785123967,4,1,0,80,0,0
32314,-103.734439834025,4,1,0,80,0,0
32614,-104.384133611691,4,1,0,80,0,0
33014,-105.263157894737,4,1,0,80,0,0
33314,-106.666666666667,4,1,0,80,0,0
33614,-108.108108108108,4,1,0,80,0,0
33814,-109.090909090909,4,1,0,80,0,0
33914,-109.58904109589,4,1,0,80,0,0
34214,-111.111111111111,4,1,0,80,0,0
36914,-112.676056338028,4,1,0,80,0,0
37114,-113.744075829384,4,1,0,80,0,0
37414,-115.384615384615,4,1,0,80,0,0
37717,-117.647058823529,4,1,0,70,0,0
37817,-117.647058823529,4,1,0,70,0,0
42614,-105.263157894737,4,1,0,70,0,0
42914,-106.666666666667,4,1,0,70,0,0
43214,-108.108108108108,4,1,0,70,0,0
43414,-109.090909090909,4,1,0,70,0,0
43514,-109.58904109589,4,1,0,70,0,0
43814,-111.111111111111,4,1,0,70,0,0
46217,-111.111111111111,4,1,0,80,0,0
46414,-112.14953271028,4,1,0,80,0,0
46514,-112.676056338028,4,1,0,80,0,0
46714,-113.744075829384,4,1,0,80,0,0
47014,-115.384615384615,4,1,0,80,0,0
47414,-117.647058823529,4,1,0,80,0,0
48617,-117.647058823529,4,1,0,80,0,0
49817,-117.302052785924,4,1,0,80,0,0
50014,-115.702479338843,4,1,0,80,0,0
50414,-113.207547169811,4,1,0,80,0,0
50714,-111.405835543767,4,1,0,80,0,0
51014,-109.660574412533,4,1,0,80,0,0
51314,-107.969151670951,4,1,0,80,0,0
51514,-106.870229007634,4,1,0,80,0,0
52217,-103.092783505155,4,1,0,80,0,0
52414,-102.189781021898,4,1,0,80,0,0
52814,-100.238663484487,4,1,0,80,0,0
53114,-98.8235294117647,4,1,0,80,0,0
53414,-97.4477958236659,4,1,0,80,0,0
53614,-96.551724137931,4,1,0,80,0,0
53914,-95.2380952380952,4,1,0,80,0,0
54417,-95.2380952380952,4,1,0,90,0,0
54617,-95.2380952380952,4,1,0,90,0,1
59617,-94.488188976378,4,1,0,90,0,1
59717,-94.1176470588235,4,1,0,90,0,1
59917,-93.3852140077821,4,1,0,90,0,1
60017,-93.0232558139535,4,1,0,90,0,1
60217,-92.3076923076923,4,1,0,90,0,1
60317,-91.9540229885058,4,1,0,90,0,1
60617,-90.9090909090909,4,1,0,90,0,1
60817,-90.2255639097744,4,1,0,90,0,1
60917,-89.8876404494382,4,1,0,90,0,1
61117,-89.2193308550186,4,1,0,90,0,1
61217,-88.8888888888889,4,1,0,90,0,1
61417,-88.2352941176471,4,1,0,90,0,1
61517,-87.9120879120879,4,1,0,90,0,1
61817,-86.9565217391304,4,1,0,90,0,0
62117,-88.6075949367089,4,1,0,90,0,0
62317,-89.7435897435897,4,1,0,90,0,0
62417,-90.3225806451613,4,1,0,90,0,0
63017,-93.9597315436242,4,1,0,90,0,1
63217,-95.2380952380952,4,1,0,90,0,1
63317,-95.8904109589041,4,1,0,90,0,1
63517,-97.2222222222222,4,1,0,90,0,0
63817,-99.290780141844,4,1,0,90,0,0
63917,-100,4,1,0,90,0,0
64217,-95.2380952380952,4,1,0,90,0,1
69014,-90.9090909090909,4,1,0,90,0,1
69314,-92.5196850393701,4,1,0,90,0,1
69514,-93.6254980079681,4,1,0,90,0,1
69814,-95.3346855983773,4,1,0,90,0,1
70114,-97.1074380165289,4,1,0,90,0,1
70217,-98.0392156862745,4,1,0,90,0,1
70514,-99.5762711864407,4,1,0,90,0,1
70664,-100.534759358289,4,1,0,90,0,1
70964,-102.508178844057,4,1,0,90,0,1
71364,-105.263157894737,4,1,0,90,0,1
71417,-105.263157894737,4,1,0,90,0,1
71564,-95.2380952380952,4,1,0,90,0,1
72014,-98.1735159817352,4,1,0,90,0,1
72314,-100.2331002331,4,1,0,90,0,1
72614,-102.380952380952,4,1,0,90,0,1
72814,-103.864734299517,4,1,0,90,0,1
72914,-104.622871046229,4,1,0,90,0,1
73214,-106.965174129353,4,1,0,90,0,1
73414,-108.585858585859,4,1,0,90,0,1
73717,-111.111111111111,4,1,0,90,0,0
73817,-111.111111111111,4,1,0,90,0,0
74114,-110.112359550562,4,1,0,90,0,0
74414,-109.375,4,1,0,90,0,0
74614,-108.888888888889,4,1,0,90,0,0
74714,-108.647450110865,4,1,0,90,0,0
75014,-107.929515418502,4,1,0,90,0,0
75214,-107.456140350877,4,1,0,90,0,0
75314,-107.221006564551,4,1,0,90,0,0
75514,-106.753812636166,4,1,0,90,0,0
75814,-106.060606060606,4,1,0,90,0,0
75914,-105.831533477322,4,1,0,90,0,0
76217,-105.263157894737,4,1,0,90,0,0
76514,-104.477611940299,4,1,0,90,0,0
76814,-103.813559322034,4,1,0,90,0,0
77014,-103.37552742616,4,1,0,90,0,0
77114,-103.157894736842,4,1,0,90,0,0
77414,-102.510460251046,4,1,0,90,0,0
77614,-102.083333333333,4,1,0,90,0,0
77714,-101.871101871102,4,1,0,90,0,0
77914,-101.449275362319,4,1,0,90,0,0
78214,-100.82304526749,4,1,0,90,0,0
78314,-100.616016427105,4,1,0,90,0,0
78614,-95.2380952380952,4,1,0,90,0,0
78814,-95.6937799043062,4,1,0,90,0,0
79114,-96.3855421686747,4,1,0,90,0,0
79214,-96.6183574879227,4,1,0,90,0,0
79514,-97.323600973236,4,1,0,90,0,0
79814,-98.0392156862745,4,1,0,90,0,0
80014,-98.5221674876847,4,1,0,90,0,0
80114,-98.7654320987654,4,1,0,90,0,0
80314,-99.2555831265509,4,1,0,90,0,0
80414,-99.5024875621891,4,1,0,90,0,0
80614,-100,4,1,0,90,0,0
80914,-95.2380952380952,4,1,0,90,0,0
81017,-95.4653937947494,4,1,0,90,0,0
81214,-96.8188105117566,4,1,0,90,0,0
81314,-97.3574408901252,4,1,0,90,0,0
81514,-98.4528832630098,4,1,0,90,0,0
81814,-100.143061516452,4,1,0,90,0,0
81914,-100.719424460432,4,1,0,90,0,0
82114,-101.892285298399,4,1,0,90,0,0
82217,-102.30179028133,4,1,0,90,0,0
82414,-103.703703703704,4,1,0,90,0,0
82714,-105.580693815988,4,1,0,90,0,0
83014,-107.52688172043,4,1,0,90,0,0
83114,-108.191653786708,4,1,0,90,0,0
83314,-109.546165884194,4,1,0,90,0,0
83417,-110.192837465565,4,1,0,90,0,0
83714,-112.359550561798,4,1,0,90,0,0
84014,-114.566284779051,4,1,0,90,0,0
84314,-116.86143572621,4,1,0,90,0,0
84614,-119.250425894378,4,1,0,90,0,0
84814,-120.898100172712,4,1,0,90,0,0
85114,-123.456790123457,4,1,0,90,0,0
85414,-126.126126126126,4,1,0,90,0,0
85817,-130.718954248366,4,1,0,90,0,0
86164,-133.333333333333,4,1,0,90,0,0
86417,-133.333333333333,4,1,0,80,0,0
86617,-133.333333333333,4,1,0,70,0,0
86817,-133.333333333333,4,1,0,60,0,0
87017,-133.333333333333,4,1,0,50,0,0
87217,-133.333333333333,4,1,0,40,0,0
87417,-133.333333333333,4,1,0,30,0,0
88517,-133.333333333333,4,1,0,20,0,0
88817,-133.333333333333,4,1,0,10,0,0
89117,-133.333333333333,4,1,0,5,0,0

[HitObjects]
232,210,1217,5,8,1:0:0:0:
222,197,1417,1,4,1:0:0:0:
226,156,1817,1,12,1:0:0:0:
202,174,2117,1,8,1:0:0:0:
202,180,2417,1,0,1:0:0:0:
202,180,2617,1,8,1:0:0:0:
202,180,2717,1,0,1:0:0:0:
256,60,3017,1,8,1:0:0:0:
246,53,3317,1,0,1:0:0:0:
221,63,3517,1,8,1:0:0:0:
314,137,3617,1,0,1:0:0:0:
296,138,3917,1,8,1:0:0:0:
255,75,4517,1,8,1:0:0:0:
253,80,4817,1,0,1:0:0:0:
204,90,5017,1,8,1:0:0:0:
245,88,5117,1,0,1:0:0:0:
299,131,5417,1,8,1:0:0:0:
227,116,5617,1,8,1:0:0:0:
239,115,5717,1,0,1:0:0:0:
226,116,5917,1,8,1:0:0:0:
302,131,6217,1,8,1:0:0:0:
226,156,6617,1,4,1:0:0:0:
202,174,6917,1,8,1:0:0:0:
202,180,7217,1,0,1:0:0:0:
202,180,7417,1,8,1:0:0:0:
202,180,7517,1,0,1:0:0:0:
256,60,7817,1,8,1:0:0:0:
246,53,8117,1,0,1:0:0:0:
221,63,8317,1,8,1:0:0:0:
314,137,8417,1,0,1:0:0:0:
296,138,8717,1,8,1:0:0:0:
192,167,9017,1,0,1:0:0:0:
255,75,9167,1,12,1:0:0:0:
253,80,9617,1,4,1:0:0:0:
220,161,9917,1,0,1:0:0:0:
255,75,10067,1,12,1:0:0:0:
253,80,10517,1,4,1:0:0:0:
195,154,10717,1,8,1:0:0:0:
255,75,11117,1,12,1:0:0:0:
254,189,11617,1,0,1:0:0:0:
293,233,11917,1,8,1:0:0:0:
293,233,12017,1,0,1:0:0:0:
287,230,12317,1,8,1:0:0:0:
287,230,12617,1,0,1:0:0:0:
287,230,12817,1,0,1:0:0:0:
266,210,12917,1,8,1:0:0:0:
266,210,13117,1,8,1:0:0:0:
214,186,13217,1,0,1:0:0:0:
184,171,13417,1,0,1:0:0:0:
219,181,13717,1,12,1:0:0:0:
192,166,14017,1,0,1:0:0:0:
172,167,14117,1,8,1:0:0:0:
172,167,14317,1,4,1:0:0:0:
200,148,14617,1,8,1:0:0:0:
163,151,14717,1,0,1:0:0:0:
241,97,14917,1,12,1:0:0:0:
199,164,15217,1,0,1:0:0:0:
226,46,15317,1,8,1:0:0:0:
204,161,15517,1,4,1:0:0:0:
236,188,15817,1,8,1:0:0:0:
236,188,15917,1,0,1:0:0:0:
218,144,16117,1,12,1:0:0:0:
202,125,16517,1,8,1:0:0:0:
223,144,16817,1,0,1:0:0:0:
224,148,17117,1,0,1:0:0:0:
211,104,17417,1,8,1:0:0:0:
211,107,17917,1,8,1:0:0:0:
210,108,18217,1,0,1:0:0:0:
255,75,18617,1,12,1:0:0:0:
252,166,19217,1,8,1:0:0:0:
252,166,19817,1,0,1:0:0:0:
465,274,20417,1,8,1:0:0:0:
429,260,20717,1,8,1:0:0:0:
261,155,21017,1,0,1:0:0:0:
252,157,21167,1,8,1:0:0:0:
252,157,21617,1,8,1:0:0:0:
287,128,22217,1,0,1:0:0:0:
273,125,22817,1,8,1:0:0:0:
273,125,23017,1,8,1:0:0:0:
269,126,23117,1,0,1:0:0:0:
306,76,23317,1,12,1:0:0:0:
263,202,23717,1,8,1:0:0:0:
266,205,24017,1,0,1:0:0:0:
262,203,24217,1,8,1:0:0:0:
359,256,24517,1,0,1:0:0:0:
322,204,24817,1,8,1:0:0:0:
224,203,24917,1,8,1:0:0:0:
322,204,25117,1,0,1:0:0:0:
303,202,25417,1,0,1:0:0:0:
303,202,25517,1,0,1:0:0:0:
286,198,25667,1,8,1:0:0:0:
192,220,26117,1,0,1:0:0:0:
192,180,26417,1,8,1:0:0:0:
196,189,26567,1,0,1:0:0:0:
197,190,26917,1,8,1:0:0:0:
197,190,27217,1,8,1:0:0:0:
197,190,27617,1,0,1:0:0:0:
197,190,27817,1,0,1:0:0:0:
302,248,27917,1,0,1:0:0:0:
239,179,28117,1,12,1:0:0:0:
208,160,28417,1,0,1:0:0:0:
181,188,28517,1,0,1:0:0:0:
235,203,28817,1,8,1:0:0:0:
235,205,29117,1,0,1:0:0:0:
135,176,29417,1,8,1:0:0:0:
277,189,29617,1,8,1:0:0:0:
300,139,29717,1,0,1:0:0:0:
303,143,29917,1,0,1:0:0:0:
240,146,30217,1,8,1:0:0:0:
196,124,30317,1,8,1:0:0:0:
179,115,30517,1,4,1:0:0:0:
214,147,30817,1,8,1:0:0:0:
214,84,31217,1,0,1:0:0:0:
214,85,31517,1,0,1:0:0:0:
228,44,31817,1,8,1:0:0:0:
222,72,32017,1,0,1:0:0:0:
229,56,32117,1,8,1:0:0:0:
252,81,32317,1,0,1:0:0:0:
256,35,32617,1,8,1:0:0:0:
213,169,33017,1,4,1:0:0:0:
213,169,33317,1,4,1:0:0:0:
337,186,33617,1,8,1:0:0:0:
92,162,33817,1,0,1:0:0:0:
337,186,33917,1,8,1:0:0:0:
244,169,34217,1,0,1:0:0:0:
225,121,34517,1,8,1:0:0:0:
239,172,34717,1,0,1:0:0:0:
283,222,35017,1,0,1:0:0:0:
210,161,35417,1,12,1:0:0:0:
209,161,35717,1,12,1:0:0:0:
227,140,36017,1,0,1:0:0:0:
227,140,36217,1,0,1:0:0:0:
278,225,36317,1,8,1:0:0:0:
278,225,36617,1,8,1:0:0:0:
226,120,36917,1,0,1:0:0:0:
224,133,37117,1,8,1:0:0:0:
278,225,37417,1,8,1:0:0:0:
209,162,37817,1,4,1:0:0:0:
208,163,38417,1,8,1:0:0:0:
208,163,39017,1,0,1:0:0:0:
268,208,39317,1,0,1:0:0:0:
208,163,39617,1,8,1:0:0:0:
222,161,40217,1,0,1:0:0:0:
265,209,40817,1,8,1:0:0:0:
259,205,41417,1,8,1:0:0:0:
259,205,41717,1,0,1:0:0:0:
222,159,42017,1,8,1:0:0:0:
223,153,42617,1,12,1:0:0:0:
223,153,42917,1,12,1:0:0:0:
219,214,43217,1,0,1:0:0:0:
225,201,43417,1,0,1:0:0:0:
253,198,43517,1,8,1:0:0:0:
225,201,43817,1,0,1:0:0:0:
261,188,44117,1,8,1:0:0:0:
232,180,44317,1,0,1:0:0:0:
261,188,44617,1,8,1:0:0:0:
289,154,45017,1,4,1:0:0:0:
286,154,45317,1,4,1:0:0:0:
232,141,45617,1,8,1:0:0:0:
214,136,45817,1,0,1:0:0:0:
261,188,45917,1,8,1:0:0:0:
250,82,46117,1,4,1:0:0:0:
218,133,46417,1,8,1:0:0:0:
220,137,46517,1,8,1:0:0:0:
237,174,46717,1,0,1:0:0:0:
236,173,47017,1,0,1:0:0:0:
236,173,47417,1,12,1:0:0:0:
307,189,48017,1,8,1:0:0:0:
243,149,48517,1,0,1:0:0:0:
243,150,48817,1,8,1:0:0:0:
240,148,49217,1,0,1:0:0:0:
247,147,49417,1,0,1:0:0:0:
247,147,49717,1,12,1:0:0:0:
278,96,50017,1,8,1:0:0:0:
270,113,50417,1,0,1:0:0:0:
270,115,50717,1,0,1:0:0:0:
271,114,51017,1,8,1:0:0:0:
251,109,51317,1,0,1:0:0:0:
251,109,51517,1,0,1:0:0:0:
246,108,52417,1,8,1:0:0:0:
200,135,52817,1,0,1:0:0:0:
200,135,53117,1,0,1:0:0:0:
232,154,53417,1,12,1:0:0:0:
232,154,53617,1,0,1:0:0:0:
214,167,53917,1,12,1:0:0:0:
273,165,54617,1,4,1:0:0:0:
328,67,54917,1,8,1:0:0:0:
327,67,55217,1,0,1:0:0:0:
327,67,55417,1,0,1:0:0:0:
327,67,55517,1,8,1:0:0:0:
378,283,55717,1,8,1:0:0:0:
378,283,55817,1,0,1:0:0:0:
335,158,56117,1,8,1:0:0:0:
297,155,56417,1,0,1:0:0:0:
284,167,56617,1,8,1:0:0:0:
296,157,56717,1,8,1:0:0:0:
284,167,57017,1,0,1:0:0:0:
385,241,57217,1,0,1:0:0:0:
276,152,57317,1,8,1:0:0:0:
276,150,57617,1,8,1:0:0:0:
267,157,57817,1,0,1:0:0:0:
267,157,57917,1,8,1:0:0:0:
267,157,58117,1,8,1:0:0:0:
267,157,58217,1,0,1:0:0:0:
267,156,58517,1,8,1:0:0:0:
69,142,59017,1,0,1:0:0:0:
313,235,59117,1,8,1:0:0:0:
313,235,59417,1,4,1:0:0:0:
292,184,59617,1,8,1:0:0:0:
193,103,59717,1,0,1:0:0:0:
311,185,59917,1,0,1:0:0:0:
228,128,60017,1,8,1:0:0:0:
258,134,60217,1,0,1:0:0:0:
128,175,60317,1,0,1:0:0:0:
261,74,60617,1,12,1:0:0:0:
299,182,60817,1,0,1:0:0:0:
217,130,60917,1,8,1:0:0:0:
257,136,61117,1,8,1:0:0:0:
246,95,61217,1,0,1:0:0:0:
283,135,61417,1,8,1:0:0:0:
248,157,61517,1,8,1:0:0:0:
216,155,61817,1,0,1:0:0:0:
243,152,62117,1,8,1:0:0:0:
243,152,62317,1,0,1:0:0:0:
243,152,62417,1,0,1:0:0:0:
265,203,63017,1,12,1:0:0:0:
233,162,63217,1,0,1:0:0:0:
241,175,63317,1,8,1:0:0:0:
194,146,63517,1,4,1:0:0:0:
192,130,63817,1,8,1:0:0:0:
238,97,63917,1,0,1:0:0:0:
191,129,64217,1,12,1:0:0:0:
282,158,64517,1,8,1:0:0:0:
198,216,64817,1,0,1:0:0:0:
243,195,65017,1,0,1:0:0:0:
239,209,65117,1,8,1:0:0:0:
389,238,65317,1,8,1:0:0:0:
389,238,65417,1,0,1:0:0:0:
389,238,65717,1,8,1:0:0:0:
259,155,65917,1,0,1:0:0:0:
257,157,66017,1,0,1:0:0:0:
286,118,66317,1,8,1:0:0:0:
235,200,66517,1,0,1:0:0:0:
276,121,66617,1,8,1:0:0:0:
252,119,66917,1,8,1:0:0:0:
252,119,67117,1,8,1:0:0:0:
241,125,67217,1,0,1:0:0:0:
241,125,67417,1,0,1:0:0:0:
238,129,67517,1,8,1:0:0:0:
226,125,67817,1,0,1:0:0:0:
229,124,68417,1,0,1:0:0:0:
229,124,68617,1,0,1:0:0:0:
232,202,68717,1,8,1:0:0:0:
236,179,69017,1,4,1:0:0:0:
251,137,69317,1,8,1:0:0:0:
251,137,69517,1,4,1:0:0:0:
218,88,69817,1,4,1:0:0:0:
211,77,70117,1,12,1:0:0:0:
274,134,70517,1,8,1:0:0:0:
224,116,70667,1,0,1:0:0:0:
221,117,70967,1,0,1:0:0:0:
221,117,71367,1,8,1:0:0:0:
213,111,71567,1,4,1:0:0:0:
266,180,72017,1,12,1:0:0:0:
266,178,72317,1,0,1:0:0:0:
273,120,72617,1,12,1:0:0:0:
239,136,72817,1,0,1:0:0:0:
236,90,72917,1,0,1:0:0:0:
229,89,73217,1,12,1:0:0:0:
231,76,73417,1,0,1:0:0:0:
231,81,73717,1,12,1:0:0:0:
244,123,74117,1,0,1:0:0:0:
244,123,74417,1,0,1:0:0:0:
238,82,74617,1,0,1:0:0:0:
244,124,74717,1,0,1:0:0:0:
244,124,75017,1,0,1:0:0:0:
326,197,75217,1,0,1:0:0:0:
270,183,75317,1,0,1:0:0:0:
231,75,75517,1,0,1:0:0:0:
230,73,75817,1,0,1:0:0:0:
230,73,75917,1,0,1:0:0:0:
293,133,76517,1,0,1:0:0:0:
267,117,76817,1,0,1:0:0:0:
229,124,77017,1,0,1:0:0:0:
229,124,77117,1,0,1:0:0:0:
261,87,77417,1,0,1:0:0:0:
265,83,77617,1,0,1:0:0:0:
241,90,77717,1,0,1:0:0:0:
241,90,77917,1,0,1:0:0:0:
247,83,78217,1,0,1:0:0:0:
247,83,78317,1,0,1:0:0:0:
246,83,78617,1,12,1:0:0:0:
254,189,78817,1,8,1:0:0:0:
293,233,79117,1,0,1:0:0:0:
293,233,79217,1,0,1:0:0:0:
287,230,79517,1,8,1:0:0:0:
287,230,79817,1,0,1:0:0:0:
287,230,80017,1,0,1:0:0:0:
266,210,80117,1,8,1:0:0:0:
266,210,80317,1,8,1:0:0:0:
214,186,80417,1,0,1:0:0:0:
180,254,80617,1,0,1:0:0:0:
219,181,80917,1,12,1:0:0:0:
192,166,81217,1,0,1:0:0:0:
172,167,81317,1,8,1:0:0:0:
172,167,81517,1,4,1:0:0:0:
200,148,81817,1,8,1:0:0:0:
163,151,81917,1,0,1:0:0:0:
241,97,82117,1,12,1:0:0:0:
199,164,82417,1,0,1:0:0:0:
204,161,82717,1,12,1:0:0:0:
236,188,83017,1,0,1:0:0:0:
236,188,83117,1,8,1:0:0:0:
218,144,83317,1,4,1:0:0:0:
281,122,83717,1,12,1:0:0:0:
138,185,84017,1,0,1:0:0:0:
168,168,84317,1,0,1:0:0:0:
171,168,84617,1,12,1:0:0:0:
171,168,84817,1,12,1:0:0:0:
173,169,85117,1,4,1:0:0:0:
173,170,85417,1,4,1:0:0:0:
256,192,86167,8,0,89217,1:0:0:0:
