osu file format v14

[General]
AudioFilename: audio.ogg
AudioLeadIn: 0
PreviewTime: 54317
Countdown: 0
SampleSet: Normal
StackLeniency: 0.7
Mode: 1
LetterboxInBreaks: 0
WidescreenStoryboard: 1

[Editor]
Bookmarks: 1824,18624,33024,54624,64224,73724
DistanceSpacing: 1
BeatDivisor: 3
GridSize: 32
TimelineZoom: 1.3

[Metadata]
Title:Tokimeki Rendezvous (TV Size)
TitleUnicode:ときめきランデヴー (TV Size)
Artist:shami momo (Kohara Konomi, Kito Akari)
ArtistUnicode:shami momo (小原好美・⻤頭明里)
Creator:Faputa
Version:Kantan
Source:まちカドまぞく 2丁目
Tags:reealy_ realy0_ 吉田優子 Yoshida Yuuko 千代田桃 Chiyoda Momo Kitou Machikado Mazoku 2-Choume 2Choume Season second 2 Miho Tsujibayashi Jpop J-pop pop Japanese op opening Anime
BeatmapID:3552245
BeatmapSetID:1737278

[Difficulty]
HPDrainRate:8
CircleSize:2
OverallDifficulty:3
ApproachRate:10
SliderMultiplier:1.4
SliderTickRate:1

[Events]
//Background and Video events
0,0,"mazo.jpg",0,75
Video,-27,"toki.mp4"
//Break Periods
//Storyboard Layer 0 (Background)
//Storyboard Layer 1 (Fail)
//Storyboard Layer 2 (Pass)
//Storyboard Layer 3 (Foreground)
//Storyboard Layer 4 (Overlay)
//Storyboard Sound Samples

[TimingPoints]
-1783,300,4,1,0,80,1,0
317,-111.111111111111,4,1,0,80,0,0
18517,-111.111111111111,4,1,0,60,0,0
18917,-111.111111111111,4,1,0,60,0,0
23217,-111.111111111111,4,1,0,70,0,0
28317,-111.111111111111,4,1,0,80,0,0
37717,-111.111111111111,4,1,0,70,0,0
42565,-111.111111111111,4,1,0,80,0,0
54567,-111.111111111111,4,1,0,90,0,0
54617,-111.111111111111,4,1,0,90,0,1
73717,-111.111111111111,4,1,0,90,0,0
85717,-111.111111111111,4,1,0,70,0,0
86017,-111.111111111111,4,1,0,40,0,0
87317,-111.111111111111,4,1,0,30,0,0
88517,-111.111111111111,4,1,0,20,0,0
88817,-111.111111111111,4,1,0,10,0,0
89117,-111.111111111111,4,1,0,5,0,0

[HitObjects]
256,192,1217,5,0,0:0:0:0:
256,192,1817,1,12,0:0:0:0:
256,192,2717,1,0,0:0:0:0:
256,192,3017,1,8,0:0:0:0:
256,192,3517,1,8,0:0:0:0:
256,192,4217,1,0,0:0:0:0:
256,192,4817,1,0,0:0:0:0:
256,192,5117,1,0,0:0:0:0:
256,192,5417,1,8,0:0:0:0:
256,192,5917,1,8,0:0:0:0:
256,192,6617,1,4,0:0:0:0:
256,192,7517,1,0,0:0:0:0:
256,192,7817,1,8,0:0:0:0:
256,192,8317,1,8,0:0:0:0:
256,192,9217,1,12,0:0:0:0:
256,192,9617,1,12,0:0:0:0:
256,192,10067,1,4,0:0:0:0:
256,192,10517,1,12,0:0:0:0:
256,192,11117,1,12,0:0:0:0:
256,192,12017,1,8,0:0:0:0:
256,192,12317,1,0,0:0:0:0:
256,192,12617,1,8,0:0:0:0:
256,192,12917,1,0,0:0:0:0:
256,192,13217,1,8,0:0:0:0:
256,192,13717,1,12,0:0:0:0:
256,192,14317,1,12,0:0:0:0:
256,192,14917,1,4,0:0:0:0:
256,192,15517,1,4,0:0:0:0:
256,192,16117,1,12,0:0:0:0:
256,192,16817,1,8,0:0:0:0:
256,192,17117,1,0,0:0:0:0:
256,192,17417,1,8,0:0:0:0:
256,192,17917,1,8,0:0:0:0:
256,192,18217,1,0,0:0:0:0:
256,192,18617,1,12,0:0:0:0:
256,192,19817,1,0,0:0:0:0:
256,192,21017,1,8,0:0:0:0:
256,192,21917,1,0,0:0:0:0:
256,192,22217,1,8,0:0:0:0:
256,192,23317,1,12,0:0:0:0:
256,192,24017,1,0,0:0:0:0:
256,192,24517,1,8,0:0:0:0:
256,192,25117,1,8,0:0:0:0:
256,192,25717,1,0,0:0:0:0:
256,192,26417,1,0,0:0:0:0:
256,192,26917,1,8,0:0:0:0:
256,192,28117,1,12,0:0:0:0:
256,192,28817,1,0,0:0:0:0:
256,192,29117,1,8,0:0:0:0:
256,192,29417,1,8,0:0:0:0:
256,192,29917,1,0,0:0:0:0:
256,192,30517,1,12,0:0:0:0:
256,192,31217,1,0,0:0:0:0:
256,192,31517,1,8,0:0:0:0:
256,192,31817,1,0,0:0:0:0:
256,192,32317,1,8,0:0:0:0:
256,192,32617,1,12,0:0:0:0:
256,192,33017,1,4,0:0:0:0:
256,192,33317,1,0,0:0:0:0:
256,192,34217,1,0,0:0:0:0:
256,192,34717,1,8,0:0:0:0:
256,192,35017,1,0,0:0:0:0:
256,192,35417,1,8,0:0:0:0:
256,192,35717,1,8,0:0:0:0:
256,192,36617,1,8,0:0:0:0:
256,192,37117,1,8,0:0:0:0:
256,192,37417,1,0,0:0:0:0:
256,192,37817,1,4,0:0:0:0:
256,192,38417,1,0,0:0:0:0:
256,192,38917,1,8,0:0:0:0:
256,192,39617,1,0,0:0:0:0:
256,192,40217,1,8,0:0:0:0:
256,192,40817,1,8,0:0:0:0:
256,192,41417,1,0,0:0:0:0:
256,192,41717,1,0,0:0:0:0:
256,192,42017,1,8,0:0:0:0:
256,192,42617,1,4,0:0:0:0:
256,192,42917,1,12,0:0:0:0:
256,192,43817,1,8,0:0:0:0:
256,192,44317,1,0,0:0:0:0:
256,192,44617,1,8,0:0:0:0:
256,192,45017,1,8,0:0:0:0:
256,192,45317,1,0,0:0:0:0:
256,192,46117,1,12,0:0:0:0:
256,192,46717,1,12,0:0:0:0:
256,192,47417,1,4,0:0:0:0:
256,192,48017,1,0,0:0:0:0:
256,192,48517,1,8,0:0:0:0:
256,192,49217,1,0,0:0:0:0:
256,192,49817,1,12,0:0:0:0:
256,192,50417,1,0,0:0:0:0:
256,192,50717,1,0,0:0:0:0:
256,192,51017,1,8,0:0:0:0:
256,192,51517,1,8,0:0:0:0:
256,192,52417,1,0,0:0:0:0:
256,192,52817,1,8,0:0:0:0:
256,192,53117,1,8,0:0:0:0:
256,192,53417,1,4,0:0:0:0:
256,192,53917,1,12,0:0:0:0:
256,192,54617,1,12,0:0:0:0:
256,192,55217,1,0,0:0:0:0:
256,192,55817,1,8,0:0:0:0:
256,192,56117,1,0,0:0:0:0:
256,192,56417,1,8,0:0:0:0:
256,192,56717,1,8,0:0:0:0:
256,192,57017,1,0,0:0:0:0:
256,192,57617,1,8,0:0:0:0:
256,192,58217,1,0,0:0:0:0:
256,192,59117,1,0,0:0:0:0:
256,192,59417,1,12,0:0:0:0:
256,192,60017,1,0,0:0:0:0:
256,192,60617,1,8,0:0:0:0:
256,192,61217,1,8,0:0:0:0:
256,192,61817,1,0,0:0:0:0:
256,192,62117,1,0,0:0:0:0:
256,192,62417,1,8,0:0:0:0:
256,192,63017,1,12,0:0:0:0:
256,192,63517,1,4,0:0:0:0:
256,192,64217,1,12,0:0:0:0:
256,192,64817,1,0,0:0:0:0:
256,192,65417,1,8,0:0:0:0:
256,192,65717,1,0,0:0:0:0:
256,192,66017,1,8,0:0:0:0:
256,192,66317,1,8,0:0:0:0:
256,192,66617,1,0,0:0:0:0:
256,192,67217,1,8,0:0:0:0:
256,192,67817,1,0,0:0:0:0:
256,192,68717,1,0,0:0:0:0:
256,192,69017,1,12,0:0:0:0:
256,192,69517,1,4,0:0:0:0:
256,192,70117,1,12,0:0:0:0:
256,192,71617,1,12,0:0:0:0:
256,192,72017,1,4,0:0:0:0:
256,192,72617,1,12,0:0:0:0:
256,192,73217,1,12,0:0:0:0:
256,192,73717,1,4,0:0:0:0:
256,192,74717,1,0,0:0:0:0:
256,192,75017,1,8,0:0:0:0:
256,192,75517,1,8,0:0:0:0:
256,192,76217,1,0,0:0:0:0:
256,192,76817,1,8,0:0:0:0:
256,192,77117,1,8,0:0:0:0:
256,192,77417,1,0,0:0:0:0:
256,192,77917,1,8,0:0:0:0:
256,192,78617,1,4,0:0:0:0:
256,192,79217,1,8,0:0:0:0:
256,192,79517,1,8,0:0:0:0:
256,192,79817,1,0,0:0:0:0:
256,192,80117,1,12,0:0:0:0:
256,192,80417,1,0,0:0:0:0:
256,192,80917,1,4,0:0:0:0:
256,192,81517,1,12,0:0:0:0:
256,192,82117,1,4,0:0:0:0:
256,192,82717,1,12,0:0:0:0:
256,192,83317,1,12,0:0:0:0:
256,192,84617,1,4,0:0:0:0:
256,192,85117,1,12,0:0:0:0:
256,192,85417,1,12,0:0:0:0:
256,192,86167,12,0,89217,0:0:0:0:
