osu file format v14

[General]
AudioFilename: audio.mp3
AudioLeadIn: 0
PreviewTime: 50439
Countdown: 0
SampleSet: Soft
StackLeniency: 0.7
Mode: 0
LetterboxInBreaks: 0
WidescreenStoryboard: 1

[Editor]
Bookmarks: 13630,36903,45994,91040
DistanceSpacing: 1.5
BeatDivisor: 4
GridSize: 16
TimelineZoom: 2.3

[Metadata]
Title:Machikado Tangent (TV Size)
TitleUnicode:町かどタンジェント (TV Size)
Artist:shami momo (Kohara Konomi, Kito Akari)
ArtistUnicode:shami momo (小原好美・鬼頭明里)
Creator:realy0_
Version:kundi's Light Insane
Source:まちカドまぞく
Tags:Yoshida Yuuko (吉田優子 ・ Chiyoda Momo 千代田桃 cv: Machikado Mazoku The Demon Girl Next Door OP Opening Japanese Anime J-POP J POP jpop 芳文社 Houbunsha Yuko Shamiko frozz Nelliel kundschafter98 kundi -Keqing
BeatmapID:2291947
BeatmapSetID:1092390

[Difficulty]
HPDrainRate:5
CircleSize:4
OverallDifficulty:6.5
ApproachRate:8.4
SliderMultiplier:1.54
SliderTickRate:1

[Events]
//Background and Video events
Video,50,"Machikado Mazoku op.mp4"
0,0,"frozz-bg.jpg",0,0
//Break Periods
//Storyboard Layer 0 (Background)
//Storyboard Layer 1 (Fail)
//Storyboard Layer 2 (Pass)
//Storyboard Layer 3 (Foreground)
//Storyboard Layer 4 (Overlay)
//Storyboard Sound Samples

[TimingPoints]
590,363.636363636364,4,2,1,80,1,0
590,-133.333333333333,4,2,1,80,0,0
1862,-90.9090909090909,4,2,1,85,0,1
1885,-90.9090909090909,4,2,1,85,0,0
12953,-111.111111111111,4,2,1,80,0,0
13590,-111.111111111111,4,2,1,80,0,0
13680,-111.111111111111,4,2,1,70,0,0
36953,-100,4,2,1,70,0,0
45680,-90.9090909090909,4,2,1,75,0,0
48590,-90.9090909090909,4,2,1,80,0,0
49680,-100,4,2,1,80,0,0
50044,-142.857142857143,4,2,1,80,0,0
51317,-86.9565217391304,4,2,1,95,0,1
70226,-86.9565217391304,4,2,1,95,0,0
70408,-100,4,2,1,95,0,0
70771,-100,4,2,1,95,0,1
71862,-100,4,2,1,80,0,0
73135,-100,4,2,1,85,0,0
84226,500,4,2,1,75,1,0
84226,-71.4285714285714,4,2,1,75,0,0
84413,-100,4,2,1,5,0,0
84476,-133.333333333333,4,2,1,75,0,0
84726,-133.333333333333,4,2,1,5,0,0
84809,750,4,2,1,70,1,0
84996,-200,4,2,1,5,0,0
85184,937.5,4,2,1,40,1,0
85184,-88.8888888888889,4,2,1,40,0,0
85652,-88.8888888888889,4,2,1,35,0,0
86121,-88.8888888888889,4,2,1,30,0,0
86590,-88.8888888888889,4,2,1,25,0,0
87059,-88.8888888888889,4,2,1,20,0,0
87527,-88.8888888888889,4,2,1,15,0,0
87996,-88.8888888888889,4,2,1,10,0,0
88465,-88.8888888888889,4,2,1,5,0,0

[Colours]
Combo1 : 255,230,128
Combo2 : 255,170,202
Combo3 : 64,98,255
Combo4 : 213,0,96

[HitObjects]
176,194,590,5,14,0:2:0:0:
176,194,771,2,0,P|215:178|305:155,2,115.500004405976,10|12|0,0:2|0:2|3:2,0:0:0:0:
72,178,1680,1,8,3:3:0:0:
112,69,1862,6,0,P|165:11|250:32,1,169.400005169678,6|0,3:2|3:2,0:0:0:0:
325,98,2408,2,0,P|367:72|411:52,1,84.7000025848389,10|0,0:2|3:2,0:0:0:0:
493,85,2771,2,0,P|478:124|467:165,1,84.7000025848389,10|0,0:2|3:2,0:0:0:0:
368,192,3135,2,0,P|381:232|392:273,1,84.7000025848389,10|0,0:2|3:2,0:0:0:0:
294,348,3499,5,10,0:2:0:0:
231,257,3680,1,2,3:2:0:0:
231,257,3862,1,8,0:2:0:0:
109,341,4044,2,0,P|119:299|131:259,1,84.7000025848389,2|8,3:2|0:2,0:0:0:0:
63,150,4408,1,2,3:2:0:0:
63,150,4590,1,8,0:2:0:0:
33,298,4771,6,0,B|140:303|59:359|204:369,1,169.400005169678,6|2,3:2|3:2,0:0:0:0:
317,299,5317,1,10,0:2:0:0:
239,209,5499,2,0,P|228:248|220:295,1,84.7000025848389,2|8,3:2|0:2,0:0:0:0:
351,210,5862,1,2,3:2:0:0:
408,309,6044,1,8,0:2:0:0:
481,215,6226,6,0,P|495:175|506:135,1,84.7000025848389,2|8,3:2|0:2,0:0:0:0:
455,49,6590,1,2,3:2:0:0:
393,135,6771,1,10,0:2:0:0:
335,40,6953,1,2,3:2:0:0:
335,40,7135,2,0,P|313:77|288:132,1,84.7000025848389,8|0,0:2|3:2,0:0:0:0:
214,178,7499,1,8,0:2:0:0:
105,80,7680,6,0,P|131:31|244:59,1,169.400005169678,6|0,3:2|3:2,0:0:0:0:
269,153,8226,2,0,P|209:116|162:101,1,84.7000025848389,10|0,0:2|3:2,0:0:0:0:
361,114,8590,2,0,P|423:84|472:74,1,84.7000025848389,10|0,0:2|3:2,0:0:0:0:
385,274,8953,2,0,P|348:215|334:168,1,84.7000025848389,10|0,0:2|3:2,0:0:0:0:
290,53,9317,5,10,0:2:0:0:
290,53,9499,1,2,3:2:0:0:
361,149,9680,1,8,0:2:0:0:
439,80,9862,2,0,P|420:141|396:257,1,169.400005169678,2|2,3:2|3:2,0:0:0:0:
430,330,10408,1,8,0:2:0:0:
307,232,10590,6,0,B|201:229|254:280|147:285,1,169.400005169678,6|0,3:2|3:2,0:0:0:0:
89,224,11135,1,10,0:2:0:0:
0,300,11317,2,0,P|-2:239|14:205,1,84.7000025848389,10|0,0:2|3:2,0:0:0:0:
86,319,11680,1,0,3:2:0:0:
197,204,11862,1,8,0:2:0:0:
16,279,12044,2,0,P|90:239|160:289,1,169.400005169678,4|0,3:2|3:2,0:0:0:0:
221,359,12590,5,8,0:2:0:0:
227,344,12953,5,8,0:2:0:0:
278,271,13135,1,0,3:2:0:0:
351,334,13317,2,0,P|428:333|469:340,1,103.949996827698,8|0,3:3|0:0,0:0:0:0:
476,349,13680,6,0,P|516:312|498:222,1,138.599995770264,6|8,3:2|0:2,0:0:0:0:
430,173,14226,1,2,3:2:0:0:
362,231,14408,1,2,3:2:0:0:
362,231,14590,2,0,P|319:220|277:217,1,69.2999978851319,2|0,3:2|0:0,0:0:0:0:
265,298,14953,2,0,P|210:305|179:307,1,69.2999978851319,10|0,0:2|0:0,0:0:0:0:
108,267,15317,5,2,3:2:0:0:
38,313,15499,1,8,0:2:0:0:
0,241,15680,2,0,P|2:197|9:162,1,69.2999978851319,2|0,3:2|3:2,0:0:0:0:
79,115,16044,1,2,3:2:0:0:
143,172,16226,1,10,0:2:0:0:
234,108,16408,1,2,3:2:0:0:
234,108,16590,6,0,B|317:103|283:66|375:60,2,138.599995770264,2|8|2,3:2|0:2|3:2,0:0:0:0:
138,190,17499,1,2,3:2:0:0:
238,191,17680,1,0,0:0:0:0:
134,113,17862,2,0,P|163:199|172:271,1,138.599995770264,10|0,0:2|3:2,0:0:0:0:
188,342,18408,5,8,0:2:0:0:
295,255,18590,2,0,P|277:303|266:344,1,69.2999978851319,2|0,3:2|3:2,0:0:0:0:
204,237,18953,1,2,3:2:0:0:
123,285,19135,1,8,0:2:0:0:
111,191,19317,1,2,3:2:0:0:
216,138,19499,6,0,B|295:149|262:191|368:184,1,138.599995770264,2|8,3:2|0:2,0:0:0:0:
426,261,20044,1,2,3:2:0:0:
451,183,20226,1,2,3:2:0:0:
342,277,20408,2,0,P|332:229|318:188,1,69.2999978851319,2|0,3:2|0:0,0:0:0:0:
347,131,20771,2,0,P|360:90|367:53,1,69.2999978851319,10|0,0:2|0:0,0:0:0:0:
265,60,21135,1,2,3:2:0:0:
183,14,21317,5,8,0:2:0:0:
106,64,21499,2,0,P|115:104|120:156,1,69.2999978851319,2|0,3:2|3:2,0:0:0:0:
125,236,21862,1,2,3:2:0:0:
187,170,22044,1,10,0:2:0:0:
51,192,22226,1,2,3:2:0:0:
84,308,22408,6,0,P|145:266|229:276,1,138.599995770264,2|8,3:2|0:2,0:0:0:0:
267,357,22953,1,2,3:2:0:0:
338,307,23135,1,2,3:2:0:0:
419,361,23317,2,0,P|434:318|441:273,1,69.2999978851319,2|0,3:2|0:0,0:0:0:0:
384,214,23680,6,0,P|374:173|368:136,1,69.2999978851319,10|0,0:2|0:0,0:0:0:0:
407,41,24044,1,2,3:2:0:0:
308,83,24226,1,8,0:2:0:0:
443,117,24408,2,0,P|485:97|530:83,1,69.2999978851319,2|0,3:2|3:2,0:0:0:0:
430,211,24771,1,0,3:2:0:0:
343,142,24953,2,0,P|304:126|250:115,1,69.2999978851319,10|2,0:2|3:2,0:0:0:0:
324,277,25317,5,6,3:2:0:0:
335,297,25680,5,10,0:2:0:0:
349,320,26044,6,0,P|295:309|259:308,1,69.2999978851319,2|2,3:2|3:2,0:0:0:0:
185,352,26408,1,0,0:0:0:0:
122,279,26590,2,0,P|123:239|152:195,1,69.2999978851319,10|0,0:2|0:0,0:0:0:0:
217,172,26953,1,2,3:2:0:0:
293,218,27135,1,10,0:2:0:0:
334,135,27317,6,0,P|336:90|330:40,1,69.2999978851319,2|0,3:2|3:2,0:0:0:0:
414,16,27680,1,2,3:2:0:0:
493,66,27862,1,10,0:2:0:0:
493,66,28044,1,2,3:2:0:0:
416,124,28226,6,0,P|427:162|434:204,1,69.2999978851319,2|0,3:2|0:0,0:0:0:0:
477,269,28590,2,0,P|462:307|449:354,1,69.2999978851319,10|0,0:2|3:2,0:0:0:0:
356,366,28953,1,2,3:2:0:0:
290,300,29135,1,2,3:2:0:0:
224,360,29317,1,0,0:0:0:0:
190,261,29499,6,0,P|145:238|101:233,1,69.2999978851319,10|0,0:2|0:0,0:0:0:0:
44,149,29862,1,2,3:2:0:0:
32,244,30044,1,10,0:2:0:0:
134,139,30226,2,0,P|206:112|281:130,1,138.599995770264,2|0,3:2|3:2,0:0:0:0:
307,140,30771,1,10,0:2:0:0:
184,36,30953,1,2,3:2:0:0:
225,196,31135,5,6,3:2:0:0:
237,210,31499,5,10,0:2:0:0:
248,226,31862,6,0,P|257:183|271:135,1,69.2999978851319,2|2,3:2|3:2,0:0:0:0:
351,196,32226,1,8,0:2:0:0:
394,76,32408,2,0,B|314:69|348:26|256:11,1,138.599995770264,2|0,3:2|3:2,0:0:0:0:
169,42,32953,1,8,0:2:0:0:
239,194,33135,5,2,3:2:0:0:
268,97,33317,1,2,3:2:0:0:
177,129,33499,1,0,3:2:0:0:
327,179,33680,1,10,0:2:0:0:
327,179,33862,1,2,3:2:0:0:
246,282,34044,6,0,P|206:222|128:213,1,138.599995770264,2|8,3:2|0:2,0:0:0:0:
44,170,34590,2,0,P|27:210|23:242,1,69.2999978851319,2|2,3:2|3:2,0:0:0:0:
48,316,34954,1,2,3:2:0:0:
133,295,35135,1,0,0:0:0:0:
207,359,35317,6,0,P|250:374|286:380,1,69.2999978851319,10|0,0:2|0:0,0:0:0:0:
342,321,35680,1,0,3:2:0:0:
453,372,35862,2,0,P|440:320|444:274,1,69.2999978851319,10|2,0:2|3:2,0:0:0:0:
457,216,36226,1,2,3:2:0:0:
512,143,36408,1,0,3:2:0:0:
484,64,36590,2,0,P|434:31|373:54,1,103.949996827698,10|2,0:2|3:2,0:0:0:0:
352,71,36953,6,0,B|273:73|311:18|202:16,1,154,4|8,3:2|0:2,0:0:0:0:
108,80,37499,1,2,3:2:0:0:
175,148,37680,2,0,P|215:138|254:132,1,77,2|2,3:2|3:2,0:0:0:0:
334,164,38044,1,8,0:2:0:0:
273,233,38226,2,0,P|285:277|292:318,1,77,2|0,3:2|0:0,0:0:0:0:
204,351,38590,5,2,3:2:0:0:
141,284,38771,1,10,0:2:0:0:
45,337,38953,2,0,P|41:287|37:241,1,77,2|0,3:2|3:2,0:0:0:0:
132,375,39317,1,2,3:2:0:0:
220,315,39499,1,10,0:2:0:0:
307,373,39680,6,0,P|316:323|326:279,1,77,2|0,3:2|3:2,0:0:0:0:
401,239,40044,2,0,P|396:188|388:146,1,77,0|8,0:0|0:2,0:0:0:0:
310,109,40408,2,0,P|319:60|327:16,1,77,2|2,3:2|3:2,0:0:0:0:
416,64,40771,1,2,3:2:0:0:
416,64,40953,1,8,0:2:0:0:
512,33,41135,6,0,P|505:85|497:120,1,77,2|0,3:2|0:0,0:0:0:0:
448,190,41499,1,2,3:2:0:0:
504,263,41680,1,10,0:2:0:0:
441,329,41862,2,0,B|350:323|375:366|261:358,1,154,2|0,3:2|3:2,0:0:0:0:
154,262,42408,5,10,0:2:0:0:
174,362,42590,1,2,3:2:0:0:
280,272,42771,2,0,P|317:277|371:287,1,77,6|0,3:2|0:0,0:0:0:0:
319,186,43135,1,10,0:2:0:0:
212,199,43317,2,0,P|171:203|117:218,1,77,6|2,3:2|3:2,0:0:0:0:
88,98,43680,5,2,3:2:0:0:
44,176,43862,1,8,0:2:0:0:
174,109,44044,2,0,P|206:113|262:125,1,77,6|0,3:2|0:0,0:0:0:0:
307,5,44408,1,2,3:2:0:0:
351,83,44590,1,8,0:2:0:0:
221,16,44771,2,0,P|170:22|133:29,1,77,6|2,3:2|3:2,0:0:0:0:
74,89,45135,6,0,P|88:138|95:180,1,77,0|10,3:2|0:2,0:0:0:0:
40,259,45499,1,2,3:2:0:0:
95,365,45680,2,0,P|134:347|182:331,1,84.7000025848389,6|0,3:2|0:0,0:0:0:0:
258,313,46044,2,0,P|297:331|348:348,1,84.7000025848389,8|2,0:2|3:2,0:0:0:0:
400,281,46408,5,2,3:2:0:0:
483,312,46590,1,2,3:2:0:0:
431,196,46771,1,8,0:2:0:0:
312,265,46953,2,0,P|294:303|283:348,1,84.7000025848389,2|0,3:2|0:0,0:0:0:0:
178,195,47317,2,0,P|196:233|212:279,1,84.7000025848389,0|10,3:2|0:2,0:0:0:0:
241,132,47680,6,0,P|192:72|112:113,1,169.400005169678,2|0,3:2|3:2,0:0:0:0:
29,157,48226,1,10,0:2:0:0:
29,157,48408,1,8,0:2:0:0:
109,255,48590,2,0,P|150:225|203:197,1,84.7000025848389,6|0,3:2|3:0,0:0:0:0:
199,202,48862,1,0,3:0:0:0:
219,198,48953,1,10,0:2:0:0:
314,208,49135,1,2,3:2:0:0:
311,368,49317,6,0,P|283:335|272:281,1,84.7000025848389,2|2,3:2|3:2,0:0:0:0:
408,328,49680,1,10,0:2:0:0:
349,278,49862,1,2,3:2:0:0:
487,255,50044,2,0,P|453:255|424:247,1,53.8999983551026,10|2,0:2|3:2,0:0:0:0:
465,177,50408,1,8,3:3:0:0:
465,177,50590,1,8,3:3:0:0:
393,123,50771,5,2,3:2:0:0:
319,71,50952,1,10,0:0:0:0:
299,70,51043,1,10,0:0:0:0:
277,70,51134,1,10,0:0:0:0:
174,183,51317,6,0,P|257:199|281:122,1,177.100003377915,6|0,3:2|3:2,0:0:0:0:
165,22,51862,2,0,P|149:73|142:108,1,88.5500016889573,10|0,0:2|3:2,0:0:0:0:
81,205,52226,2,0,P|73:167|55:118,1,88.5500016889573,10|0,0:2|3:2,0:0:0:0:
183,42,52590,2,0,P|166:92|160:131,1,88.5500016889573,10|0,0:2|3:2,0:0:0:0:
237,238,52953,5,10,0:2:0:0:
331,111,53135,2,0,P|382:98|431:95,1,88.5500016889573,2|8,3:2|0:2,0:0:0:0:
342,259,53499,2,0,P|297:254|255:242,1,88.5500016889573,2|8,3:2|0:2,0:0:0:0:
155,196,53862,1,2,3:2:0:0:
197,343,54044,1,10,0:2:0:0:
381,249,54226,6,0,P|290:229|252:154,1,177.100003377915,2|0,3:2|3:2,0:0:0:0:
187,92,54771,2,0,P|232:69|278:59,1,88.5500016889573,10|0,0:2|3:2,0:0:0:0:
388,165,55135,2,0,P|347:155|304:123,1,88.5500016889573,10|0,0:2|3:2,0:0:0:0:
210,63,55499,2,0,P|255:40|296:30,1,88.5500016889573,10|0,0:2|3:2,0:0:0:0:
388,178,55862,5,10,0:2:0:0:
330,251,56044,2,0,P|302:217|294:175,1,88.5500016889573,2|8,3:2|0:2,0:0:0:0:
443,104,56408,1,2,3:2:0:0:
355,98,56590,1,10,0:2:0:0:
480,188,56771,1,2,3:2:0:0:
294,174,56953,1,10,0:2:0:0:
401,324,57135,6,0,P|362:274|252:264,1,177.100003377915,6|2,3:2|3:2,0:0:0:0:
134,258,57680,1,10,0:2:0:0:
202,322,57862,1,2,3:2:0:0:
248,139,58044,1,8,0:2:0:0:
314,205,58226,6,0,P|268:228|205:238,1,88.5500016889573,2|10,3:2|0:2,0:0:0:0:
102,165,58590,2,0,P|105:204|-4:206,1,177.100003377915,6|2,3:2|3:2,0:0:0:0:
60,87,59135,1,10,0:2:0:0:
150,88,59317,1,2,3:2:0:0:
53,240,59499,1,8,0:2:0:0:
13,159,59680,6,0,P|59:164|112:178,1,88.5500016889573,2|10,3:2|0:2,0:0:0:0:
188,258,60044,2,0,P|179:220|179:170,1,88.5500016889573,6|8,3:2|0:2,0:0:0:0:
249,136,60408,1,2,3:2:0:0:
329,266,60590,1,10,0:2:0:0:
326,178,60771,1,2,3:2:0:0:
246,308,60953,5,10,0:2:0:0:
417,263,61135,1,2,3:2:0:0:
246,218,61317,1,8,0:2:0:0:
408,364,61499,2,0,B|294:359|353:311|236:307,1,177.100003377915,6|2,3:2|3:2,0:0:0:0:
99,344,62044,1,8,0:2:0:0:
208,164,62226,6,0,L|196:264,1,88.5500016889573,6|8,3:2|0:2,0:0:0:0:
79,134,62590,1,2,3:2:0:0:
98,130,62680,1,8,0:2:0:0:
117,126,62771,1,8,0:2:0:0:
330,98,62953,2,0,P|350:173|261:213,1,177.100003377915,6|0,3:2|3:2,0:0:0:0:
212,63,63499,6,0,L|219:162,1,88.5500016889573,10|0,0:2|3:2,0:0:0:0:
77,225,63862,2,0,L|87:135,1,88.5500016889573,10|0,0:2|3:2,0:0:0:0:
193,49,64226,2,0,L|201:148,1,88.5500016889573,10|0,0:2|3:2,0:0:0:0:
144,277,64590,1,10,0:2:0:0:
71,222,64771,2,0,P|52:263|58:312,1,88.5500016889573,2|8,3:2|0:2,0:0:0:0:
227,244,65134,1,2,3:2:0:0:
129,365,65316,1,8,0:2:0:0:
213,333,65498,1,2,3:2:0:0:
139,196,65680,5,10,0:2:0:0:
227,364,65862,2,0,P|253:315|161:269,1,177.100003377915,2|0,3:2|3:2,0:0:0:0:
8,243,66408,2,0,L|13:145,1,88.5500016889573,10|0,0:2|3:2,0:0:0:0:
99,354,66771,1,10,0:2:0:0:
21,325,66953,1,0,3:2:0:0:
159,212,67135,2,0,L|163:300,1,88.5500016889573,10|0,0:2|3:2,0:0:0:0:
49,212,67499,5,10,0:2:0:0:
8,127,67680,2,0,P|2:83|25:46,1,88.5500016889573,2|8,3:2|0:2,0:0:0:0:
115,165,68044,1,2,3:2:0:0:
146,16,68226,2,0,P|169:58|154:111,1,88.5500016889573,10|2,0:2|3:2,0:0:0:0:
32,202,68590,1,10,0:2:0:0:
40,113,68771,1,2,3:2:0:0:
151,238,68953,6,0,B|245:237|199:168|320:170,1,177.100003377915,12|8,0:2|0:2,0:0:0:0:
392,254,69499,2,0,P|378:296|369:344,1,88.5500016889573,4|0,3:2|0:0,0:0:0:0:
283,262,69862,1,0,3:2:0:0:
225,339,70044,1,8,0:2:0:0:
119,246,70226,2,0,P|131:329|51:339,1,177.100003377915,4|8,3:3|3:3,0:0:0:0:
47,333,70771,5,14,0:2:0:0:
255,41,71680,5,0,3:2:0:0:
197,174,71862,1,14,0:2:0:0:
274,63,72044,1,10,0:2:0:0:
29,57,72408,1,12,0:2:0:0:
113,226,72771,1,0,3:2:0:0:
110,209,72861,1,0,3:2:0:0:
109,193,72952,1,8,3:3:0:0:
6,208,73135,6,0,P|30:268|53:363,1,154,6|0,3:2|3:2,0:0:0:0:
113,239,73680,2,0,P|145:231|213:231,1,77,10|0,0:2|3:2,0:0:0:0:
224,308,74044,2,0,P|255:317|314:351,1,77,10|0,0:2|3:2,0:0:0:0:
334,244,74408,2,0,P|366:236|434:236,1,77,10|0,0:2|3:2,0:0:0:0:
502,286,74771,5,10,0:2:0:0:
474,175,74953,1,2,3:2:0:0:
474,175,75135,1,8,0:2:0:0:
388,257,75317,2,0,P|409:299|424:355,1,77,2|8,3:2|0:2,0:0:0:0:
502,286,75680,1,2,3:2:0:0:
502,286,75862,1,8,0:2:0:0:
350,180,76044,6,0,P|275:193|251:285,1,154,6|2,3:2|3:2,0:0:0:0:
390,282,76590,1,10,0:2:0:0:
324,375,76771,2,0,P|284:348|239:330,1,77,2|8,3:2|0:2,0:0:0:0:
114,295,77135,1,2,3:2:0:0:
162,377,77317,1,8,0:2:0:0:
61,210,77499,6,0,P|30:251|18:285,1,77,2|8,3:2|0:2,0:0:0:0:
70,376,77862,1,2,3:2:0:0:
160,219,78044,1,10,0:2:0:0:
15,168,78226,1,2,3:2:0:0:
15,168,78408,2,0,P|42:211|51:246,1,77,8|2,0:2|3:2,0:0:0:0:
119,306,78771,1,8,0:2:0:0:
151,125,78953,6,0,B|235:121|212:186|311:178,1,154,6|0,3:2|3:2,0:0:0:0:
433,62,79499,2,0,P|384:85|368:125,1,77,10|0,0:2|3:2,0:0:0:0:
440,251,79862,2,0,P|444:197|417:163,1,77,10|0,0:2|3:2,0:0:0:0:
290,178,80226,2,0,P|334:208|377:202,1,77,10|0,0:2|3:2,0:0:0:0:
323,35,80590,5,10,0:2:0:0:
323,35,80771,1,2,3:2:0:0:
234,96,80953,1,8,0:2:0:0:
104,59,81135,2,0,P|129:114|165:207,1,154,2|2,3:2|3:2,0:0:0:0:
232,271,81680,1,8,0:2:0:0:
63,325,81862,6,0,P|27:283|95:202,1,154,6|0,3:2|3:2,0:0:0:0:
139,264,82408,1,10,0:2:0:0:
208,194,82590,2,0,P|247:172|292:159,1,77,10|0,2:2|3:2,0:0:0:0:
349,228,82953,1,0,3:2:0:0:
388,144,83135,1,8,0:2:0:0:
242,84,83317,6,0,B|158:85|185:24|83:18,1,154,4|0,3:2|3:2,0:0:0:0:
38,84,83862,1,8,0:2:0:0:
27,104,84226,6,0,P|15:148|7:197,1,80.8499975326539,8|0,0:2|0:0,0:0:0:0:
59,133,84476,6,0,P|40:167|32:195,1,57.7500022029878,0|0,3:2|0:0,0:0:0:0:
78,166,84809,6,0,P|64:178|51:193,1,38.5,8|0,0:3|0:0,0:0:0:0:
178,229,85184,6,0,B|137:234|137:234|176:171|176:171|145:104|145:104|216:121|216:121|269:72|269:72|275:144|275:144|340:179|340:179|272:207|272:207|258:279|258:279|212:221,1,693.000026435853,14|0,0:3|0:0,0:0:0:0:
