osu file format v14

[General]
AudioFilename: audio.mp3
AudioLeadIn: 0
PreviewTime: 50439
Countdown: 0
SampleSet: Soft
StackLeniency: 0.4
Mode: 0
LetterboxInBreaks: 0
WidescreenStoryboard: 1

[Editor]
DistanceSpacing: 1.7
BeatDivisor: 4
GridSize: 16
TimelineZoom: 1.9

[Metadata]
Title:Machikado Tangent (TV Size)
TitleUnicode:町かどタンジェント (TV Size)
Artist:shami momo (Kohara Konomi, Kito Akari)
ArtistUnicode:shami momo (小原好美・鬼頭明里)
Creator:realy0_
Version:Nelliel's Extra
Source:まちカドまぞく
Tags:Yoshida Yuuko (吉田優子 ・ Chiyoda Momo 千代田桃 cv: Machikado Mazoku The Demon Girl Next Door OP Opening Japanese Anime J-POP J POP jpop 芳文社 Houbunsha Yuko Shamiko frozz Nelliel kundschafter98 kundi -Keqing
BeatmapID:2294221
BeatmapSetID:1092390

[Difficulty]
HPDrainRate:5.4
CircleSize:3.7
OverallDifficulty:8.5
ApproachRate:9
SliderMultiplier:1.8
SliderTickRate:1

[Events]
//Background and Video events
Video,50,"Machikado Mazoku op.mp4"
0,0,"shamiko cutie.jpg",0,0
//Break Periods
//Storyboard Layer 0 (Background)
//Storyboard Layer 1 (Fail)
//Storyboard Layer 2 (Pass)
//Storyboard Layer 3 (Foreground)
//Storyboard Layer 4 (Overlay)
//Storyboard Sound Samples

[TimingPoints]
590,363.636363636364,4,2,1,80,1,0
590,-133.333333333333,4,2,1,80,0,0
1862,-86.9565217391304,4,2,1,85,0,0
12953,-80,4,2,1,80,0,0
13680,-125,4,2,1,70,0,0
14862,-125,4,2,1,5,0,0
14953,-125,4,2,1,70,0,0
17771,-125,4,2,1,5,0,0
17862,-125,4,2,1,70,0,0
25317,-111.111111111111,4,2,1,70,0,0
36953,-125,4,2,1,70,0,0
45680,-111.111111111111,4,2,1,75,0,0
48590,-100,4,2,1,80,0,0
51317,-80,4,2,1,95,0,1
70226,-100,4,2,1,95,0,0
70771,-100,4,2,1,95,0,1
71862,-100,4,2,1,80,0,0
73135,-86.9565217391304,4,2,1,85,0,0
84226,500,4,2,1,75,1,0
84226,-100,4,2,1,75,0,0
84809,750,4,2,1,70,1,0
85184,937.5,4,2,1,40,1,0
85184,-80,4,2,1,40,0,0
85652,-80,4,2,1,35,0,0
86121,-80,4,2,1,30,0,0
86590,-80,4,2,1,25,0,0
87059,-80,4,2,1,20,0,0
87527,-80,4,2,1,15,0,0
87996,-80,4,2,1,10,0,0
88465,-80,4,2,1,5,0,0

[Colours]
Combo1 : 255,230,128
Combo2 : 255,170,202
Combo3 : 64,98,255
Combo4 : 213,0,96

[HitObjects]
87,159,590,6,0,P|117:178|169:178,1,67.5000025749208,14|10,0:2|0:2,0:0:0:0:
270,135,908,1,2,0:0:0:0:
270,135,999,1,2,0:0:0:0:
270,135,1090,1,2,0:0:0:0:
270,135,1180,1,2,0:0:0:0:
270,135,1271,2,0,L|267:181,1,33.7500012874604,2|2,0:0|0:0,0:0:0:0:
361,48,1453,2,0,L|364:82,1,33.7500012874604,2|2,3:2|0:0,0:0:0:0:
361,221,1635,2,0,L|358:254,1,33.7500012874604,2|2,3:2|0:2,0:0:0:0:
259,375,1862,6,0,B|141:376|202:282|51:293,1,207.000003948212,6|0,3:2|3:2,0:0:0:0:
170,150,2408,1,10,0:2:0:0:
87,378,2590,1,0,3:2:0:0:
58,144,2771,1,10,0:2:0:0:
249,293,2953,1,0,3:2:0:0:
75,288,3135,1,10,0:2:0:0:
277,173,3317,1,0,3:2:0:0:
67,50,3499,5,10,0:2:0:0:
291,141,3681,1,2,3:2:0:0:
101,290,3862,1,8,0:2:0:0:
199,66,4044,1,2,3:2:0:0:
199,66,4135,1,0,3:2:0:0:
199,66,4226,1,8,0:2:0:0:
247,295,4408,1,2,3:2:0:0:
322,86,4590,1,8,0:2:0:0:
273,321,4771,6,0,B|301:360|360:348|360:348|408:312|400:231,1,207.000003948212,6|2,3:2|3:2,0:0:0:0:
340,86,5317,1,10,0:2:0:0:
499,255,5499,1,2,3:2:0:0:
301,181,5680,1,8,0:2:0:0:
510,83,5862,1,2,3:2:0:0:
262,71,6044,1,10,0:2:0:0:
471,169,6226,1,2,3:2:0:0:
261,272,6408,5,8,0:2:0:0:
355,47,6590,1,2,3:2:0:0:
185,242,6771,1,10,0:2:0:0:
153,0,6953,1,2,3:2:0:0:
18,182,7135,5,8,0:2:0:0:
244,123,7317,1,0,3:2:0:0:
47,90,7499,1,8,0:2:0:0:
209,251,7680,6,0,P|305:269|359:163,1,207.000003948212,6|0,3:2|3:2,0:0:0:0:
299,17,8226,1,10,0:2:0:0:
489,164,8408,1,0,3:2:0:0:
277,194,8590,1,10,0:2:0:0:
471,51,8772,1,0,3:2:0:0:
210,132,8953,1,10,0:2:0:0:
430,228,9135,1,0,3:2:0:0:
296,104,9317,5,10,0:2:0:0:
379,315,9499,1,2,3:2:0:0:
380,74,9680,1,8,0:2:0:0:
297,285,9862,1,2,3:2:0:0:
122,141,10044,1,8,0:2:0:0:
364,223,10226,1,2,3:2:0:0:
207,68,10408,1,8,0:2:0:0:
74,265,10590,6,0,B|191:236|122:174|251:145,1,207.000003948212,6|2,3:2|3:2,0:0:0:0:
396,328,11135,2,0,P|371:256|248:259,1,207.000003948212,10|0,0:2|3:2,0:0:0:0:
166,355,11680,1,0,3:2:0:0:
39,182,11862,1,8,0:2:0:0:
181,349,12044,6,0,B|205:378|247:369|247:369|289:306|258:228,1,207.000003948212,4|0,3:2|3:2,0:0:0:0:
123,137,12590,2,0,P|98:239|82:360,1,207.000003948212,8|8,0:2|0:2,0:0:0:0:
7,215,13135,1,0,3:2:0:0:
7,215,13317,1,8,3:3:0:0:
235,325,13680,6,0,B|313:308|275:265|358:252,1,144,6|8,3:2|0:2,0:0:0:0:
472,320,14226,1,2,3:2:0:0:
358,176,14408,1,2,3:2:0:0:
436,364,14590,2,0,P|450:296|466:232,1,108,2|0,3:2|0:0,0:0:0:0:
470,231,14953,2,0,P|460:186|450:144,1,72,10|0,0:2|0:0,0:0:0:0:
356,55,15317,2,0,P|347:90|340:125,1,72,2|8,3:2|0:2,0:0:0:0:
242,231,15680,2,0,P|233:195|226:160,1,72,2|2,3:2|3:2,0:0:0:0:
150,26,16044,1,2,3:2:0:0:
62,166,16226,1,10,0:2:0:0:
200,91,16408,2,0,P|164:99|129:106,1,72,2|2,3:2|3:2,0:0:0:0:
21,58,16771,5,0,0:0:0:0:
149,207,16953,1,8,0:2:0:0:
149,207,17135,1,2,3:2:0:0:
14,145,17317,1,2,3:2:0:0:
116,298,17499,2,0,B|166:293|166:293|177:298|177:298|239:290,1,108,0|0,3:2|0:0,0:0:0:0:
241,272,17862,2,0,L|315:278,1,72,10|0,0:2|0:0,0:0:0:0:
432,349,18226,2,0,L|358:355,1,72,0|8,3:2|0:2,0:0:0:0:
437,213,18590,1,2,3:2:0:0:
437,213,18680,1,2,3:2:0:0:
437,213,18771,1,2,3:2:0:0:
511,360,18953,1,2,3:2:0:0:
349,191,19135,1,8,0:2:0:0:
349,191,19499,6,0,P|356:123|371:31,1,144,2|8,3:2|0:2,0:0:0:0:
460,186,20044,1,2,3:2:0:0:
274,112,20226,1,2,3:2:0:0:
437,3,20408,2,0,P|442:38|446:74,1,72,2|0,3:2|0:0,0:0:0:0:
222,51,20771,2,0,P|248:31|295:39,1,72,10|0,0:2|0:0,0:0:0:0:
279,214,21135,2,0,P|243:217|215:196,1,72,2|8,3:2|0:2,0:0:0:0:
374,103,21499,2,0,P|368:138|364:174,1,72,2|2,3:2|3:2,0:0:0:0:
406,294,21862,1,2,3:2:0:0:
275,125,22044,1,10,0:2:0:0:
479,243,22226,2,0,P|484:278|488:314,1,72,2|2,3:2|3:2,0:0:0:0:
311,258,22590,5,0,0:0:0:0:
431,383,22771,1,8,0:2:0:0:
431,383,22953,1,2,3:2:0:0:
239,316,23135,1,2,3:2:0:0:
411,239,23317,1,2,3:2:0:0:
285,380,23499,1,0,0:0:0:0:
148,232,23680,2,0,P|111:214|69:206,1,72,10|0,0:2|0:0,0:0:0:0:
253,127,24044,2,0,P|287:118|319:102,1,72,2|8,3:2|0:2,0:0:0:0:
142,44,24408,1,2,3:2:0:0:
142,44,24499,1,2,3:2:0:0:
142,44,24590,1,2,3:2:0:0:
239,213,24771,1,0,3:2:0:0:
218,3,24953,1,10,0:2:0:0:
158,251,25135,1,2,3:2:0:0:
28,76,25317,6,0,L|122:98,1,80.9999975280763,6|0,3:2|0:0,0:0:0:0:
317,194,25680,2,0,L|223:216,1,80.9999975280763,10|2,0:2|3:2,0:0:0:0:
102,313,26044,1,2,3:2:0:0:
102,313,26226,1,2,3:2:0:0:
202,133,26408,1,0,0:0:0:0:
10,292,26590,6,0,P|49:233|159:245,1,161.999995056153,10|2,0:2|3:2,0:0:0:0:
228,346,27135,1,10,0:2:0:0:
308,196,27317,2,0,P|289:240|279:280,1,80.9999975280763,2|0,3:2|3:2,0:0:0:0:
205,123,27680,1,2,3:2:0:0:
392,204,27862,2,0,P|381:165|364:128,1,80.9999975280763,10|2,0:2|3:2,0:0:0:0:
499,20,28226,6,0,P|462:36|423:47,1,80.9999975280763,2|0,3:2|0:0,0:0:0:0:
199,83,28590,2,0,P|235:99|274:110,1,80.9999975280763,10|2,0:2|3:2,0:0:0:0:
421,218,28953,1,2,3:2:0:0:
421,218,29135,1,2,3:2:0:0:
266,293,29317,1,0,0:0:0:0:
360,121,29499,6,0,P|388:194|407:291,1,161.999995056153,10|0,0:2|3:2,0:0:0:0:
475,147,30044,1,10,0:2:0:0:
344,331,30226,2,0,P|286:374|195:344,1,161.999995056153,2|0,3:2|3:2,0:0:0:0:
77,218,30771,1,10,0:2:0:0:
135,384,30953,1,2,3:2:0:0:
248,249,31135,6,0,P|208:258|159:273,1,80.9999975280763,6|0,3:2|0:0,0:0:0:0:
47,128,31499,2,0,P|88:137|125:149,1,80.9999975280763,10|2,0:2|3:2,0:0:0:0:
246,51,31862,1,2,3:2:0:0:
246,51,32044,1,2,3:2:0:0:
95,245,32226,1,8,0:2:0:0:
142,35,32408,6,0,B|229:62|165:118|283:142,1,161.999995056153,2|0,3:2|3:2,0:0:0:0:
406,55,32953,2,0,P|391:98|384:142,1,80.9999975280763,8|2,0:2|3:2,0:0:0:0:
441,294,33317,1,2,3:2:0:0:
441,294,33499,1,0,3:2:0:0:
294,98,33680,1,10,0:2:0:0:
470,212,33862,1,2,3:2:0:0:
285,298,34044,5,2,3:2:0:0:
285,298,34226,2,0,P|241:318|197:321,1,80.9999975280763,0|8,3:0|0:2,0:0:0:0:
48,185,34590,2,0,P|87:190|124:208,1,80.9999975280763,2|0,3:2|3:2,0:0:0:0:
266,111,34953,1,2,3:2:0:0:
136,288,35135,1,0,0:0:0:0:
211,46,35317,6,0,B|255:18|255:18|380:63,1,161.999995056153,10|0,0:2|3:2,0:0:0:0:
506,113,35862,1,10,0:2:0:0:
314,256,36044,1,2,3:2:0:0:
438,60,36226,1,2,3:2:0:0:
406,298,36408,1,2,3:2:0:0:
406,298,36499,1,2,3:2:0:0:
406,298,36590,1,10,0:2:0:0:
305,78,36771,1,10,0:2:0:0:
326,71,36862,1,10,0:2:0:0:
345,65,36953,6,0,L|336:167,1,72,6|0,3:2|0:0,0:0:0:0:
447,303,37317,2,0,L|439:213,1,72,8|2,0:2|3:2,0:0:0:0:
224,140,37680,2,0,L|233:242,1,72,2|2,3:2|3:2,0:0:0:0:
430,123,38044,1,8,0:2:0:0:
298,275,38226,6,0,P|267:301|206:295,1,72,2|0,3:2|0:0,0:0:0:0:
102,177,38590,1,0,3:2:0:0:
33,333,38771,1,10,0:2:0:0:
39,116,38953,2,0,P|83:115|117:142,1,72,2|0,3:2|3:2,0:0:0:0:
160,289,39317,1,2,3:2:0:0:
292,161,39499,1,10,0:2:0:0:
99,246,39680,6,0,P|133:218|177:219,1,72,2|0,3:2|3:2,0:0:0:0:
307,340,40044,2,0,P|341:367|385:366,1,72,2|8,0:2|0:2,0:0:0:0:
477,185,40408,2,0,P|432:184|398:211,1,72,2|2,3:2|3:2,0:0:0:0:
231,383,40771,2,0,P|219:334|195:286,1,72,2|8,3:2|0:2,0:0:0:0:
333,124,41135,6,0,P|298:196|282:273,1,144,2|0,3:2|3:2,0:0:0:0:
170,137,41680,1,10,0:2:0:0:
233,0,41862,1,2,3:2:0:0:
233,0,41953,1,2,3:2:0:0:
233,0,42044,2,0,P|243:43|246:88,1,72,2|0,3:2|3:2,0:0:0:0:
96,207,42408,1,10,0:2:0:0:
146,48,42590,1,2,3:2:0:0:
1,189,42771,6,0,P|18:256|21:325,1,108,6|0,3:2|0:0,0:0:0:0:
15,328,43135,1,8,0:2:0:0:
245,282,43317,2,0,P|216:244|143:256,1,108,6|0,3:2|0:0,0:0:0:0:
136,264,43680,2,0,P|153:311|156:367,1,72,2|8,3:2|0:2,0:0:0:0:
6,212,44044,6,0,P|11:167|26:125,1,72,6|0,3:2|0:0,0:0:0:0:
264,235,44408,2,0,P|242:280|205:321,1,72,2|8,3:2|0:2,0:0:0:0:
119,98,44771,2,0,P|154:70|195:51,1,72,6|0,3:2|3:2,0:0:0:0:
412,285,45135,2,0,P|365:302|309:305,1,72,2|8,3:2|0:2,0:0:0:0:
292,98,45499,1,2,3:2:0:0:
124,231,45680,6,0,P|171:248|227:251,1,80.9999975280763,6|2,3:2|0:0,0:0:0:0:
357,178,46044,1,8,0:2:0:0:
227,64,46226,1,2,3:2:0:0:
313,253,46408,2,0,P|320:175|324:150,1,80.9999975280763,2|2,3:2|3:2,0:0:0:0:
379,38,46771,1,8,0:2:0:0:
216,186,46953,6,0,P|209:108|205:83,1,80.9999975280763,2|0,3:2|0:0,0:0:0:0:
53,184,47317,2,0,P|47:228|44:273,1,80.9999975280763,0|10,3:2|0:2,0:0:0:0:
245,128,47680,2,0,P|238:50|234:25,1,80.9999975280763,2|0,3:2|3:2,0:0:0:0:
75,44,48044,1,0,3:2:0:0:
172,217,48226,1,10,0:2:0:0:
157,13,48408,1,8,0:2:0:0:
60,186,48590,5,6,3:2:0:0:
292,194,48771,1,0,3:2:0:0:
292,194,48862,1,0,3:2:0:0:
292,194,48952,1,8,0:2:0:0:
95,62,49135,1,2,3:2:0:0:
182,271,49317,1,2,3:2:0:0:
249,41,49499,1,0,3:2:0:0:
249,41,49589,1,0,3:0:0:0:
249,41,49680,1,8,0:2:0:0:
340,252,49862,1,2,3:2:0:0:
161,61,50044,5,10,0:2:0:0:
254,250,50226,1,2,3:2:0:0:
378,118,50408,1,8,3:3:0:0:
378,118,50590,1,8,3:3:0:0:
344,301,50771,2,0,L|331:241,1,45,2|2,3:2|3:2,0:0:0:0:
439,184,50953,2,0,L|429:227,1,45,10|10,0:0|0:0,0:0:0:0:
261,327,51135,1,10,0:0:0:0:
261,327,51226,1,10,0:0:0:0:
261,327,51317,6,0,P|275:254|289:97,1,225,6|0,3:2|3:2,0:0:0:0:
124,47,51862,2,0,P|133:102|137:158,1,112.5,10|0,0:2|3:2,0:0:0:0:
127,190,52135,1,0,3:2:0:0:
127,190,52226,1,10,0:2:0:0:
321,64,52408,1,0,3:2:0:0:
182,263,52590,1,10,0:2:0:0:
376,137,52772,1,0,3:2:0:0:
181,52,52953,5,10,0:2:0:0:
335,282,53135,1,2,3:2:0:0:
356,53,53317,1,8,0:2:0:0:
263,308,53499,1,2,3:2:0:0:
263,308,53590,1,2,3:2:0:0:
263,308,53680,1,10,0:2:0:0:
379,137,53862,1,2,3:2:0:0:
157,249,54044,1,10,0:2:0:0:
254,30,54226,6,0,B|381:34|309:132|446:126,1,225,2|0,3:2|3:2,0:0:0:0:
276,307,54771,2,0,P|267:234|255:188,1,112.5,10|0,0:2|3:2,0:0:0:0:
244,170,55044,1,0,3:2:0:0:
244,170,55135,1,10,0:2:0:0:
413,281,55317,1,0,3:2:0:0:
263,84,55499,1,10,0:2:0:0:
333,341,55680,1,0,3:2:0:0:
512,144,55862,5,10,0:2:0:0:
422,381,56044,1,2,3:2:0:0:
295,174,56226,1,8,0:2:0:0:
494,338,56408,2,0,P|499:282|512:227,1,112.5,2|10,3:2|0:2,0:0:0:0:
380,73,56771,1,0,3:2:0:0:
380,73,56953,1,10,0:2:0:0:
231,250,57135,6,0,P|226:194|213:139,1,112.5,6|8,3:2|0:2,0:0:0:0:
95,34,57499,1,2,3:2:0:0:
316,129,57680,1,10,0:2:0:0:
134,268,57862,1,2,3:2:0:0:
134,268,57953,1,2,3:2:0:0:
134,268,58044,1,10,0:2:0:0:
253,49,58226,1,2,3:2:0:0:
71,188,58408,1,10,0:2:0:0:
268,313,58590,6,0,P|324:314|367:277,1,112.5,6|8,3:2|0:2,0:0:0:0:
447,111,58953,1,2,3:2:0:0:
296,234,59135,1,10,0:2:0:0:
387,29,59317,1,2,3:2:0:0:
387,29,59408,1,2,3:2:0:0:
387,29,59499,1,10,0:2:0:0:
487,233,59680,1,2,3:2:0:0:
282,58,59862,1,10,0:2:0:0:
175,269,60044,6,0,P|119:270|77:235,1,112.5,6|8,3:2|0:2,0:0:0:0:
189,65,60408,1,2,3:2:0:0:
334,263,60590,1,10,0:2:0:0:
83,150,60771,1,2,3:2:0:0:
83,150,60862,1,2,3:2:0:0:
83,150,60953,1,10,0:2:0:0:
320,222,61135,1,2,3:2:0:0:
143,362,61317,1,10,0:2:0:0:
245,134,61499,6,0,P|268:225|286:363,1,225,6|2,3:2|3:2,0:0:0:0:
402,180,62044,1,8,0:2:0:0:
409,347,62226,2,0,P|415:291|429:236,1,112.5,6|8,3:2|0:2,0:0:0:0:
295,60,62590,1,2,3:2:0:0:
250,27,62680,1,8,0:2:0:0:
195,33,62771,1,8,0:2:0:0:
160,75,62862,1,8,0:2:0:0:
163,130,62953,6,0,B|198:260|111:220|176:369,1,225,6|0,3:2|3:2,0:0:0:0:
36,143,63499,2,0,P|34:86|78:39,1,112.5,10|0,0:2|3:2,0:0:0:0:
246,206,63862,1,10,0:2:0:0:
326,31,64044,1,0,3:2:0:0:
367,252,64226,1,10,0:2:0:0:
206,58,64408,1,0,3:2:0:0:
176,289,64589,5,10,0:2:0:0:
403,145,64771,1,2,3:2:0:0:
314,382,64953,1,8,0:2:0:0:
142,192,65135,2,0,P|84:172|33:160,1,112.5,2|10,3:2|0:2,0:0:0:0:
169,347,65499,1,2,3:2:0:0:
280,153,65680,1,10,0:2:0:0:
57,333,65862,6,0,P|135:307|291:277,1,225,2|0,3:2|3:2,0:0:0:0:
489,378,66408,2,0,P|450:365|372:350,1,112.5,10|0,0:2|3:2,0:0:0:0:
344,359,66680,1,0,3:2:0:0:
344,359,66771,1,10,0:2:0:0:
426,140,66953,1,0,3:2:0:0:
512,305,67135,1,10,0:2:0:0:
473,76,67317,1,0,3:2:0:0:
297,225,67499,5,10,0:2:0:0:
254,4,67680,1,2,3:2:0:0:
435,169,67862,1,8,0:2:0:0:
167,115,68044,1,2,3:2:0:0:
390,29,68226,1,10,0:2:0:0:
343,304,68408,1,2,3:2:0:0:
273,51,68590,1,10,0:2:0:0:
226,326,68772,1,2,3:2:0:0:
114,93,68953,6,0,P|131:172|136:221,1,112.5,12|0,0:2|3:2,0:0:0:0:
118,241,69226,1,0,3:2:0:0:
118,241,69317,1,8,0:2:0:0:
294,373,69499,2,0,P|301:317|314:262,1,112.5,4|0,3:2|0:0,0:0:0:0:
136,71,69862,2,0,P|153:150|158:199,1,112.5,0|8,3:2|0:2,0:0:0:0:
321,364,70226,6,0,P|328:308|341:253,1,90,4|0,3:3|0:0,0:0:0:0:
271,126,70590,1,8,3:3:0:0:
191,268,70771,2,0,P|218:269|244:258,1,45,14|0,0:2|0:0,0:1:0:0:
354,158,70953,2,0,P|347:102|334:47,1,90,2|0,0:0|0:0,0:0:0:0:
425,236,71317,1,2,0:0:0:0:
322,261,71499,1,2,0:0:0:0:
447,140,71680,1,2,3:2:0:0:
489,313,71862,5,14,0:2:0:0:
420,63,72044,1,10,0:2:0:0:
413,39,72408,5,12,0:2:0:0:
413,39,72771,5,0,3:2:0:0:
388,76,72861,1,0,3:2:0:0:
350,100,72952,1,8,3:3:0:0:
306,108,73043,1,8,3:3:0:0:
286,97,73135,6,0,B|173:90|231:7|105:4,1,207.000003948212,6|0,3:2|3:2,0:0:0:0:
0,179,73680,2,0,P|34:151|95:148,1,103.500001974106,10|0,0:2|3:2,0:0:0:0:
234,337,74044,2,0,P|183:333|142:303,1,103.500001974106,10|0,0:2|3:2,0:0:0:0:
293,99,74408,2,0,P|315:157|321:207,1,103.500001974106,10|0,0:2|3:2,0:0:0:0:
293,374,74771,5,10,0:2:0:0:
434,182,74953,1,2,3:2:0:0:
216,283,75135,1,8,0:2:0:0:
431,361,75317,1,2,3:2:0:0:
243,203,75499,1,8,0:2:0:0:
458,125,75681,1,2,3:2:0:0:
263,292,75862,1,8,0:2:0:0:
365,38,76044,6,0,B|253:44|297:117|182:136,1,207.000003948212,6|2,3:2|3:2,0:0:0:0:
31,55,76590,1,10,0:2:0:0:
211,218,76771,1,2,3:2:0:0:
99,2,76953,1,8,0:2:0:0:
141,265,77135,1,2,3:2:0:0:
251,65,77317,1,10,0:2:0:0:
209,328,77499,1,2,3:2:0:0:
56,152,77680,5,8,0:2:0:0:
279,278,77862,1,2,3:2:0:0:
51,373,78044,1,10,0:2:0:0:
250,186,78226,1,2,3:2:0:0:
136,364,78408,5,8,0:2:0:0:
24,139,78590,1,0,3:2:0:0:
196,308,78771,1,8,0:2:0:0:
301,101,78953,6,0,B|313:53|395:50|413:146|353:224,1,207.000003948212,6|0,3:2|3:2,0:0:0:0:
247,362,79499,2,0,L|231:249,1,103.500001974106,10|0,0:2|3:2,0:0:0:0:
87,76,79862,2,0,L|72:178,1,103.500001974106,10|0,0:2|3:2,0:0:0:0:
266,320,80226,2,0,L|250:207,1,103.500001974106,10|0,0:2|3:2,0:0:0:0:
76,330,80590,5,10,0:2:0:0:
196,139,80771,1,2,3:2:0:0:
325,344,80953,1,8,0:2:0:0:
128,218,81135,1,2,3:2:0:0:
128,218,81226,1,0,3:2:0:0:
128,218,81317,1,8,0:2:0:0:
322,99,81499,1,2,3:2:0:0:
236,314,81680,1,8,0:2:0:0:
56,146,81862,6,0,B|171:110|92:55|221:24,1,207.000003948212,6|2,3:2|3:2,0:0:0:0:
359,240,82408,2,0,B|237:208|320:145|194:113,1,207.000003948212,10|0,0:2|3:2,0:0:0:0:
312,66,82953,1,0,3:2:0:0:
312,66,83044,1,0,3:2:0:0:
312,66,83135,1,8,0:2:0:0:
472,228,83317,6,0,B|496:271|515:298|515:298|471:326|397:393,1,207.000003948212,4|0,3:2|3:2,0:0:0:0:
362,212,83862,1,8,0:2:0:0:
183,353,84226,6,0,P|135:353|86:308,1,90,10|0,0:2|3:2,0:0:0:0:
168,251,84809,5,8,0:3:0:0:
168,251,85059,6,0,L|166:226,2,15,2|2|14,0:0|0:0|0:3,0:0:0:0:
256,192,85418,12,0,88934,0:0:0:0:
