osu file format v14

[General]
AudioFilename: audio.mp3
AudioLeadIn: 0
PreviewTime: 50439
Countdown: 0
SampleSet: Soft
StackLeniency: 0.4
Mode: 0
LetterboxInBreaks: 0
WidescreenStoryboard: 1

[Editor]
DistanceSpacing: 1.4
BeatDivisor: 4
GridSize: 16
TimelineZoom: 2.5

[Metadata]
Title:Machikado Tangent (TV Size)
TitleUnicode:町かどタンジェント (TV Size)
Artist:shami momo (Kohara Konomi, Kito Akari)
ArtistUnicode:shami momo (小原好美・鬼頭明里)
Creator:realy0_
Version:Insane
Source:まちカドまぞく
Tags:Yoshida Yuuko (吉田優子 ・ Chiyoda Momo 千代田桃 cv: Machikado Mazoku The Demon Girl Next Door OP Opening Japanese Anime J-POP J POP jpop 芳文社 Houbunsha Yuko Shamiko frozz Nelliel kundschafter98 kundi -Keqing
BeatmapID:2294415
BeatmapSetID:1092390

[Difficulty]
HPDrainRate:5.5
CircleSize:4
OverallDifficulty:7.8
ApproachRate:9
SliderMultiplier:1.52
SliderTickRate:1

[Events]
//Background and Video events
Video,50,"Machikado Mazoku op.mp4"
0,0,"frozz-bg.jpg",0,0
//Break Periods
//Storyboard Layer 0 (Background)
//Storyboard Layer 1 (Fail)
//Storyboard Layer 2 (Pass)
//Storyboard Layer 3 (Foreground)
//Storyboard Layer 4 (Overlay)
//Storyboard Sound Samples

[TimingPoints]
590,363.636363636364,4,2,1,80,1,0
590,-111.111111111111,4,2,1,80,0,0
1862,-90.9090909090909,4,2,1,85,0,0
12953,-100,4,2,1,80,0,0
13680,-111.111111111111,4,2,1,70,0,0
25317,-111.111111111111,4,2,1,70,0,0
45680,-100,4,2,1,75,0,0
48590,-90.9090909090909,4,2,1,80,0,0
51317,-83.3333333333333,4,2,1,95,0,1
61499,-66.6666666666667,4,2,1,95,0,1
62953,-83.3333333333333,4,2,1,95,0,1
70408,-100,4,2,1,95,0,0
70771,-83.3333333333333,4,2,1,95,0,1
71862,-100,4,2,1,80,0,0
73135,-90.9090909090909,4,2,1,85,0,1
73158,-90.9090909090909,4,2,1,85,0,0
84226,500,4,2,1,75,1,0
84226,-100,4,2,1,75,0,0
84809,750,4,2,1,70,1,0
85184,937.5,4,2,1,40,1,0
85184,-80,4,2,1,40,0,0
85652,-80,4,2,1,35,0,0
86121,-80,4,2,1,30,0,0
86590,-80,4,2,1,25,0,0
87059,-80,4,2,1,20,0,0
87527,-80,4,2,1,15,0,0
87996,-80,4,2,1,10,0,0
88465,-80,4,2,1,5,0,0

[Colours]
Combo1 : 255,230,128
Combo2 : 255,170,202
Combo3 : 64,98,255
Combo4 : 213,0,96

[HitObjects]
222,120,590,5,14,0:2:0:0:
396,62,771,1,10,0:2:0:0:
66,14,1135,1,12,0:2:0:0:
373,89,1499,2,0,P|375:123|380:156,1,68.3999979125977,0|8,3:2|3:3,0:0:0:0:
492,302,1862,6,0,B|546:249|514:188|514:188|466:211,1,167.200005102539,6|0,3:2|3:2,0:0:0:0:
283,282,2408,1,10,0:2:0:0:
380,156,2590,1,0,3:2:0:0:
409,363,2771,1,10,0:2:0:0:
260,307,2953,1,0,3:2:0:0:
82,381,3135,2,0,P|40:375|-2:371,1,83.6000025512696,10|0,0:2|3:2,0:0:0:0:
187,290,3499,5,10,0:2:0:0:
57,171,3680,2,0,P|41:208|54:247,1,83.6000025512696,2|8,3:2|0:2,0:0:0:0:
174,131,4043,1,2,3:2:0:0:
174,131,4135,1,0,3:2:0:0:
174,131,4226,2,0,P|170:89|164:47,1,83.6000025512696,8|2,0:2|3:2,0:0:0:0:
275,200,4590,1,8,0:2:0:0:
512,137,4771,6,0,B|446:121|391:98|391:98|348:121,1,167.200005102539,6|2,3:2|3:2,0:0:0:0:
183,222,5317,1,10,0:2:0:0:
249,50,5499,1,2,3:2:0:0:
14,178,5680,2,0,P|55:173|97:168,1,83.6000025512696,8|2,0:2|3:2,0:0:0:0:
330,258,6044,2,0,P|293:242|254:255,1,83.6000025512696,10|2,0:2|3:2,0:0:0:0:
123,373,6408,5,8,0:2:0:0:
191,174,6590,1,2,3:2:0:0:
291,332,6771,1,10,0:2:0:0:
42,266,6953,1,2,3:2:0:0:
42,266,7044,1,0,3:2:0:0:
42,266,7135,2,0,P|47:225|51:184,1,83.6000025512696,8|0,0:2|3:2,0:0:0:0:
166,98,7499,1,8,0:2:0:0:
20,0,7680,6,0,B|-34:53|-2:114|-2:114|46:91,1,167.200005102539,6|0,3:2|3:2,0:0:0:0:
236,33,8226,1,10,0:2:0:0:
334,163,8408,1,0,3:2:0:0:
473,8,8590,1,10,0:2:0:0:
461,132,8771,1,0,3:2:0:0:
275,33,8953,2,0,P|238:17|199:30,1,83.6000025512696,10|0,0:2|3:2,0:0:0:0:
130,181,9317,5,10,0:2:0:0:
9,87,9499,2,0,P|4:45|0:4,1,83.6000025512696,2|8,3:2|0:2,0:0:0:0:
133,151,9862,2,0,P|129:192|124:233,1,83.6000025512696,2|8,3:2|0:2,0:0:0:0:
8,359,10226,1,2,3:2:0:0:
101,260,10408,1,8,0:2:0:0:
300,322,10590,6,0,B|340:332|373:294|373:294|419:290|445:328,1,167.200005102539,6|2,3:2|3:2,0:0:0:0:
506,191,11135,2,0,P|501:149|496:107,1,83.6000025512696,10|0,0:2|3:2,0:0:0:0:
427,77,11408,1,0,3:2:0:0:
427,77,11499,2,0,P|414:35|439:-5,2,83.6000025512696,0|0|8,3:2|3:2|0:2,0:0:0:0:
242,214,12044,6,0,B|189:160|128:192|128:192|151:240,1,167.200005102539,4|0,3:2|3:2,0:0:0:0:
0,327,12590,2,0,P|5:285|15:191,1,125.400003826904,8|0,0:2|0:0,0:0:0:0:
50,131,12953,2,0,P|41:89|31:51,2,76,8|0|8,0:2|3:2|3:3,0:0:0:0:
193,326,13680,6,0,B|268:333|235:280|323:288,1,136.799995825195,6|8,3:2|0:2,0:0:0:0:
431,340,14226,1,2,3:2:0:0:
428,248,14408,1,2,3:2:0:0:
428,248,14590,2,0,P|430:213|434:179,1,68.3999979125977,2|0,3:2|0:0,0:0:0:0:
512,78,14953,6,0,B|443:86|443:86|418:63|418:63|359:59,1,136.799995825195,10|2,0:2|3:2,0:0:0:0:
277,15,15499,1,8,0:2:0:0:
197,61,15680,1,2,3:2:0:0:
197,61,15771,1,2,3:2:0:0:
197,61,15862,2,0,P|179:27|190:-7,1,68.3999979125977,2|2,3:2|3:2,0:0:0:0:
277,103,16226,2,0,P|281:136|283:171,1,68.3999979125977,10|2,0:2|3:2,0:0:0:0:
321,208,16499,1,2,3:2:0:0:
321,208,16590,6,0,B|395:221|366:165|453:181,1,136.799995825195,2|8,3:2|0:2,0:0:0:0:
500,253,17135,1,2,3:2:0:0:
436,315,17317,2,0,P|431:348|429:383,2,68.3999979125977,2|0|0,3:2|3:2|0:0,0:0:0:0:
307,207,17862,2,0,B|252:194|210:173|210:173|170:191,1,136.799995825195,10|0,0:2|3:2,0:0:0:0:
95,235,18408,1,8,0:2:0:0:
30,134,18590,1,2,3:2:0:0:
30,134,18680,1,2,3:2:0:0:
30,134,18771,5,2,3:2:0:0:
85,205,18953,1,2,3:2:0:0:
6,284,19135,2,0,P|2:317|0:352,1,68.3999979125977,8|2,0:2|3:2,0:0:0:0:
35,384,19408,1,2,3:2:0:0:
35,384,19499,6,0,B|68:381|68:381|93:358|93:358|162:366,1,136.799995825195,2|8,3:2|0:2,0:0:0:0:
274,317,20044,1,2,3:2:0:0:
358,371,20226,1,2,3:2:0:0:
358,371,20408,2,0,P|376:337|365:303,1,68.3999979125977,2|0,3:2|0:0,0:0:0:0:
489,256,20771,6,0,B|414:263|447:210|359:218,1,136.799995825195,10|2,0:2|3:2,0:0:0:0:
243,262,21317,1,8,0:2:0:0:
183,200,21499,1,2,3:2:0:0:
183,200,21590,1,2,3:2:0:0:
183,200,21680,2,0,P|187:167|189:132,1,68.3999979125977,2|2,3:2|3:2,0:0:0:0:
66,30,22044,2,0,P|84:64|73:98,1,68.3999979125977,10|2,0:2|3:2,0:0:0:0:
37,115,22317,1,2,3:2:0:0:
37,115,22408,6,0,B|40:148|40:148|63:173|63:173|55:242,1,136.799995825195,2|8,3:2|0:2,0:0:0:0:
120,303,22953,1,2,3:2:0:0:
201,264,23135,2,0,P|202:229|207:196,2,68.3999979125977,2|2|0,3:2|3:2|0:0,0:0:0:0:
331,339,23680,6,0,B|353:313|353:313|400:314|455:303,1,136.799995825195,10|2,0:2|3:2,0:0:0:0:
494,215,24226,1,8,0:2:0:0:
414,167,24408,1,2,3:2:0:0:
414,167,24499,1,2,3:2:0:0:
414,167,24590,2,0,P|380:169|355:193,1,68.3999979125977,2|0,3:2|3:2,0:0:0:0:
224,151,24953,1,10,0:2:0:0:
137,191,25135,1,2,3:2:0:0:
20,115,25317,6,0,L|11:12,1,102.599996868897,6|0,3:2|0:0,0:0:0:0:
63,105,25680,2,0,P|41:138|30:169,1,68.3999979125977,10|2,0:2|3:2,0:0:0:0:
130,171,26044,2,0,B|164:160|164:160|198:182,2,68.3999979125977,2|2|0,3:2|3:2|0:0,0:0:0:0:
12,271,26590,6,0,B|129:262|175:265,1,136.799995825195,10|0,0:2|3:2,0:0:0:0:
260,318,27135,1,10,0:2:0:0:
320,243,27317,2,0,L|311:202,4,34.1999989562989,2|2|2|2|2,3:2|3:2|3:2|0:0|3:2,0:0:0:0:
389,309,27862,2,0,L|379:389,1,68.3999979125977,10|2,0:2|3:2,0:0:0:0:
247,342,28226,6,0,L|144:351,1,102.599996868897,2|0,3:2|0:0,0:0:0:0:
237,299,28589,2,0,P|270:321|301:332,1,68.3999979125977,10|2,0:2|3:2,0:0:0:0:
362,289,28862,1,2,3:2:0:0:
362,289,28953,2,0,L|352:209,1,68.3999979125977,2|2,3:2|3:2,0:0:0:0:
463,254,29317,1,0,0:0:0:0:
346,134,29499,6,0,B|271:127|304:180|216:172,1,136.799995825195,10|0,0:2|3:2,0:0:0:0:
140,266,30044,1,10,0:2:0:0:
50,232,30226,2,0,P|25:167|41:91,1,136.799995825195,2|0,3:2|3:2,0:0:0:0:
205,54,30771,1,10,0:2:0:0:
119,10,30953,1,2,3:2:0:0:
298,115,31135,6,0,L|401:106,1,102.599996868897,6|0,3:2|0:0,0:0:0:0:
308,158,31498,2,0,P|275:136|244:125,1,68.3999979125977,10|2,0:2|3:2,0:0:0:0:
169,181,31862,2,0,B|180:215|180:215|162:242,2,68.3999979125977,2|2|8,3:2|3:2|0:2,0:0:0:0:
280,262,32408,6,0,B|397:253|443:256,1,136.799995825195,2|0,3:2|3:2,0:0:0:0:
504,190,32953,1,8,0:2:0:0:
500,340,33135,1,2,3:2:0:0:
500,340,33226,1,2,3:2:0:0:
501,340,33317,2,0,P|496:306|513:277,1,68.3999979125977,2|0,3:2|3:2,0:0:0:0:
412,142,33680,2,0,P|416:175|418:210,1,68.3999979125977,10|2,0:2|3:2,0:0:0:0:
356,252,33953,1,2,3:2:0:0:
356,252,34044,6,0,B|287:241|287:241|269:213|269:213|213:194,1,136.799995825195,2|8,3:2|0:2,0:0:0:0:
145,233,34590,1,2,3:2:0:0:
191,316,34771,2,0,P|186:349|184:384,2,68.3999979125977,2|2|0,3:2|3:2|0:0,0:0:0:0:
309,200,35317,6,0,B|352:157|326:108|326:108|288:127,1,136.799995825195,10|0,0:2|3:2,0:0:0:0:
129,168,35862,2,0,P|95:163|60:161,1,68.3999979125977,10|2,0:2|3:2,0:0:0:0:
160,44,36226,2,0,P|186:65|198:96,1,68.3999979125977,2|2,3:2|3:2,0:0:0:0:
309,200,36590,2,0,L|301:233,3,34.1999989562989,10|2|10|10,0:2|3:2|0:2|0:2,0:0:0:0:
335,267,36953,6,0,B|409:280|380:224|467:240,1,136.799995825195,6|8,3:2|0:2,0:0:0:0:
510,323,37499,1,2,3:2:0:0:
393,364,37681,2,0,P|359:360|324:358,1,68.3999979125977,2|2,3:2|3:2,0:0:0:0:
221,290,38044,1,8,0:2:0:0:
133,329,38226,6,0,B|98:339|97:381|97:381|140:377|149:344,1,136.799995825195,2|0,3:2|3:2,0:0:0:0:
221,290,38771,1,10,0:2:0:0:
196,197,38953,2,0,B|205:164|170:139|170:139|150:176|175:203,1,136.799995825195,2|2,3:2|3:2,0:0:0:0:
221,290,39499,1,10,0:2:0:0:
348,272,39680,1,2,3:2:0:0:
348,272,39771,1,2,3:2:0:0:
348,272,39862,6,0,P|382:267|417:265,1,68.3999979125977,2|0,3:2|0:0,0:0:0:0:
307,172,40226,1,10,0:2:0:0:
237,316,40408,2,0,P|234:281|229:247,1,68.3999979125977,2|2,2:2|3:2,0:0:0:0:
348,272,40771,1,2,3:2:0:0:
223,166,40953,1,8,0:2:0:0:
377,250,41135,6,0,B|451:237|422:293|509:277,1,136.799995825195,2|0,3:2|3:2,0:0:0:0:
464,142,41680,1,10,0:2:0:0:
464,142,41862,2,0,B|437:118|454:79|454:79|491:101|485:135,1,136.799995825195,2|0,3:2|3:2,0:0:0:0:
367,231,42408,2,0,P|333:231|301:218,1,68.3999979125977,10|2,0:2|3:2,0:0:0:0:
195,343,42771,6,0,L|92:352,1,102.599996868897,6|0,3:2|0:0,0:0:0:0:
66,353,43135,1,8,0:2:0:0:
323,314,43317,2,0,P|310:345|309:379,1,68.3999979125977,6|2,3:2|3:2,0:0:0:0:
241,231,43680,1,2,3:2:0:0:
315,137,43862,1,8,0:2:0:0:
222,25,44044,6,0,P|157:16|122:71,1,136.799995825195,6|0,3:2|3:2,0:0:0:0:
196,165,44590,1,8,0:2:0:0:
14,84,44771,2,0,B|42:104|42:104|87:90|144:87,1,136.799995825195,6|0,3:2|3:2,0:0:0:0:
314,25,45317,2,0,P|300:56|289:88,1,68.3999979125977,10|2,0:2|3:2,0:0:0:0:
440,242,45680,6,0,B|414:162|476:179|441:86,2,152,6|8|2,3:2|0:2|3:2,0:0:0:0:
508,344,46590,1,2,3:2:0:0:
455,231,46771,1,8,0:2:0:0:
285,299,46953,6,0,P|247:301|209:306,1,76,2|0,3:2|0:0,0:0:0:0:
23,200,47317,2,0,P|60:196|88:221,1,76,0|10,3:2|0:2,0:0:0:0:
170,384,47680,2,0,P|173:346|177:308,1,76,2|2,3:2|3:2,0:0:0:0:
201,126,48044,5,0,3:2:0:0:
376,248,48226,1,10,0:2:0:0:
390,31,48408,1,8,0:2:0:0:
390,31,48499,1,8,0:2:0:0:
390,31,48590,6,0,P|385:72|382:114,1,83.6000025512696,6|0,3:2|3:2,0:0:0:0:
329,167,48862,1,0,3:2:0:0:
329,167,48953,2,0,B|290:180|290:180|260:151,1,83.6000025512696,8|2,0:2|3:2,0:0:0:0:
147,47,49317,1,2,3:2:0:0:
45,233,49499,1,0,3:2:0:0:
45,233,49590,1,0,0:0:0:0:
45,233,49680,2,0,P|82:229|134:225,1,83.6000025512696,8|2,0:2|3:2,0:0:0:0:
388,218,50044,5,10,0:2:0:0:
198,168,50226,1,2,3:2:0:0:
214,250,50408,1,8,3:3:0:0:
230,332,50590,1,8,3:3:0:0:
157,154,50771,5,2,3:2:0:0:
266,77,50953,2,0,L|276:34,2,41.8000012756348,10|10|10,0:0|0:0|0:0,0:0:0:0:
512,164,51317,6,0,B|448:151|397:123|397:123|342:149,1,182.399994433594,6|0,3:2|3:2,0:0:0:0:
81,68,51862,2,0,P|103:30|147:24,1,91.199997216797,10|0,0:2|3:2,0:0:0:0:
205,89,52135,1,0,3:2:0:0:
205,89,52226,2,0,P|200:134|197:179,1,91.199997216797,10|0,0:2|3:2,0:0:0:0:
181,362,52590,1,10,0:2:0:0:
285,237,52771,1,0,3:2:0:0:
45,327,52953,5,10,0:2:0:0:
330,384,53135,1,2,3:2:0:0:
330,384,53226,1,0,3:2:0:0:
330,384,53317,2,0,B|356:346|356:346|337:294,1,91.199997216797,8|2,0:2|3:2,0:0:0:0:
406,253,53590,1,2,3:2:0:0:
406,253,53680,2,0,P|413:207|423:163,1,91.199997216797,10|2,0:2|3:2,0:0:0:0:
207,198,54044,1,10,0:2:0:0:
381,12,54226,1,2,3:2:0:0:
381,12,54317,1,2,3:2:0:0:
381,12,54408,6,0,B|405:59|372:97|372:97|321:76,1,136.799995825195,10|0,0:2|3:2,0:0:0:0:
270,135,54771,2,0,P|274:180|278:225,1,91.199997216797,10|0,0:2|3:2,0:0:0:0:
356,266,55044,1,0,3:2:0:0:
356,266,55135,2,0,P|391:233|443:237,1,91.199997216797,10|0,0:2|3:2,0:0:0:0:
186,177,55499,2,0,P|141:173|96:169,1,91.199997216797,10|0,0:2|3:2,0:0:0:0:
285,304,55862,5,10,0:2:0:0:
410,108,56044,1,2,3:2:0:0:
410,108,56135,1,0,3:2:0:0:
410,108,56226,2,0,B|425:65|425:65|399:27,1,91.199997216797,8|2,0:2|3:2,0:0:0:0:
321,48,56499,1,2,3:2:0:0:
321,48,56589,2,0,P|310:92|304:137,1,91.199997216797,10|0,0:2|3:2,0:0:0:0:
129,79,56953,1,10,0:2:0:0:
29,288,57135,5,6,3:2:0:0:
29,288,57226,1,0,3:2:0:0:
29,288,57317,2,0,P|74:282|119:279,1,91.199997216797,8|2,0:2|3:2,0:0:0:0:
375,270,57680,2,0,P|348:226|293:228,1,91.199997216797,10|2,0:2|3:2,0:0:0:0:
259,285,57953,1,2,3:2:0:0:
259,285,58044,6,0,P|241:327|225:370,1,91.199997216797,10|2,0:2|3:2,0:0:0:0:
171,137,58408,2,0,P|165:91|164:45,1,91.199997216797,10|2,0:2|3:2,0:0:0:0:
90,21,58680,1,0,3:2:0:0:
90,21,58771,6,0,B|51:46|51:46|9:31,1,91.199997216797,12|2,0:2|3:2,0:0:0:0:
297,86,59135,2,0,B|340:70|340:70|377:96,1,91.199997216797,10|2,0:2|3:2,0:0:0:0:
371,182,59408,1,2,3:2:0:0:
371,182,59499,6,0,P|415:176|460:173,1,91.199997216797,10|2,0:2|3:2,0:0:0:0:
225,127,59862,1,10,0:2:0:0:
91,295,60044,1,2,3:2:0:0:
91,295,60135,1,0,3:2:0:0:
91,295,60226,6,0,P|47:284|24:244,1,91.199997216797,12|2,0:2|3:2,0:0:0:0:
243,285,60590,2,0,P|255:328|231:368,1,91.199997216797,10|2,0:2|3:2,0:0:0:0:
193,382,60862,1,2,3:2:0:0:
193,382,60953,5,10,0:2:0:0:
225,127,61135,1,2,3:2:0:0:
91,295,61317,1,10,0:2:0:0:
431,334,61499,6,0,P|461:280|443:220,1,114.000004348755,6|10,3:2|0:2,0:0:0:0:
358,22,61862,2,0,B|348:104|348:104|383:82,1,114.000004348755,2|8,3:2|0:2,0:0:0:0:
172,195,62226,6,0,B|74:190|127:141|13:140|13:140|-15:186|16:238,1,228.00000869751,6|2,3:2|3:2,0:0:0:0:
20,235,62680,1,8,0:2:0:0:
20,235,62771,1,8,0:2:0:0:
292,117,62953,6,0,B|316:55|272:11|272:11|207:40,1,182.399994433594,6|0,3:2|3:2,0:0:0:0:
363,221,63499,2,0,P|358:266|355:311,1,91.199997216797,10|0,0:2|3:2,0:0:0:0:
439,329,63771,1,0,3:2:0:0:
439,329,63862,2,0,B|465:291|465:291|446:239,1,91.199997216797,10|0,0:2|3:2,0:0:0:0:
367,84,64226,1,10,0:2:0:0:
508,148,64408,1,0,3:2:0:0:
231,177,64590,5,10,0:2:0:0:
471,69,64771,1,2,3:2:0:0:
471,69,64862,1,0,3:2:0:0:
471,69,64953,2,0,P|465:25|426:3,1,91.199997216797,8|2,0:2|3:2,0:0:0:0:
368,61,65226,1,2,3:2:0:0:
368,61,65317,2,0,P|378:105|384:150,1,91.199997216797,10|2,0:2|3:2,0:0:0:0:
380,349,65680,1,10,0:2:0:0:
125,276,65862,1,2,3:2:0:0:
125,276,65954,1,2,3:2:0:0:
125,276,66044,6,0,B|164:298|164:298|204:280|252:274,1,136.799995825195,8|0,0:2|3:2,0:0:0:0:
309,213,66408,2,0,P|355:220|399:230,1,91.199997216797,10|0,0:2|3:2,0:0:0:0:
475,196,66680,1,0,3:2:0:0:
475,196,66771,6,0,B|486:151|486:151|450:108,1,91.199997216797,10|0,0:2|3:2,0:0:0:0:
332,293,67135,2,0,P|342:337|347:382,1,91.199997216797,10|0,0:2|3:2,0:0:0:0:
265,139,67499,5,10,0:2:0:0:
87,293,67680,1,2,3:2:0:0:
87,293,67771,1,0,3:2:0:0:
87,293,67862,2,0,P|43:287|21:248,1,91.199997216797,8|2,0:2|3:2,0:0:0:0:
79,190,68135,1,2,3:2:0:0:
79,190,68226,2,0,B|170:179|170:179|203:209|203:209|281:215,1,182.399994433594,10|10,0:2|0:2,0:0:0:0:
318,296,68771,1,2,3:2:0:0:
483,243,68953,6,0,P|499:202|478:163,1,91.199997216797,12|0,0:2|3:2,0:0:0:0:
447,148,69225,1,0,3:2:0:0:
447,148,69317,1,8,0:2:0:0:
346,35,69499,6,0,P|391:30|436:27,1,91.199997216797,4|0,3:2|0:0,0:0:0:0:
217,129,69862,2,0,P|175:109|134:90,1,91.199997216797,0|8,3:2|0:2,0:0:0:0:
447,148,70226,5,4,3:3:0:0:
130,330,70590,1,8,3:3:0:0:
332,351,70771,6,2,B|327:311|362:283|362:283|391:307|433:310|433:310|481:320|452:379|452:379|398:347|435:309|435:309|441:255|489:245|489:245|497:205,1,455.999986083985,14|0,0:2|3:2,0:1:0:0:
289,116,71862,5,14,0:2:0:0:
463,57,72043,1,10,0:2:0:0:
132,8,72407,1,12,0:2:0:0:
259,284,72771,1,0,3:2:0:0:
259,284,72862,1,0,3:2:0:0:
259,284,72953,1,8,3:3:0:0:
158,159,73135,6,0,B|177:195|177:195|154:250|138:316,1,167.200005102539,6|0,3:2|3:2,0:0:0:0:
274,156,73680,1,10,0:2:0:0:
340,300,73862,1,0,3:2:0:0:
406,94,74043,1,10,0:2:0:0:
289,189,74225,1,0,3:2:0:0:
502,148,74408,2,0,P|508:106|512:64,1,83.6000025512696,10|0,0:2|3:2,0:0:0:0:
367,204,74771,5,10,0:2:0:0:
174,148,74953,2,0,B|204:117|204:117|243:132,1,83.6000025512696,2|8,3:2|0:2,0:0:0:0:
92,221,75317,1,2,3:2:0:0:
92,221,75408,1,0,3:2:0:0:
92,221,75499,2,0,P|50:215|8:211,1,83.6000025512696,8|2,0:2|3:2,0:0:0:0:
190,307,75862,1,8,0:2:0:0:
367,204,76044,6,0,B|421:151|389:90|389:90|341:113,1,167.200005102539,6|2,3:2|3:2,0:0:0:0:
196,208,76590,1,10,0:2:0:0:
105,48,76772,1,2,3:2:0:0:
24,267,76953,2,0,P|29:226|34:184,1,83.6000025512696,8|2,0:2|3:2,0:0:0:0:
189,33,77317,2,0,P|195:73|173:107,1,83.6000025512696,10|2,0:2|3:2,0:0:0:0:
24,267,77680,5,8,0:2:0:0:
247,232,77862,1,2,3:2:0:0:
39,148,78044,1,10,0:2:0:0:
154,373,78226,1,2,3:2:0:0:
154,373,78317,1,0,3:2:0:0:
154,373,78408,2,0,P|149:332|145:291,1,83.6000025512696,8|0,0:2|3:2,0:0:0:0:
239,194,78771,1,8,0:2:0:0:
468,333,78953,6,0,B|402:317|347:294|347:294|311:313,1,167.200005102539,6|0,3:2|3:2,0:0:0:0:
119,299,79499,1,10,0:2:0:0:
219,170,79681,1,0,3:2:0:0:
33,76,79863,1,10,0:2:0:0:
178,42,80044,1,0,3:2:0:0:
108,261,80226,2,0,P|102:300|124:335,1,83.6000025512696,10|0,0:2|3:2,0:0:0:0:
305,244,80590,5,10,0:2:0:0:
421,301,80772,2,0,P|426:343|430:384,1,83.6000025512696,2|8,3:2|0:2,0:0:0:0:
503,215,81135,2,0,P|507:174|512:133,1,83.6000025512696,2|8,3:2|0:2,0:0:0:0:
355,32,81499,1,2,3:2:0:0:
400,192,81680,1,8,0:2:0:0:
173,135,81862,6,0,B|133:125|100:163|100:163|54:167|28:129,1,167.200005102539,6|2,3:2|3:2,0:0:0:0:
174,37,82408,2,0,P|216:42|258:47,1,83.6000025512696,10|2,0:2|3:2,0:0:0:0:
320,96,82680,1,0,3:2:0:0:
320,96,82771,2,0,P|362:86|385:44,2,83.6000025512696,0|0|8,3:2|3:2|0:2,0:0:0:0:
85,188,83317,6,0,B|41:249|83:304|83:304|126:273,1,167.200005102539,4|0,3:2|3:2,0:0:0:0:
265,375,83862,2,0,P|257:312|251:250,1,125.400003826904,8|0,0:2|0:0,0:0:0:0:
247,219,84226,5,10,0:2:0:0:
300,104,84476,5,0,3:2:0:0:
216,52,84809,5,8,0:3:0:0:
264,0,85184,5,14,0:3:0:0:
256,192,85340,12,0,88934,0:0:0:0:
