osu file format v14

[General]
AudioFilename: audio.mp3
AudioLeadIn: 0
PreviewTime: 50669
Countdown: 0
SampleSet: Normal
StackLeniency: 0.7
Mode: 1
LetterboxInBreaks: 0
WidescreenStoryboard: 0

[Editor]
Bookmarks: 13614,36887,51250
DistanceSpacing: 1.7
BeatDivisor: 4
GridSize: 4
TimelineZoom: 2.6

[Metadata]
Title:Machikado Tangent (TV Size)
TitleUnicode:町かどタンジェント (TV Size)
Artist:shami momo (Kohara Konomi, Kito Akari)
ArtistUnicode:shami momo (小原好美・鬼頭明里)
Creator:komasy
Version:Oni
Source:まちカドまぞく
Tags:Machikado Mazoku The Demon Girl Next Door OP Opening Japanese Anime J-POP J POP 芳文社 Houbunsha 吉田優子 Yoshida Yuuko Yuko 千代田桃 Chiyoda Momo Kitou シャミ子 Shamiko
BeatmapID:2248144
BeatmapSetID:1074249

[Difficulty]
HPDrainRate:5
CircleSize:5.5
OverallDifficulty:5.5
ApproachRate:5
SliderMultiplier:1.4
SliderTickRate:1

[Events]
//Background and Video events
0,0,"bg.jpg",0,85
Video,0,"OP.mp4"
//Break Periods
//Storyboard Layer 0 (Background)
//Storyboard Layer 1 (Fail)
//Storyboard Layer 2 (Pass)
//Storyboard Layer 3 (Foreground)
//Storyboard Layer 4 (Overlay)
//Storyboard Sound Samples

[TimingPoints]
-3785,363.636363636364,4,1,0,70,1,0
13578,-100,4,1,0,60,0,0
45669,363.636363636364,4,1,0,60,1,0
51305,-100,4,1,0,70,0,1
71850,-100,4,1,0,70,0,0
73305,363.636363636364,4,1,0,70,1,8
73306,363.636363636364,4,1,0,70,1,0
84578,451.127819548872,4,1,0,70,1,8
84578,-80.6060606060606,4,1,0,70,0,0
84803,750,4,1,0,60,1,8
84803,-53.3333333333333,4,1,0,60,0,0
84990,-58.8235294117647,4,1,0,60,0,0
85178,750,4,1,0,50,1,0
85178,-58.8235294117647,4,1,0,50,0,0

[HitObjects]
352,96,578,5,8,0:0:0:0:
352,96,760,1,8,0:0:0:0:
352,96,1124,1,8,0:0:0:0:
160,96,1487,1,0,0:0:0:0:
160,96,1669,1,0,0:0:0:0:
160,288,1851,1,4,0:0:0:0:
160,96,2215,1,0,0:0:0:0:
352,96,2396,1,8,0:0:0:0:
160,96,2578,1,0,0:0:0:0:
160,96,2669,1,0,0:0:0:0:
352,96,2760,1,8,0:0:0:0:
160,96,2942,1,0,0:0:0:0:
352,96,3124,1,8,0:0:0:0:
160,96,3305,1,0,0:0:0:0:
352,96,3487,1,8,0:0:0:0:
352,96,3578,1,8,0:0:0:0:
160,96,3669,1,0,0:0:0:0:
352,96,3851,1,8,0:0:0:0:
160,96,4033,1,0,0:0:0:0:
160,96,4124,1,0,0:0:0:0:
352,96,4215,1,8,0:0:0:0:
160,96,4396,1,0,0:0:0:0:
352,96,4578,1,8,0:0:0:0:
160,288,4760,1,4,0:0:0:0:
160,96,5124,1,0,0:0:0:0:
352,96,5305,1,8,0:0:0:0:
160,96,5487,1,0,0:0:0:0:
352,96,5669,1,8,0:0:0:0:
160,96,5760,1,0,0:0:0:0:
160,96,5851,1,0,0:0:0:0:
352,96,6033,1,8,0:0:0:0:
160,96,6215,1,0,0:0:0:0:
352,96,6305,1,8,0:0:0:0:
352,96,6396,1,8,0:0:0:0:
160,96,6578,1,0,0:0:0:0:
352,96,6760,1,8,0:0:0:0:
160,96,6942,1,0,0:0:0:0:
160,96,7033,1,0,0:0:0:0:
352,96,7124,1,8,0:0:0:0:
352,96,7215,1,8,0:0:0:0:
160,96,7305,1,0,0:0:0:0:
352,96,7487,1,8,0:0:0:0:
160,288,7669,1,4,0:0:0:0:
160,96,8033,1,0,0:0:0:0:
352,96,8215,1,8,0:0:0:0:
160,96,8396,1,0,0:0:0:0:
160,96,8487,1,0,0:0:0:0:
352,96,8578,1,8,0:0:0:0:
160,96,8760,1,0,0:0:0:0:
352,96,8942,1,8,0:0:0:0:
160,96,9124,1,0,0:0:0:0:
352,96,9305,1,8,0:0:0:0:
352,96,9396,1,8,0:0:0:0:
160,96,9487,1,0,0:0:0:0:
352,96,9669,1,8,0:0:0:0:
160,96,9851,1,0,0:0:0:0:
160,96,9942,1,0,0:0:0:0:
352,96,10033,1,8,0:0:0:0:
160,96,10215,1,0,0:0:0:0:
352,96,10396,1,8,0:0:0:0:
160,288,10578,1,4,0:0:0:0:
160,96,10942,1,0,0:0:0:0:
352,96,11124,1,8,0:0:0:0:
160,96,11305,1,0,0:0:0:0:
352,96,11487,1,8,0:0:0:0:
352,96,11578,1,8,0:0:0:0:
160,96,11669,1,0,0:0:0:0:
160,96,11760,1,0,0:0:0:0:
352,96,11851,1,8,0:0:0:0:
352,288,12033,1,12,0:0:0:0:
160,96,12396,1,0,0:0:0:0:
352,96,12578,1,8,0:0:0:0:
160,96,12851,1,0,0:0:0:0:
352,96,12942,1,8,0:0:0:0:
160,96,13124,1,0,0:0:0:0:
160,96,13305,1,0,0:0:0:0:
160,288,13669,1,4,0:0:0:0:
352,96,14033,1,8,0:0:0:0:
352,96,14215,1,8,0:0:0:0:
160,96,14396,1,0,0:0:0:0:
160,96,14578,1,0,0:0:0:0:
352,96,14942,1,8,0:0:0:0:
160,96,15305,1,0,0:0:0:0:
352,96,15487,1,8,0:0:0:0:
160,96,15669,1,0,0:0:0:0:
160,96,16033,1,0,0:0:0:0:
352,96,16215,1,8,0:0:0:0:
352,96,16396,1,8,0:0:0:0:
160,96,16578,1,0,0:0:0:0:
160,96,16760,1,0,0:0:0:0:
352,96,16942,1,8,0:0:0:0:
352,96,17124,1,8,0:0:0:0:
352,96,17215,1,8,0:0:0:0:
160,96,17305,1,0,0:0:0:0:
160,96,17487,1,0,0:0:0:0:
352,96,17851,1,8,0:0:0:0:
160,96,18215,1,0,0:0:0:0:
352,96,18396,1,8,0:0:0:0:
160,96,18578,1,0,0:0:0:0:
160,96,18942,1,0,0:0:0:0:
352,96,19124,1,8,0:0:0:0:
352,96,19305,1,8,0:0:0:0:
352,96,19396,1,8,0:0:0:0:
160,96,19487,1,0,0:0:0:0:
352,96,19851,1,8,0:0:0:0:
352,96,20033,1,8,0:0:0:0:
160,96,20215,1,0,0:0:0:0:
160,96,20396,1,0,0:0:0:0:
352,96,20760,1,8,0:0:0:0:
160,96,21124,1,0,0:0:0:0:
352,96,21305,1,8,0:0:0:0:
160,96,21487,1,0,0:0:0:0:
160,96,21851,1,0,0:0:0:0:
352,96,22033,1,8,0:0:0:0:
352,96,22215,1,8,0:0:0:0:
160,96,22396,1,0,0:0:0:0:
160,96,22578,1,0,0:0:0:0:
352,96,22760,1,8,0:0:0:0:
352,96,22942,1,8,0:0:0:0:
352,96,23033,1,8,0:0:0:0:
160,96,23124,1,0,0:0:0:0:
160,96,23305,1,0,0:0:0:0:
352,96,23669,1,8,0:0:0:0:
160,96,24033,1,0,0:0:0:0:
352,96,24215,1,8,0:0:0:0:
160,96,24396,1,0,0:0:0:0:
352,96,24487,1,8,0:0:0:0:
352,96,24578,1,8,0:0:0:0:
160,96,24760,1,0,0:0:0:0:
352,96,24942,1,8,0:0:0:0:
352,96,25124,1,8,0:0:0:0:
160,288,25305,1,4,0:0:0:0:
352,96,25669,1,8,0:0:0:0:
352,96,25942,1,8,0:0:0:0:
160,96,26033,1,0,0:0:0:0:
352,96,26215,1,8,0:0:0:0:
160,96,26396,1,0,0:0:0:0:
160,96,26487,1,0,0:0:0:0:
352,96,26578,1,8,0:0:0:0:
160,96,26942,1,0,0:0:0:0:
352,96,27124,1,8,0:0:0:0:
160,96,27305,1,0,0:0:0:0:
352,96,27396,1,8,0:0:0:0:
352,96,27487,1,8,0:0:0:0:
160,96,27669,1,0,0:0:0:0:
352,96,27851,1,8,0:0:0:0:
352,96,28033,1,8,0:0:0:0:
352,96,28124,1,8,0:0:0:0:
160,96,28215,1,0,0:0:0:0:
352,96,28578,1,8,0:0:0:0:
352,96,28851,1,8,0:0:0:0:
160,96,28942,1,0,0:0:0:0:
352,96,29124,1,8,0:0:0:0:
160,96,29305,1,0,0:0:0:0:
160,96,29396,1,0,0:0:0:0:
352,96,29487,1,8,0:0:0:0:
160,96,29851,1,0,0:0:0:0:
352,96,30033,1,8,0:0:0:0:
160,96,30215,1,0,0:0:0:0:
352,96,30305,1,8,0:0:0:0:
352,96,30396,1,8,0:0:0:0:
160,96,30578,1,0,0:0:0:0:
352,96,30760,1,8,0:0:0:0:
352,96,30942,1,8,0:0:0:0:
160,288,31124,1,4,0:0:0:0:
352,96,31487,1,8,0:0:0:0:
352,96,31760,1,8,0:0:0:0:
160,96,31851,1,0,0:0:0:0:
160,96,32033,1,0,0:0:0:0:
352,96,32215,1,8,0:0:0:0:
160,96,32396,1,0,0:0:0:0:
160,96,32760,1,0,0:0:0:0:
352,96,32942,1,8,0:0:0:0:
160,96,33124,1,0,0:0:0:0:
160,96,33215,1,0,0:0:0:0:
352,96,33305,1,8,0:0:0:0:
160,96,33487,1,0,0:0:0:0:
352,96,33669,1,8,0:0:0:0:
352,96,33851,1,8,0:0:0:0:
160,96,34033,1,0,0:0:0:0:
352,96,34215,1,8,0:0:0:0:
160,96,34305,1,0,0:0:0:0:
352,96,34396,1,8,0:0:0:0:
160,96,34578,1,0,0:0:0:0:
352,96,34942,1,8,0:0:0:0:
160,96,35124,1,0,0:0:0:0:
352,288,35305,1,12,0:0:0:0:
160,96,35669,1,0,0:0:0:0:
352,288,35851,1,12,0:0:0:0:
352,288,36215,1,12,0:0:0:0:
160,96,36487,1,0,0:0:0:0:
352,96,36578,1,8,0:0:0:0:
160,96,36760,1,0,0:0:0:0:
160,288,36942,1,4,0:0:0:0:
352,96,37305,1,8,0:0:0:0:
352,96,37578,1,8,0:0:0:0:
160,96,37669,1,0,0:0:0:0:
160,96,37851,1,0,0:0:0:0:
352,96,38033,1,8,0:0:0:0:
160,96,38215,1,0,0:0:0:0:
160,96,38578,1,0,0:0:0:0:
352,96,38760,1,8,0:0:0:0:
160,96,38942,1,0,0:0:0:0:
160,96,39033,1,0,0:0:0:0:
352,96,39124,1,8,0:0:0:0:
160,96,39305,1,0,0:0:0:0:
352,96,39487,1,8,0:0:0:0:
352,96,39669,1,8,0:0:0:0:
352,96,39760,1,8,0:0:0:0:
160,96,39851,1,0,0:0:0:0:
160,96,40033,1,0,0:0:0:0:
352,96,40215,1,8,0:0:0:0:
160,96,40396,1,0,0:0:0:0:
352,96,40487,1,8,0:0:0:0:
160,96,40578,1,0,0:0:0:0:
160,96,40760,1,0,0:0:0:0:
352,96,40942,1,8,0:0:0:0:
160,96,41124,1,0,0:0:0:0:
160,96,41487,1,0,0:0:0:0:
352,96,41669,1,8,0:0:0:0:
352,96,41851,1,8,0:0:0:0:
352,96,41942,1,8,0:0:0:0:
352,96,42033,1,8,0:0:0:0:
160,96,42215,1,0,0:0:0:0:
352,96,42396,1,8,0:0:0:0:
352,96,42578,1,8,0:0:0:0:
352,96,42669,1,8,0:0:0:0:
160,96,42760,1,0,0:0:0:0:
352,96,43124,1,8,0:0:0:0:
160,96,43305,1,0,0:0:0:0:
160,96,43669,1,0,0:0:0:0:
352,96,43851,1,8,0:0:0:0:
160,96,44033,1,0,0:0:0:0:
160,96,44124,1,0,0:0:0:0:
352,96,44305,1,8,0:0:0:0:
160,96,44396,1,0,0:0:0:0:
352,96,44578,1,8,0:0:0:0:
160,96,44760,1,0,0:0:0:0:
352,96,44851,1,8,0:0:0:0:
352,96,44942,1,8,0:0:0:0:
160,96,45124,1,0,0:0:0:0:
352,96,45305,1,8,0:0:0:0:
352,96,45487,1,8,0:0:0:0:
160,288,45669,1,4,0:0:0:0:
352,96,46032,1,8,0:0:0:0:
352,96,46214,1,8,0:0:0:0:
352,96,46305,1,8,0:0:0:0:
160,96,46396,1,0,0:0:0:0:
160,96,46578,1,0,0:0:0:0:
352,96,46759,1,8,0:0:0:0:
160,96,46941,1,0,0:0:0:0:
160,96,47305,1,0,0:0:0:0:
352,96,47487,1,8,0:0:0:0:
160,96,47669,1,0,0:0:0:0:
160,96,47759,1,0,0:0:0:0:
352,96,47850,1,8,0:0:0:0:
160,96,48032,1,0,0:0:0:0:
352,96,48214,1,8,0:0:0:0:
352,96,48396,1,8,0:0:0:0:
352,96,48487,1,8,0:0:0:0:
160,96,48578,1,0,0:0:0:0:
160,96,48759,1,0,0:0:0:0:
352,96,48850,1,8,0:0:0:0:
352,96,48941,1,8,0:0:0:0:
160,96,49123,1,0,0:0:0:0:
352,96,49305,1,8,0:0:0:0:
352,96,49487,1,8,0:0:0:0:
352,96,49578,1,8,0:0:0:0:
352,96,49669,1,8,0:0:0:0:
160,96,49850,1,0,0:0:0:0:
352,96,50032,1,8,0:0:0:0:
160,96,50214,1,0,0:0:0:0:
160,96,50396,1,0,0:0:0:0:
160,96,50578,1,0,0:0:0:0:
352,96,50759,1,8,0:0:0:0:
352,96,50941,1,8,0:0:0:0:
352,96,51032,1,8,0:0:0:0:
352,96,51123,1,8,0:0:0:0:
160,288,51305,1,4,0:0:0:0:
160,96,51669,1,0,0:0:0:0:
352,96,51850,1,8,0:0:0:0:
160,96,52123,1,0,0:0:0:0:
352,96,52214,1,8,0:0:0:0:
160,96,52396,1,0,0:0:0:0:
352,96,52578,1,8,0:0:0:0:
160,96,52759,1,0,0:0:0:0:
352,96,52941,1,8,0:0:0:0:
352,96,53032,1,8,0:0:0:0:
160,96,53123,1,0,0:0:0:0:
352,96,53305,1,8,0:0:0:0:
160,96,53487,1,0,0:0:0:0:
160,96,53578,1,0,0:0:0:0:
352,96,53669,1,8,0:0:0:0:
352,96,53759,1,8,0:0:0:0:
160,96,53850,1,0,0:0:0:0:
352,96,54032,1,8,0:0:0:0:
160,96,54214,1,0,0:0:0:0:
352,96,54396,1,8,0:0:0:0:
352,96,54759,1,8,0:0:0:0:
160,96,55032,1,0,0:0:0:0:
352,96,55123,1,8,0:0:0:0:
160,96,55305,1,0,0:0:0:0:
352,96,55487,1,8,0:0:0:0:
160,96,55669,1,0,0:0:0:0:
352,96,55850,1,8,0:0:0:0:
352,96,55941,1,8,0:0:0:0:
160,96,56032,1,0,0:0:0:0:
352,96,56214,1,8,0:0:0:0:
160,96,56396,1,0,0:0:0:0:
160,96,56487,1,0,0:0:0:0:
352,96,56578,1,8,0:0:0:0:
352,96,56669,1,8,0:0:0:0:
160,96,56759,1,0,0:0:0:0:
352,96,56941,1,8,0:0:0:0:
160,96,57123,1,0,0:0:0:0:
160,96,57214,1,0,0:0:0:0:
352,96,57305,1,8,0:0:0:0:
160,96,57487,1,0,0:0:0:0:
352,96,57669,1,8,0:0:0:0:
160,96,57850,1,0,0:0:0:0:
160,96,57941,1,0,0:0:0:0:
352,96,58032,1,8,0:0:0:0:
160,96,58214,1,0,0:0:0:0:
352,96,58396,1,8,0:0:0:0:
160,96,58578,1,0,0:0:0:0:
352,96,58669,1,8,0:0:0:0:
352,96,58759,1,8,0:0:0:0:
160,96,58941,1,0,0:0:0:0:
352,96,59123,1,8,0:0:0:0:
160,96,59305,1,0,0:0:0:0:
352,96,59396,1,8,0:0:0:0:
352,96,59487,1,8,0:0:0:0:
160,96,59669,1,0,0:0:0:0:
352,96,59850,1,8,0:0:0:0:
352,96,60032,1,8,0:0:0:0:
160,96,60396,1,0,0:0:0:0:
352,96,60578,1,8,0:0:0:0:
160,96,60759,1,0,0:0:0:0:
160,96,60850,1,0,0:0:0:0:
352,96,60941,1,8,0:0:0:0:
352,96,61123,1,8,0:0:0:0:
352,96,61305,1,8,0:0:0:0:
160,96,61487,1,0,0:0:0:0:
352,96,61578,1,8,0:0:0:0:
352,96,61759,1,8,0:0:0:0:
160,96,61850,1,0,0:0:0:0:
352,96,62032,1,8,0:0:0:0:
160,96,62214,1,0,0:0:0:0:
352,96,62396,1,8,0:0:0:0:
160,96,62487,1,0,0:0:0:0:
352,96,62578,1,8,0:0:0:0:
352,96,62669,1,8,0:0:0:0:
352,96,62759,1,8,0:0:0:0:
160,288,62941,1,4,0:0:0:0:
160,96,63305,1,0,0:0:0:0:
352,96,63487,1,8,0:0:0:0:
160,96,63759,1,0,0:0:0:0:
352,96,63850,1,8,0:0:0:0:
160,96,64032,1,0,0:0:0:0:
352,96,64214,1,8,0:0:0:0:
160,96,64396,1,0,0:0:0:0:
352,96,64578,1,8,0:0:0:0:
352,96,64669,1,8,0:0:0:0:
160,96,64759,1,0,0:0:0:0:
352,96,64941,1,8,0:0:0:0:
160,96,65123,1,0,0:0:0:0:
160,96,65214,1,0,0:0:0:0:
352,96,65305,1,8,0:0:0:0:
352,96,65396,1,8,0:0:0:0:
160,96,65487,1,0,0:0:0:0:
352,96,65669,1,8,0:0:0:0:
160,96,65850,1,0,0:0:0:0:
352,96,65941,1,8,0:0:0:0:
352,96,66032,1,8,0:0:0:0:
160,96,66214,1,0,0:0:0:0:
352,96,66396,1,8,0:0:0:0:
160,96,66669,1,0,0:0:0:0:
352,96,66759,1,8,0:0:0:0:
160,96,66941,1,0,0:0:0:0:
352,96,67123,1,8,0:0:0:0:
160,96,67305,1,0,0:0:0:0:
352,96,67487,1,8,0:0:0:0:
352,96,67578,1,8,0:0:0:0:
160,96,67669,1,0,0:0:0:0:
352,96,67850,1,8,0:0:0:0:
160,96,68032,1,0,0:0:0:0:
160,96,68123,1,0,0:0:0:0:
352,96,68214,1,8,0:0:0:0:
352,96,68305,1,8,0:0:0:0:
160,96,68396,1,0,0:0:0:0:
352,96,68578,1,8,0:0:0:0:
160,96,68759,1,0,0:0:0:0:
352,288,68941,1,12,0:0:0:0:
160,96,69123,1,0,0:0:0:0:
160,96,69214,1,0,0:0:0:0:
160,96,69305,1,0,0:0:0:0:
352,288,69487,1,12,0:0:0:0:
160,96,69850,1,0,0:0:0:0:
352,96,70032,1,8,0:0:0:0:
160,288,70214,1,4,0:0:0:0:
160,96,70578,1,0,0:0:0:0:
352,288,70759,1,12,0:0:0:0:
160,96,71669,1,0,0:0:0:0:
352,96,71850,1,8,0:0:0:0:
352,96,72032,1,8,0:0:0:0:
352,96,72396,1,8,0:0:0:0:
352,96,72759,1,8,0:0:0:0:
352,96,72850,1,8,0:0:0:0:
160,96,72941,1,0,0:0:0:0:
160,288,73123,1,4,0:0:0:0:
160,96,73487,1,0,0:0:0:0:
352,96,73669,1,8,0:0:0:0:
160,96,73851,1,0,0:0:0:0:
160,96,73942,1,0,0:0:0:0:
352,96,74033,1,8,0:0:0:0:
160,96,74215,1,0,0:0:0:0:
352,96,74396,1,8,0:0:0:0:
160,96,74578,1,0,0:0:0:0:
352,96,74760,1,8,0:0:0:0:
352,96,74851,1,8,0:0:0:0:
160,96,74942,1,0,0:0:0:0:
352,96,75124,1,8,0:0:0:0:
160,96,75306,1,0,0:0:0:0:
160,96,75396,1,0,0:0:0:0:
352,96,75487,1,8,0:0:0:0:
160,96,75669,1,0,0:0:0:0:
352,96,75851,1,8,0:0:0:0:
160,288,76033,1,4,0:0:0:0:
160,96,76396,1,0,0:0:0:0:
352,96,76578,1,8,0:0:0:0:
160,96,76760,1,0,0:0:0:0:
352,96,76942,1,8,0:0:0:0:
160,96,77033,1,0,0:0:0:0:
160,96,77124,1,0,0:0:0:0:
352,96,77306,1,8,0:0:0:0:
160,96,77487,1,0,0:0:0:0:
352,96,77578,1,8,0:0:0:0:
352,96,77669,1,8,0:0:0:0:
160,96,77851,1,0,0:0:0:0:
352,96,78033,1,8,0:0:0:0:
160,96,78215,1,0,0:0:0:0:
160,96,78306,1,0,0:0:0:0:
352,96,78396,1,8,0:0:0:0:
352,96,78487,1,8,0:0:0:0:
160,96,78578,1,0,0:0:0:0:
352,96,78760,1,8,0:0:0:0:
160,288,78942,1,4,0:0:0:0:
160,96,79306,1,0,0:0:0:0:
352,96,79487,1,8,0:0:0:0:
160,96,79669,1,0,0:0:0:0:
160,96,79760,1,0,0:0:0:0:
352,96,79851,1,8,0:0:0:0:
160,96,80033,1,0,0:0:0:0:
352,96,80215,1,8,0:0:0:0:
160,96,80396,1,0,0:0:0:0:
352,96,80578,1,8,0:0:0:0:
352,96,80669,1,8,0:0:0:0:
160,96,80760,1,0,0:0:0:0:
352,96,80942,1,8,0:0:0:0:
160,96,81124,1,0,0:0:0:0:
160,96,81215,1,0,0:0:0:0:
352,96,81306,1,8,0:0:0:0:
160,96,81487,1,0,0:0:0:0:
352,96,81669,1,8,0:0:0:0:
160,288,81851,1,4,0:0:0:0:
160,96,82215,1,0,0:0:0:0:
352,96,82396,1,8,0:0:0:0:
160,96,82578,1,0,0:0:0:0:
352,96,82760,1,8,0:0:0:0:
352,96,82851,1,8,0:0:0:0:
160,96,82942,1,0,0:0:0:0:
160,96,83033,1,0,0:0:0:0:
352,96,83124,1,8,0:0:0:0:
352,288,83306,1,12,0:0:0:0:
160,96,83669,1,0,0:0:0:0:
352,96,83851,1,8,0:0:0:0:
160,96,84124,1,0,0:0:0:0:
352,96,84215,1,8,0:0:0:0:
160,96,84487,1,0,0:0:0:0:
160,96,84803,1,0,0:0:0:0:
160,96,85053,1,0,0:0:0:0:
160,96,85115,1,0,0:0:0:0:
352,96,85178,1,8,0:0:0:0:
