osu file format v14

[General]
AudioFilename: audio.mp3
AudioLeadIn: 0
PreviewTime: -1
Countdown: 0
SampleSet: None
StackLeniency: 0.7
Mode: 3
LetterboxInBreaks: 0
SpecialStyle: 0
WidescreenStoryboard: 1

[Editor]
Bookmarks: 64500,97000
DistanceSpacing: 0.9
BeatDivisor: 4
GridSize: 8
TimelineZoom: 1

[Metadata]
Title:Fresh Static Potato (Porter Robinson x Girls Last Tour Mashup)
TitleUnicode:Fresh Static Potato (Porter Robinson x Girls Last Tour Mashup)
Artist:sewerslvt
ArtistUnicode:sewerslvt
Creator:Chronocide
Version:Easy
Source:https://youtu.be/G_2Fao9UA80
Tags:mashed potatoes, chito, yuuri, shoujo shuumatsu ryokou, cd baby, kami records, fresh static snow, last island remix, more one night, ed
BeatmapID:1733198
BeatmapSetID:827087

[Difficulty]
HPDrainRate:8
CircleSize:4
OverallDifficulty:9
ApproachRate:5
SliderMultiplier:1.4
SliderTickRate:1

[Events]
//Background and Video events
0,0,"maxresdefault.jpg",0,0
//Break Periods
//Storyboard Layer 0 (Background)
//Storyboard Layer 1 (Fail)
//Storyboard Layer 2 (Pass)
//Storyboard Layer 3 (Foreground)
//Storyboard Sound Samples

[TimingPoints]
0,500,4,2,0,30,1,0
65000,-100,4,2,0,30,0,1
97000,-100,4,2,0,30,0,0

[HitObjects]
192,192,0,5,0,0:0:0:0:
64,192,0,1,0,0:0:0:0:
448,192,375,1,0,0:0:0:0:
320,192,500,1,0,0:0:0:0:
64,192,625,1,0,0:0:0:0:
192,192,750,1,0,0:0:0:0:
448,192,1000,1,0,0:0:0:0:
64,192,1250,1,0,0:0:0:0:
448,192,1500,1,0,0:0:0:0:
192,192,1750,1,0,0:0:0:0:
320,192,1875,1,0,0:0:0:0:
64,192,2125,1,0,0:0:0:0:
64,192,2375,128,0,2750:0:0:0:0:
448,192,3000,1,0,0:0:0:0:
64,192,3250,1,0,0:0:0:0:
448,192,3500,1,0,0:0:0:0:
192,192,3750,1,0,0:0:0:0:
320,192,3875,1,0,0:0:0:0:
64,192,4125,1,0,0:0:0:0:
64,192,4375,128,0,4750:0:0:0:0:
448,192,4500,128,0,4750:0:0:0:0:
448,192,5000,1,0,0:0:0:0:
64,192,5250,1,0,0:0:0:0:
448,192,5500,1,0,0:0:0:0:
192,192,5750,1,0,0:0:0:0:
320,192,5875,1,0,0:0:0:0:
64,192,6125,1,0,0:0:0:0:
64,192,6375,128,0,6750:0:0:0:0:
448,192,7000,1,0,0:0:0:0:
64,192,7250,1,0,0:0:0:0:
448,192,7500,1,0,0:0:0:0:
192,192,7750,1,0,0:0:0:0:
320,192,7875,1,0,0:0:0:0:
64,192,8125,1,0,0:0:0:0:
64,192,8375,128,0,8750:0:0:0:0:
448,192,8500,128,0,8750:0:0:0:0:
448,192,9000,1,0,0:0:0:0:
64,192,9250,1,0,0:0:0:0:
448,192,9500,1,0,0:0:0:0:
192,192,9750,1,0,0:0:0:0:
320,192,9875,1,0,0:0:0:0:
64,192,10125,1,0,0:0:0:0:
64,192,10375,128,0,10750:0:0:0:0:
448,192,11000,1,0,0:0:0:0:
64,192,11250,1,0,0:0:0:0:
448,192,11500,1,0,0:0:0:0:
192,192,11750,1,0,0:0:0:0:
320,192,11875,1,0,0:0:0:0:
64,192,12125,1,0,0:0:0:0:
64,192,12375,128,0,12750:0:0:0:0:
448,192,12500,128,0,12750:0:0:0:0:
448,192,13000,1,0,0:0:0:0:
64,192,13250,1,0,0:0:0:0:
448,192,13500,1,0,0:0:0:0:
192,192,13750,1,0,0:0:0:0:
320,192,13875,1,0,0:0:0:0:
64,192,14125,1,0,0:0:0:0:
64,192,14375,128,0,14750:0:0:0:0:
448,192,15000,1,0,0:0:0:0:
320,192,15125,1,0,0:0:0:0:
64,192,15250,1,0,0:0:0:0:
192,192,15375,1,0,0:0:0:0:
320,192,15500,1,0,0:0:0:0:
448,192,15625,1,0,0:0:0:0:
192,192,15875,1,0,0:0:0:0:
320,192,16000,1,0,0:0:0:0:
64,192,16125,1,0,0:0:0:0:
448,192,16250,1,0,0:0:0:0:
192,192,16500,1,0,0:0:0:0:
64,192,16500,1,0,0:0:0:0:
448,192,17000,1,0,0:0:0:0:
64,192,17250,1,0,0:0:0:0:
448,192,17500,1,0,0:0:0:0:
192,192,17750,1,0,0:0:0:0:
320,192,17875,1,0,0:0:0:0:
64,192,18125,1,0,0:0:0:0:
64,192,18375,128,0,18750:0:0:0:0:
448,192,19000,1,0,0:0:0:0:
64,192,19250,1,0,0:0:0:0:
448,192,19500,1,0,0:0:0:0:
192,192,19750,1,0,0:0:0:0:
320,192,19875,1,0,0:0:0:0:
64,192,20125,1,0,0:0:0:0:
64,192,20375,128,0,20750:0:0:0:0:
448,192,20500,128,0,20750:0:0:0:0:
448,192,21000,1,0,0:0:0:0:
64,192,21250,1,0,0:0:0:0:
448,192,21500,1,0,0:0:0:0:
192,192,21750,1,0,0:0:0:0:
320,192,21875,1,0,0:0:0:0:
64,192,22125,1,0,0:0:0:0:
64,192,22375,128,0,22750:0:0:0:0:
448,192,23000,1,0,0:0:0:0:
64,192,23250,1,0,0:0:0:0:
448,192,23500,1,0,0:0:0:0:
192,192,23750,1,0,0:0:0:0:
320,192,23875,1,0,0:0:0:0:
64,192,24125,1,0,0:0:0:0:
64,192,24375,128,0,24750:0:0:0:0:
448,192,24500,128,0,24750:0:0:0:0:
320,192,25000,1,0,0:0:0:0:
192,192,25250,1,0,0:0:0:0:
320,192,25500,1,0,0:0:0:0:
64,192,25750,1,0,0:0:0:0:
448,192,25875,1,0,0:0:0:0:
192,192,26125,1,0,0:0:0:0:
192,192,26375,128,0,26750:0:0:0:0:
320,192,27000,1,0,0:0:0:0:
192,192,27250,1,0,0:0:0:0:
320,192,27500,1,0,0:0:0:0:
64,192,27750,1,0,0:0:0:0:
448,192,27875,1,0,0:0:0:0:
192,192,28125,1,0,0:0:0:0:
192,192,28375,128,0,28750:0:0:0:0:
320,192,28500,128,0,28750:0:0:0:0:
320,192,29000,1,0,0:0:0:0:
192,192,29250,1,0,0:0:0:0:
320,192,29500,1,0,0:0:0:0:
64,192,29750,1,0,0:0:0:0:
448,192,29875,1,0,0:0:0:0:
192,192,30125,1,0,0:0:0:0:
192,192,30375,128,0,30750:0:0:0:0:
448,192,31000,1,0,0:0:0:0:
320,192,31125,1,0,0:0:0:0:
192,192,31500,1,0,0:0:0:0:
320,192,31625,1,0,0:0:0:0:
448,192,31750,1,0,0:0:0:0:
64,192,32000,1,0,0:0:0:0:
448,192,32500,1,0,0:0:0:0:
320,192,32750,1,0,0:0:0:0:
64,192,33000,1,0,0:0:0:0:
192,192,33500,1,0,0:0:0:0:
448,192,33750,1,0,0:0:0:0:
320,192,34000,1,0,0:0:0:0:
64,192,34500,1,0,0:0:0:0:
64,192,34750,1,0,0:0:0:0:
448,192,35000,1,0,0:0:0:0:
192,192,35250,1,0,0:0:0:0:
320,192,35500,1,0,0:0:0:0:
64,192,35750,1,0,0:0:0:0:
192,192,36000,1,0,0:0:0:0:
448,192,36500,1,0,0:0:0:0:
320,192,36750,1,0,0:0:0:0:
64,192,37000,1,0,0:0:0:0:
192,192,37250,1,0,0:0:0:0:
448,192,37500,1,0,0:0:0:0:
320,192,37750,1,0,0:0:0:0:
192,192,38000,1,0,0:0:0:0:
192,192,38500,1,0,0:0:0:0:
64,192,38750,1,0,0:0:0:0:
320,192,39000,1,0,0:0:0:0:
448,192,39250,1,0,0:0:0:0:
320,192,39500,1,0,0:0:0:0:
64,192,39750,1,0,0:0:0:0:
192,192,40000,1,0,0:0:0:0:
320,192,40500,1,0,0:0:0:0:
192,192,40750,1,0,0:0:0:0:
448,192,41000,1,0,0:0:0:0:
192,192,41500,1,0,0:0:0:0:
64,192,41750,1,0,0:0:0:0:
320,192,42000,1,0,0:0:0:0:
192,192,42500,1,0,0:0:0:0:
320,192,42750,1,0,0:0:0:0:
448,192,43000,1,0,0:0:0:0:
64,192,43250,1,0,0:0:0:0:
320,192,43500,1,0,0:0:0:0:
192,192,43750,1,0,0:0:0:0:
448,192,44000,1,0,0:0:0:0:
192,192,44500,1,0,0:0:0:0:
320,192,44750,1,0,0:0:0:0:
64,192,45000,1,0,0:0:0:0:
320,192,45500,1,0,0:0:0:0:
192,192,45750,1,0,0:0:0:0:
320,192,46000,1,0,0:0:0:0:
320,192,46250,1,0,0:0:0:0:
448,192,46500,1,0,0:0:0:0:
192,192,46750,1,0,0:0:0:0:
320,192,47000,1,0,0:0:0:0:
192,192,47250,1,0,0:0:0:0:
448,192,47500,1,0,0:0:0:0:
64,192,47750,1,0,0:0:0:0:
448,192,48000,1,0,0:0:0:0:
192,192,49000,1,0,0:0:0:0:
320,192,49125,1,0,0:0:0:0:
192,192,49250,1,0,0:0:0:0:
448,192,49375,1,0,0:0:0:0:
64,192,49500,1,0,0:0:0:0:
320,192,49750,1,0,0:0:0:0:
192,192,49875,1,0,0:0:0:0:
320,192,50000,1,0,0:0:0:0:
64,192,50125,1,0,0:0:0:0:
448,192,50250,1,0,0:0:0:0:
192,192,50500,1,0,0:0:0:0:
320,192,50625,1,0,0:0:0:0:
448,192,50750,1,0,0:0:0:0:
320,192,50875,1,0,0:0:0:0:
192,192,51000,1,0,0:0:0:0:
64,192,51125,1,0,0:0:0:0:
192,192,51250,1,0,0:0:0:0:
320,192,51375,1,0,0:0:0:0:
448,192,51500,1,0,0:0:0:0:
64,192,51625,1,0,0:0:0:0:
64,192,51875,1,0,0:0:0:0:
448,192,52000,1,0,0:0:0:0:
192,192,52250,1,0,0:0:0:0:
320,192,52375,1,0,0:0:0:0:
192,192,52500,1,0,0:0:0:0:
448,192,52625,1,0,0:0:0:0:
64,192,52750,1,0,0:0:0:0:
320,192,53000,1,0,0:0:0:0:
192,192,53125,1,0,0:0:0:0:
320,192,53250,1,0,0:0:0:0:
64,192,53375,1,0,0:0:0:0:
448,192,53500,1,0,0:0:0:0:
192,192,53750,1,0,0:0:0:0:
320,192,53875,1,0,0:0:0:0:
192,192,54000,1,0,0:0:0:0:
448,192,54125,1,0,0:0:0:0:
64,192,54250,1,0,0:0:0:0:
320,192,54500,1,0,0:0:0:0:
192,192,54625,1,0,0:0:0:0:
64,192,54750,1,0,0:0:0:0:
192,192,54875,1,0,0:0:0:0:
320,192,55000,1,0,0:0:0:0:
448,192,55125,1,0,0:0:0:0:
320,192,55250,1,0,0:0:0:0:
192,192,55375,1,0,0:0:0:0:
64,192,55500,1,0,0:0:0:0:
448,192,56000,128,0,56750:0:0:0:0:
192,192,56000,128,0,56750:0:0:0:0:
320,192,57000,1,0,0:0:0:0:
192,192,57125,1,0,0:0:0:0:
320,192,57250,1,0,0:0:0:0:
64,192,57375,1,0,0:0:0:0:
448,192,57500,1,0,0:0:0:0:
192,192,57750,1,0,0:0:0:0:
320,192,57875,1,0,0:0:0:0:
192,192,58000,1,0,0:0:0:0:
448,192,58125,1,0,0:0:0:0:
64,192,58250,1,0,0:0:0:0:
320,192,58500,1,0,0:0:0:0:
192,192,58625,1,0,0:0:0:0:
64,192,58750,1,0,0:0:0:0:
448,192,58875,1,0,0:0:0:0:
320,192,59000,1,0,0:0:0:0:
192,192,59250,1,0,0:0:0:0:
320,192,59375,1,0,0:0:0:0:
448,192,59500,1,0,0:0:0:0:
64,192,59625,1,0,0:0:0:0:
192,192,59750,1,0,0:0:0:0:
448,192,60000,128,0,60375:0:0:0:0:
320,192,60000,128,0,60375:0:0:0:0:
64,192,60500,128,0,60875:0:0:0:0:
192,192,60500,128,0,60875:0:0:0:0:
320,192,61000,1,0,0:0:0:0:
448,192,61000,1,0,0:0:0:0:
448,192,61250,1,0,0:0:0:0:
64,192,61500,1,0,0:0:0:0:
192,192,61750,1,0,0:0:0:0:
320,192,62000,1,0,0:0:0:0:
448,192,62000,1,0,0:0:0:0:
448,192,62250,1,0,0:0:0:0:
64,192,62500,1,0,0:0:0:0:
192,192,62750,1,0,0:0:0:0:
320,192,63000,1,0,0:0:0:0:
448,192,63000,1,0,0:0:0:0:
192,192,63250,1,0,0:0:0:0:
64,192,63250,1,0,0:0:0:0:
320,192,63500,1,0,0:0:0:0:
448,192,63500,1,0,0:0:0:0:
448,192,63750,1,0,0:0:0:0:
320,192,64000,1,0,0:0:0:0:
64,192,64000,1,0,0:0:0:0:
192,192,64250,1,0,0:0:0:0:
448,192,64500,5,0,0:0:0:0:
448,192,64750,1,0,0:0:0:0:
320,192,64750,1,0,0:0:0:0:
64,192,65000,128,0,65250:0:0:0:0:
448,192,65000,128,0,65250:0:0:0:0:
192,192,65500,128,0,65750:0:0:0:0:
448,192,65500,128,0,65750:0:0:0:0:
448,192,66000,1,0,0:0:0:0:
320,192,66000,1,0,0:0:0:0:
320,192,66375,1,0,0:0:0:0:
192,192,66375,1,0,0:0:0:0:
192,192,66750,128,0,67000:0:0:0:0:
64,192,66750,128,0,67000:0:0:0:0:
320,192,67250,1,0,0:0:0:0:
192,192,67250,1,0,0:0:0:0:
64,192,67500,1,0,0:0:0:0:
448,192,67500,1,0,0:0:0:0:
448,192,67750,1,0,0:0:0:0:
192,192,67750,1,0,0:0:0:0:
320,192,68000,1,0,0:0:0:0:
64,192,68000,1,0,0:0:0:0:
192,192,68750,1,0,0:0:0:0:
64,192,68750,1,0,0:0:0:0:
448,192,69000,128,0,69250:0:0:0:0:
192,192,69000,128,0,69250:0:0:0:0:
320,192,69500,128,0,69750:0:0:0:0:
64,192,69500,128,0,69750:0:0:0:0:
192,192,70000,1,0,0:0:0:0:
320,192,70000,1,0,0:0:0:0:
192,192,70375,1,0,0:0:0:0:
448,192,70375,1,0,0:0:0:0:
320,192,70750,1,0,0:0:0:0:
64,192,70750,1,0,0:0:0:0:
64,192,71000,1,0,0:0:0:0:
448,192,71000,1,0,0:0:0:0:
192,192,71250,1,0,0:0:0:0:
448,192,71250,1,0,0:0:0:0:
320,192,71500,1,0,0:0:0:0:
192,192,71500,1,0,0:0:0:0:
320,192,71750,1,0,0:0:0:0:
64,192,71750,1,0,0:0:0:0:
64,192,72000,1,0,0:0:0:0:
192,192,72000,1,0,0:0:0:0:
448,192,72250,1,0,0:0:0:0:
448,192,72500,1,0,0:0:0:0:
320,192,72500,1,0,0:0:0:0:
320,192,72750,1,0,0:0:0:0:
192,192,72750,1,0,0:0:0:0:
448,192,73000,128,0,73250:0:0:0:0:
64,192,73000,128,0,73250:0:0:0:0:
64,192,73500,128,0,73750:0:0:0:0:
320,192,73500,128,0,73750:0:0:0:0:
192,192,74000,1,0,0:0:0:0:
448,192,74000,1,0,0:0:0:0:
448,192,74375,1,0,0:0:0:0:
320,192,74375,1,0,0:0:0:0:
192,192,74750,1,0,0:0:0:0:
64,192,74750,1,0,0:0:0:0:
320,192,75000,1,0,0:0:0:0:
448,192,75000,1,0,0:0:0:0:
320,192,75250,1,0,0:0:0:0:
64,192,75250,1,0,0:0:0:0:
192,192,75500,1,0,0:0:0:0:
448,192,75500,1,0,0:0:0:0:
448,192,75750,1,0,0:0:0:0:
320,192,75750,1,0,0:0:0:0:
320,192,76750,1,0,0:0:0:0:
192,192,76750,1,0,0:0:0:0:
320,192,77000,128,0,77250:0:0:0:0:
64,192,77000,128,0,77250:0:0:0:0:
192,192,77500,1,0,0:0:0:0:
64,192,77500,1,0,0:0:0:0:
64,192,77750,1,0,0:0:0:0:
320,192,77750,1,0,0:0:0:0:
192,192,78000,128,0,78250:0:0:0:0:
448,192,78000,128,0,78250:0:0:0:0:
448,192,78500,1,0,0:0:0:0:
64,192,78500,1,0,0:0:0:0:
64,192,78750,1,0,0:0:0:0:
320,192,78750,1,0,0:0:0:0:
320,192,79000,1,0,0:0:0:0:
192,192,79000,1,0,0:0:0:0:
64,192,79250,1,0,0:0:0:0:
448,192,79250,1,0,0:0:0:0:
448,192,79500,1,0,0:0:0:0:
192,192,79500,1,0,0:0:0:0:
320,192,79750,1,0,0:0:0:0:
64,192,79750,1,0,0:0:0:0:
320,192,80000,128,0,80250:0:0:0:0:
192,192,80000,128,0,80250:0:0:0:0:
64,192,80500,1,0,0:0:0:0:
64,192,80750,1,0,0:0:0:0:
192,192,80750,1,0,0:0:0:0:
320,192,81000,128,0,81250:0:0:0:0:
192,192,81000,128,0,81250:0:0:0:0:
192,192,81500,128,0,81750:0:0:0:0:
448,192,81500,128,0,81750:0:0:0:0:
64,192,82000,1,0,0:0:0:0:
320,192,82000,1,0,0:0:0:0:
192,192,82375,1,0,0:0:0:0:
64,192,82375,1,0,0:0:0:0:
192,192,82750,128,0,83000:0:0:0:0:
448,192,82750,128,0,83000:0:0:0:0:
320,192,83250,1,0,0:0:0:0:
192,192,83250,1,0,0:0:0:0:
448,192,83500,1,0,0:0:0:0:
64,192,83500,1,0,0:0:0:0:
192,192,83750,1,0,0:0:0:0:
448,192,83750,1,0,0:0:0:0:
320,192,84000,1,0,0:0:0:0:
64,192,84000,1,0,0:0:0:0:
192,192,84750,1,0,0:0:0:0:
320,192,84750,1,0,0:0:0:0:
448,192,85000,128,0,85250:0:0:0:0:
64,192,85000,128,0,85250:0:0:0:0:
448,192,85500,128,0,85750:0:0:0:0:
192,192,85500,128,0,85750:0:0:0:0:
320,192,86000,1,0,0:0:0:0:
64,192,86000,1,0,0:0:0:0:
192,192,86375,1,0,0:0:0:0:
320,192,86375,1,0,0:0:0:0:
192,192,86750,1,0,0:0:0:0:
448,192,86750,1,0,0:0:0:0:
448,192,87000,1,0,0:0:0:0:
320,192,87000,1,0,0:0:0:0:
320,192,87250,1,0,0:0:0:0:
64,192,87250,1,0,0:0:0:0:
192,192,87500,1,0,0:0:0:0:
64,192,87500,1,0,0:0:0:0:
192,192,87750,1,0,0:0:0:0:
448,192,87750,1,0,0:0:0:0:
320,192,88000,1,0,0:0:0:0:
64,192,88000,1,0,0:0:0:0:
448,192,88250,1,0,0:0:0:0:
448,192,88500,1,0,0:0:0:0:
320,192,88500,1,0,0:0:0:0:
320,192,88750,1,0,0:0:0:0:
192,192,88750,1,0,0:0:0:0:
64,192,89000,128,0,89250:0:0:0:0:
448,192,89000,128,0,89250:0:0:0:0:
320,192,89500,128,0,89750:0:0:0:0:
64,192,89500,128,0,89750:0:0:0:0:
64,192,90000,1,0,0:0:0:0:
448,192,90000,1,0,0:0:0:0:
448,192,90375,1,0,0:0:0:0:
192,192,90375,1,0,0:0:0:0:
320,192,90750,1,0,0:0:0:0:
192,192,90875,1,0,0:0:0:0:
64,192,91000,1,0,0:0:0:0:
320,192,91250,1,0,0:0:0:0:
448,192,91250,1,0,0:0:0:0:
192,192,91500,1,0,0:0:0:0:
64,192,91500,1,0,0:0:0:0:
320,192,91750,1,0,0:0:0:0:
192,192,91875,1,0,0:0:0:0:
448,192,92750,1,0,0:0:0:0:
320,192,93000,128,0,93250:0:0:0:0:
448,192,93000,128,0,93250:0:0:0:0:
320,192,93500,128,0,93750:0:0:0:0:
192,192,93500,128,0,93750:0:0:0:0:
64,192,94000,128,0,94250:0:0:0:0:
320,192,94000,128,0,94250:0:0:0:0:
192,192,94500,1,0,0:0:0:0:
448,192,94500,1,0,0:0:0:0:
448,192,94750,1,0,0:0:0:0:
320,192,94750,1,0,0:0:0:0:
192,192,95000,1,0,0:0:0:0:
64,192,95000,1,0,0:0:0:0:
64,192,95250,1,0,0:0:0:0:
320,192,95250,1,0,0:0:0:0:
192,192,95500,1,0,0:0:0:0:
320,192,95500,1,0,0:0:0:0:
192,192,95750,1,0,0:0:0:0:
448,192,95750,1,0,0:0:0:0:
448,192,96000,1,0,0:0:0:0:
320,192,96000,1,0,0:0:0:0:
64,192,97000,128,0,99000:0:0:0:0:
320,192,99000,128,0,101000:0:0:0:0:
192,192,101000,128,0,103000:0:0:0:0:
448,192,103000,128,0,105000:0:0:0:0:
64,192,105000,128,0,107000:0:0:0:0:
320,192,107000,128,0,109000:0:0:0:0:
192,192,109000,128,0,111000:0:0:0:0:
448,192,111000,128,0,113000:0:0:0:0:
192,192,113000,1,0,0:0:0:0:
320,192,113250,1,0,0:0:0:0:
64,192,113500,1,0,0:0:0:0:
192,192,113750,1,0,0:0:0:0:
320,192,114000,1,0,0:0:0:0:
192,192,114250,1,0,0:0:0:0:
448,192,114500,1,0,0:0:0:0:
192,192,114750,1,0,0:0:0:0:
320,192,115000,1,0,0:0:0:0:
192,192,115250,1,0,0:0:0:0:
64,192,115500,1,0,0:0:0:0:
320,192,115750,1,0,0:0:0:0:
64,192,116000,1,0,0:0:0:0:
448,192,116250,1,0,0:0:0:0:
192,192,116500,1,0,0:0:0:0:
320,192,116750,1,0,0:0:0:0:
64,192,117000,1,0,0:0:0:0:
192,192,117250,1,0,0:0:0:0:
448,192,117500,1,0,0:0:0:0:
320,192,117750,1,0,0:0:0:0:
192,192,118000,1,0,0:0:0:0:
320,192,118250,1,0,0:0:0:0:
448,192,118500,1,0,0:0:0:0:
192,192,118750,1,0,0:0:0:0:
320,192,119000,1,0,0:0:0:0:
192,192,119250,1,0,0:0:0:0:
64,192,119500,1,0,0:0:0:0:
320,192,119750,1,0,0:0:0:0:
192,192,120000,1,0,0:0:0:0:
192,192,120250,1,0,0:0:0:0:
448,192,120500,1,0,0:0:0:0:
320,192,120750,1,0,0:0:0:0:
192,192,121000,1,0,0:0:0:0:
320,192,121250,1,0,0:0:0:0:
64,192,121500,1,0,0:0:0:0:
192,192,121750,1,0,0:0:0:0:
320,192,122000,1,0,0:0:0:0:
192,192,122250,1,0,0:0:0:0:
448,192,122500,1,0,0:0:0:0:
320,192,122750,1,0,0:0:0:0:
192,192,123000,1,0,0:0:0:0:
320,192,123250,1,0,0:0:0:0:
64,192,123500,1,0,0:0:0:0:
192,192,123750,1,0,0:0:0:0:
320,192,124000,1,0,0:0:0:0:
320,192,124250,1,0,0:0:0:0:
448,192,124500,1,0,0:0:0:0:
192,192,124750,1,0,0:0:0:0:
320,192,125000,1,0,0:0:0:0:
448,192,125250,1,0,0:0:0:0:
64,192,125500,1,0,0:0:0:0:
192,192,125750,1,0,0:0:0:0:
320,192,126000,1,0,0:0:0:0:
192,192,126250,1,0,0:0:0:0:
448,192,126500,1,0,0:0:0:0:
320,192,126750,1,0,0:0:0:0:
192,192,127000,1,0,0:0:0:0:
448,192,127500,1,0,0:0:0:0:
192,192,128000,1,0,0:0:0:0:
64,192,128000,1,0,0:0:0:0:
448,192,128375,1,0,0:0:0:0:
320,192,128500,1,0,0:0:0:0:
64,192,128625,1,0,0:0:0:0:
192,192,128750,1,0,0:0:0:0:
320,192,129000,1,0,0:0:0:0:
448,192,129000,1,0,0:0:0:0:
192,192,129250,1,0,0:0:0:0:
64,192,129500,1,0,0:0:0:0:
320,192,129750,1,0,0:0:0:0:
448,192,129750,1,0,0:0:0:0:
192,192,130000,1,0,0:0:0:0:
320,192,130250,1,0,0:0:0:0:
192,192,130500,1,0,0:0:0:0:
64,192,130500,1,0,0:0:0:0:
320,192,130750,1,0,0:0:0:0:
192,192,131000,1,0,0:0:0:0:
320,192,131250,1,0,0:0:0:0:
448,192,131250,1,0,0:0:0:0:
192,192,131500,1,0,0:0:0:0:
320,192,131750,1,0,0:0:0:0:
192,192,132000,1,0,0:0:0:0:
64,192,132000,1,0,0:0:0:0:
320,192,132250,1,0,0:0:0:0:
448,192,132250,1,0,0:0:0:0:
192,192,132500,1,0,0:0:0:0:
320,192,132500,1,0,0:0:0:0:
64,192,132750,1,0,0:0:0:0:
448,192,132750,1,0,0:0:0:0:
320,192,133000,1,0,0:0:0:0:
192,192,133000,1,0,0:0:0:0:
448,192,133250,1,0,0:0:0:0:
320,192,133500,1,0,0:0:0:0:
192,192,133750,1,0,0:0:0:0:
64,192,133750,1,0,0:0:0:0:
320,192,134000,1,0,0:0:0:0:
448,192,134250,1,0,0:0:0:0:
192,192,134500,1,0,0:0:0:0:
320,192,134500,1,0,0:0:0:0:
64,192,134750,1,0,0:0:0:0:
192,192,135000,1,0,0:0:0:0:
448,192,135250,1,0,0:0:0:0:
320,192,135250,1,0,0:0:0:0:
192,192,135500,1,0,0:0:0:0:
64,192,135750,1,0,0:0:0:0:
448,192,136000,1,0,0:0:0:0:
192,192,136000,1,0,0:0:0:0:
320,192,136250,1,0,0:0:0:0:
448,192,136250,1,0,0:0:0:0:
192,192,136500,1,0,0:0:0:0:
64,192,136500,1,0,0:0:0:0:
448,192,136750,1,0,0:0:0:0:
192,192,137000,1,0,0:0:0:0:
64,192,137000,1,0,0:0:0:0:
320,192,137250,1,0,0:0:0:0:
448,192,137500,1,0,0:0:0:0:
192,192,137750,1,0,0:0:0:0:
64,192,137750,1,0,0:0:0:0:
320,192,138000,1,0,0:0:0:0:
192,192,138250,1,0,0:0:0:0:
320,192,138500,1,0,0:0:0:0:
448,192,138500,1,0,0:0:0:0:
192,192,138750,1,0,0:0:0:0:
320,192,139000,1,0,0:0:0:0:
192,192,139250,1,0,0:0:0:0:
64,192,139250,1,0,0:0:0:0:
320,192,139500,1,0,0:0:0:0:
192,192,139750,1,0,0:0:0:0:
320,192,140000,1,0,0:0:0:0:
448,192,140000,1,0,0:0:0:0:
192,192,140250,1,0,0:0:0:0:
64,192,140250,1,0,0:0:0:0:
320,192,140500,1,0,0:0:0:0:
192,192,140500,1,0,0:0:0:0:
448,192,140750,1,0,0:0:0:0:
64,192,140750,1,0,0:0:0:0:
192,192,141000,1,0,0:0:0:0:
320,192,141000,1,0,0:0:0:0:
64,192,141250,1,0,0:0:0:0:
192,192,141500,1,0,0:0:0:0:
320,192,141750,1,0,0:0:0:0:
448,192,141750,1,0,0:0:0:0:
192,192,142000,1,0,0:0:0:0:
64,192,142250,1,0,0:0:0:0:
320,192,142500,1,0,0:0:0:0:
192,192,142500,1,0,0:0:0:0:
448,192,142750,1,0,0:0:0:0:
320,192,143000,1,0,0:0:0:0:
64,192,143250,1,0,0:0:0:0:
192,192,143250,1,0,0:0:0:0:
320,192,143500,1,0,0:0:0:0:
448,192,143500,1,0,0:0:0:0:
320,192,144000,128,0,144250:0:0:0:0:
192,192,144000,128,0,144250:0:0:0:0:
320,192,144500,128,0,144750:0:0:0:0:
64,192,144500,128,0,144750:0:0:0:0:
64,192,145000,1,0,0:0:0:0:
192,192,145000,1,0,0:0:0:0:
320,192,145250,1,0,0:0:0:0:
448,192,145500,1,0,0:0:0:0:
64,192,145750,1,0,0:0:0:0:
192,192,145750,1,0,0:0:0:0:
320,192,146000,1,0,0:0:0:0:
192,192,146250,1,0,0:0:0:0:
448,192,146500,1,0,0:0:0:0:
320,192,146500,1,0,0:0:0:0:
192,192,146750,1,0,0:0:0:0:
320,192,147000,1,0,0:0:0:0:
64,192,147250,1,0,0:0:0:0:
192,192,147250,1,0,0:0:0:0:
320,192,147500,1,0,0:0:0:0:
192,192,147750,1,0,0:0:0:0:
448,192,148000,1,0,0:0:0:0:
320,192,148000,1,0,0:0:0:0:
64,192,148250,1,0,0:0:0:0:
192,192,148250,1,0,0:0:0:0:
192,192,148500,1,0,0:0:0:0:
320,192,148500,1,0,0:0:0:0:
64,192,148750,1,0,0:0:0:0:
448,192,148750,1,0,0:0:0:0:
320,192,149000,1,0,0:0:0:0:
192,192,149000,1,0,0:0:0:0:
64,192,149250,1,0,0:0:0:0:
192,192,149500,1,0,0:0:0:0:
448,192,149750,1,0,0:0:0:0:
320,192,149750,1,0,0:0:0:0:
192,192,150000,1,0,0:0:0:0:
64,192,150250,1,0,0:0:0:0:
192,192,150500,1,0,0:0:0:0:
320,192,150500,1,0,0:0:0:0:
448,192,150750,1,0,0:0:0:0:
320,192,151000,1,0,0:0:0:0:
192,192,151250,1,0,0:0:0:0:
64,192,151250,1,0,0:0:0:0:
320,192,151500,1,0,0:0:0:0:
448,192,151750,1,0,0:0:0:0:
320,192,152000,1,0,0:0:0:0:
64,192,152000,1,0,0:0:0:0:
64,192,152250,1,0,0:0:0:0:
192,192,152250,1,0,0:0:0:0:
448,192,152500,1,0,0:0:0:0:
320,192,152500,1,0,0:0:0:0:
64,192,152750,1,0,0:0:0:0:
320,192,153000,1,0,0:0:0:0:
448,192,153000,1,0,0:0:0:0:
192,192,153250,1,0,0:0:0:0:
64,192,153500,1,0,0:0:0:0:
320,192,153750,1,0,0:0:0:0:
448,192,153750,1,0,0:0:0:0:
192,192,154000,1,0,0:0:0:0:
320,192,154250,1,0,0:0:0:0:
192,192,154500,1,0,0:0:0:0:
64,192,154500,1,0,0:0:0:0:
320,192,154750,1,0,0:0:0:0:
192,192,155000,1,0,0:0:0:0:
320,192,155250,1,0,0:0:0:0:
448,192,155250,1,0,0:0:0:0:
192,192,155500,1,0,0:0:0:0:
320,192,155750,1,0,0:0:0:0:
192,192,156000,1,0,0:0:0:0:
64,192,156000,1,0,0:0:0:0:
320,192,156250,1,0,0:0:0:0:
448,192,156250,1,0,0:0:0:0:
192,192,156500,1,0,0:0:0:0:
320,192,156500,1,0,0:0:0:0:
64,192,156750,1,0,0:0:0:0:
448,192,156750,1,0,0:0:0:0:
320,192,157000,1,0,0:0:0:0:
192,192,157000,1,0,0:0:0:0:
448,192,157250,1,0,0:0:0:0:
320,192,157500,1,0,0:0:0:0:
192,192,157750,1,0,0:0:0:0:
64,192,157750,1,0,0:0:0:0:
320,192,158000,1,0,0:0:0:0:
448,192,158250,1,0,0:0:0:0:
192,192,158500,1,0,0:0:0:0:
320,192,158500,1,0,0:0:0:0:
64,192,158750,1,0,0:0:0:0:
192,192,159000,1,0,0:0:0:0:
448,192,159250,1,0,0:0:0:0:
320,192,159250,1,0,0:0:0:0:
192,192,159500,1,0,0:0:0:0:
64,192,159500,1,0,0:0:0:0:
448,192,160000,128,0,160250:0:0:0:0:
192,192,160000,128,0,160250:0:0:0:0:
320,192,160500,128,0,160750:0:0:0:0:
448,192,160500,128,0,160750:0:0:0:0:
64,192,161000,1,0,0:0:0:0:
448,192,161250,1,0,0:0:0:0:
64,192,161500,1,0,0:0:0:0:
320,192,161750,1,0,0:0:0:0:
192,192,161875,1,0,0:0:0:0:
448,192,162125,1,0,0:0:0:0:
448,192,162375,128,0,162750:0:0:0:0:
64,192,163000,1,0,0:0:0:0:
448,192,163250,1,0,0:0:0:0:
64,192,163500,1,0,0:0:0:0:
320,192,163750,1,0,0:0:0:0:
192,192,163875,1,0,0:0:0:0:
448,192,164125,1,0,0:0:0:0:
448,192,164375,128,0,164750:0:0:0:0:
64,192,164500,128,0,164750:0:0:0:0:
64,192,165000,1,0,0:0:0:0:
448,192,165250,1,0,0:0:0:0:
64,192,165500,1,0,0:0:0:0:
320,192,165750,1,0,0:0:0:0:
192,192,165875,1,0,0:0:0:0:
448,192,166125,1,0,0:0:0:0:
448,192,166375,128,0,166750:0:0:0:0:
64,192,167000,1,0,0:0:0:0:
448,192,167250,1,0,0:0:0:0:
64,192,167500,1,0,0:0:0:0:
320,192,167750,1,0,0:0:0:0:
192,192,167875,1,0,0:0:0:0:
448,192,168125,1,0,0:0:0:0:
448,192,168375,128,0,168750:0:0:0:0:
64,192,168500,128,0,168750:0:0:0:0:
64,192,169000,1,0,0:0:0:0:
448,192,169250,1,0,0:0:0:0:
64,192,169500,1,0,0:0:0:0:
320,192,169750,1,0,0:0:0:0:
192,192,169875,1,0,0:0:0:0:
448,192,170125,1,0,0:0:0:0:
448,192,170375,128,0,170750:0:0:0:0:
64,192,171000,1,0,0:0:0:0:
448,192,171250,1,0,0:0:0:0:
64,192,171500,1,0,0:0:0:0:
320,192,171750,1,0,0:0:0:0:
192,192,171875,1,0,0:0:0:0:
448,192,172125,1,0,0:0:0:0:
448,192,172375,128,0,172750:0:0:0:0:
64,192,172500,128,0,172750:0:0:0:0:
64,192,173000,1,0,0:0:0:0:
448,192,173250,1,0,0:0:0:0:
64,192,173500,1,0,0:0:0:0:
320,192,173750,1,0,0:0:0:0:
192,192,173875,1,0,0:0:0:0:
448,192,174125,1,0,0:0:0:0:
448,192,174375,128,0,174750:0:0:0:0:
64,192,175000,1,0,0:0:0:0:
192,192,175125,1,0,0:0:0:0:
448,192,175250,1,0,0:0:0:0:
320,192,175375,1,0,0:0:0:0:
192,192,175500,1,0,0:0:0:0:
64,192,175625,1,0,0:0:0:0:
320,192,175875,1,0,0:0:0:0:
192,192,176000,1,0,0:0:0:0:
448,192,176125,1,0,0:0:0:0:
64,192,176250,1,0,0:0:0:0:
320,192,176500,1,0,0:0:0:0:
64,192,177000,1,0,0:0:0:0:
448,192,177250,1,0,0:0:0:0:
64,192,177500,1,0,0:0:0:0:
320,192,177750,1,0,0:0:0:0:
192,192,177875,1,0,0:0:0:0:
448,192,178125,1,0,0:0:0:0:
448,192,178375,128,0,178750:0:0:0:0:
64,192,179000,1,0,0:0:0:0:
448,192,179250,1,0,0:0:0:0:
64,192,179500,1,0,0:0:0:0:
320,192,179750,1,0,0:0:0:0:
192,192,179875,1,0,0:0:0:0:
448,192,180125,1,0,0:0:0:0:
448,192,180375,128,0,180750:0:0:0:0:
64,192,180500,128,0,180750:0:0:0:0:
