osu file format v14

[General]
AudioFilename: audio.mp3
AudioLeadIn: 0
PreviewTime: 55618
Countdown: 0
SampleSet: Soft
StackLeniency: 0.4
Mode: 0
LetterboxInBreaks: 0
WidescreenStoryboard: 1

[Editor]
Bookmarks: 604,11898,23192,28839,40133,50015,55662,57074,58486,59898,61309,62721,64133,65545,66956,68368,69780,71192,72603,74015,75427,76839,77545,78251,79662,88133
DistanceSpacing: 1.2
BeatDivisor: 6
GridSize: 32
TimelineZoom: 2.1

[Metadata]
Title:Tougenkyou Alien (TV Size)
TitleUnicode:桃源郷エイリアン (TV Size)
Artist:serial TV drama
ArtistUnicode:serial TV drama
Creator:Aakki
Version:Normal
Source:銀魂´
Tags:gintama' 2011 togenkyo japanese anime op opening 9 silver soul jrock j-rock rock 1/3 swing eli elinor [_eli_] shirahane_suou shirahane suou dog food dog_food door weapon door_weapon xiced funny joke
BeatmapID:2824241
BeatmapSetID:1361718

[Difficulty]
HPDrainRate:3.5
CircleSize:3.2
OverallDifficulty:4
ApproachRate:5.5
SliderMultiplier:1
SliderTickRate:1

[Events]
//Background and Video events
0,0,"gintama group bg.jpg",0,0
Video,-163,"vid.mp4"
//Break Periods
//Storyboard Layer 0 (Background)
//Storyboard Layer 1 (Fail)
//Storyboard Layer 2 (Pass)
//Storyboard Layer 3 (Foreground)
//Storyboard Layer 4 (Overlay)
//Storyboard Sound Samples

[TimingPoints]
604,352.941176470588,4,2,1,70,1,0
604,-100,4,2,1,70,0,0
10133,-100,4,2,1,70,0,0
10486,-111.111111111111,4,2,1,70,0,0
11898,-111.111111111111,4,2,1,60,0,0
16133,-100,4,2,1,60,0,0
17545,-111.111111111111,4,2,1,60,0,0
21780,-100,4,2,1,60,0,0
23192,-111.111111111111,4,2,1,70,0,0
27074,-111.111111111111,4,2,1,70,0,0
27427,-111.111111111111,4,2,1,70,0,0
28839,-111.111111111111,4,2,1,60,0,0
33074,-100,4,2,1,60,0,0
34486,-111.111111111111,4,2,1,60,0,0
38721,-100,4,2,1,60,0,0
40133,-100,4,2,1,65,0,0
49662,-100,4,2,1,65,0,0
50015,-95.2380952380952,4,2,1,75,0,0
55662,-90.9090909090909,4,2,1,85,0,1
78251,-100,4,2,1,85,0,0
79662,-100,4,2,1,90,0,0
88133,-100,4,2,1,70,0,0

[Colours]
Combo1 : 223,223,223
Combo2 : 255,172,233
Combo3 : 255,142,51
Combo4 : 254,223,80

[HitObjects]
50,123,604,6,0,P|84:107|112:108,1,66.6666666666666,6|2,1:2|0:0,0:0:0:0:
147,126,956,1,10,0:0:0:0:
231,210,1309,2,0,L|307:201,1,66.6666666666666,2|2,1:2|0:0,0:0:0:0:
322,171,1662,1,10,0:0:0:0:
418,98,2015,6,0,B|449:105|449:105|477:120|477:120|523:130,2,100,4|14|2,1:2|0:0|1:2,0:0:0:0:
301,66,3074,2,0,L|224:77,1,66.6666666666666,12|2,0:0|0:0,0:0:0:0:
212,108,3427,6,0,P|173:114|138:95,1,66.6666666666667,0|2,1:0|0:0,0:0:0:0:
116,80,3780,1,10,0:0:0:0:
27,142,4133,2,0,P|17:168|15:216,1,66.6666666666667,2|2,1:2|0:0,0:0:0:0:
24,245,4486,1,10,0:0:0:0:
141,271,4839,6,0,B|178:260|178:260|191:245|191:245|241:227,2,100,4|14|2,1:2|0:0|1:2,0:0:0:0:
174,361,5898,2,0,P|202:374|248:372,1,66.6666666666667,14|2,0:0|0:0,0:0:0:0:
276,384,6251,6,0,L|343:368,1,66.6666666666667,2|2,1:2|0:0,0:0:0:0:
379,358,6603,1,10,0:0:0:0:
341,243,6956,2,0,L|405:258,1,66.6666666666667,2|2,1:2|0:0,0:0:0:0:
442,242,7309,1,10,0:0:0:0:
377,141,7662,6,0,P|346:128|278:153,2,100,6|14|2,1:2|0:0|1:2,0:0:0:0:
456,50,8721,2,0,P|438:42|389:33,1,66.6666666666667,14|2,0:0|0:0,0:0:0:0:
355,15,9074,6,0,B|326:19|326:19|313:26|313:26|279:32,1,66.6666666666667,2|2,1:2|0:0,0:0:0:0:
255,11,9427,1,10,0:0:0:0:
153,75,9780,2,0,B|130:71|130:71|117:64|117:64|88:60,1,66.6666666666667,2|2,1:2|0:0,0:0:0:0:
48,59,10133,1,10,0:0:0:0:
51,166,10486,1,6,1:2:0:0:
51,166,11192,6,0,P|40:202|33:228,1,59.9999981689454,10|10,0:0|0:0,0:0:0:0:
35,259,11545,2,0,P|46:295|53:321,1,59.9999981689454,10|10,0:0|0:0,0:0:0:0:
90,332,11898,6,0,B|113:328|113:328|128:332|128:332|156:323,1,59.9999981689454,6|2,1:2|0:0,0:0:0:0:
183,318,12251,1,8,0:0:0:0:
253,236,12603,1,2,1:2:0:0:
191,147,12956,1,10,0:0:0:0:
88,182,13309,1,2,1:2:0:0:
19,98,13662,1,10,0:0:0:0:
82,10,14015,2,0,P|119:4|178:28,1,89.9999972534181,2|8,1:2|0:0,0:0:0:0:
233,106,14721,6,0,B|261:95|261:95|296:108,1,59.9999981689454,4|2,1:2|0:0,0:0:0:0:
321,121,15074,1,10,0:0:0:0:
391,202,15427,1,2,1:2:0:0:
318,281,15780,1,10,0:0:0:0:
203,245,16133,6,0,B|171:249|171:249|166:253|166:253|137:257,1,66.6666666666667,6|2,1:2|0:0,0:0:0:0:
99,245,16486,1,14,0:0:0:0:
53,356,16839,2,0,B|85:360|85:360|90:364|90:364|119:368,1,66.6666666666667,6|2,1:2|0:0,0:0:0:0:
157,356,17192,1,14,0:0:0:0:
258,320,17545,6,0,P|295:314|323:332,1,59.9999981689454,4|2,1:2|0:0,0:0:0:0:
342,345,17898,1,10,0:0:0:0:
443,309,18251,1,2,1:2:0:0:
433,201,18603,1,10,0:0:0:0:
327,177,18956,2,0,L|257:187,1,59.9999981689454,2|2,1:2|0:0,0:0:0:0:
232,193,19309,1,10,0:0:0:0:
136,142,19662,2,0,B|127:113|127:113|130:96|130:96|119:52,1,89.9999972534181,2|8,1:2|0:0,0:0:0:0:
218,11,20368,6,0,L|281:23,1,59.9999981689454,4|2,1:2|0:0,0:0:0:0:
311,31,20721,1,8,0:0:0:0:
362,125,21074,1,2,1:2:0:0:
268,178,21427,1,10,0:0:0:0:
166,114,21780,6,0,P|136:104|91:110,1,66.6666666666667,6|0,1:2|0:0,0:0:0:0:
62,116,22133,1,14,0:0:0:0:
0,219,22486,2,0,P|47:227|71:233,1,66.6666666666667,6|8,1:2|0:0,0:0:0:0:
90,262,22839,2,0,P|137:254|161:248,1,66.6666666666667,14|8,0:0|0:0,0:0:0:0:
184,228,23192,6,0,L|248:219,1,59.9999981689454,6|2,1:2|0:0,0:0:0:0:
279,224,23545,1,10,0:0:0:0:
356,149,23898,2,0,L|292:140,1,59.9999981689454,2|2,1:2|0:0,0:0:0:0:
270,116,24251,1,10,0:0:0:0:
207,23,24603,6,0,B|167:31|167:31|164:34|164:34|114:44,2,89.9999972534181,4|14|2,1:2|0:0|1:2,0:0:0:0:
309,58,25662,2,0,L|374:69,1,59.9999981689454,12|2,0:0|0:0,0:0:0:0:
394,92,26015,6,0,L|453:81,1,59.9999981689454,0|2,1:0|0:0,0:0:0:0:
488,77,26368,1,10,0:0:0:0:
503,183,26721,2,0,P|493:212|486:252,1,59.9999981689454,2|2,1:2|0:0,0:0:0:0:
500,274,27074,1,10,0:0:0:0:
428,355,27427,1,6,1:2:0:0:
428,355,28133,6,0,P|400:340|366:342,1,59.9999981689454,10|10,0:0|0:0,0:0:0:0:
342,319,28486,2,0,P|314:334|280:332,1,59.9999981689454,10|10,0:0|0:0,0:0:0:0:
256,356,28839,6,0,P|221:373|192:368,1,59.9999981689454,4|2,1:2|0:0,0:0:0:0:
167,356,29192,1,8,0:0:0:0:
97,273,29545,1,2,1:2:0:0:
166,190,29898,1,10,0:0:0:0:
269,221,30251,2,0,L|337:214,1,59.9999981689454,2|2,1:2|0:0,0:0:0:0:
360,231,30603,1,10,0:0:0:0:
447,167,30956,2,0,P|464:142|454:77,1,89.9999972534181,2|8,1:2|0:0,0:0:0:0:
377,13,31662,6,0,P|348:17|307:21,1,59.9999981689454,4|2,1:2|0:0,0:0:0:0:
288,42,32015,1,10,0:0:0:0:
187,1,32368,1,2,1:2:0:0:
121,86,32721,1,10,0:0:0:0:
207,168,33074,6,0,B|220:197|220:197|209:234,1,66.6666666666667,6|2,1:2|0:0,0:0:0:0:
192,266,33427,1,14,0:0:0:0:
81,313,33780,2,0,B|68:284|68:284|79:247,1,66.6666666666667,6|2,1:2|0:0,0:0:0:0:
96,215,34133,1,14,0:0:0:0:
172,139,34486,6,0,B|209:132|191:126|239:115,1,59.9999981689454,4|2,1:2|0:0,0:0:0:0:
261,130,34839,1,10,0:0:0:0:
353,184,35192,1,2,1:2:0:0:
425,104,35545,1,10,0:0:0:0:
380,5,35898,2,0,P|335:11|318:12,1,59.9999981689454,2|2,1:2|0:0,0:0:0:0:
287,26,36251,1,8,0:0:0:0:
182,53,36603,2,0,B|151:48|151:48|131:37|131:37|91:30,1,89.9999972534181,2|8,1:2|0:0,0:0:0:0:
70,136,37309,6,0,P|119:133|137:133,1,59.9999981689454,4|2,1:2|0:0,0:0:0:0:
160,151,37662,1,10,0:0:0:0:
239,224,38015,1,2,1:2:0:0:
345,204,38368,1,10,0:0:0:0:
427,291,38721,6,0,P|437:337|430:363,1,66.6666666666667,6|2,1:2|0:0,0:0:0:0:
404,383,39074,1,14,0:0:0:0:
295,332,39427,2,0,P|290:295|279:265,1,66.6666666666667,6|8,1:2|3:0,0:0:0:0:
259,233,39780,2,0,P|264:196|275:166,1,66.6666666666667,6|6,1:2|3:0,0:0:0:0:
256,132,40133,6,0,L|144:146,1,100,6|10,1:2|0:0,0:0:0:0:
95,19,40839,2,0,L|207:33,1,100,2|10,1:2|0:0,0:0:0:0:
285,110,41545,2,0,L|362:99,1,66.6666666666667,2|2,1:2|0:0,0:0:0:0:
390,95,41898,1,10,0:0:0:0:
449,199,42251,2,0,L|372:188,1,66.6666666666667,2|2,1:2|0:0,0:0:0:0:
344,184,42604,1,8,0:0:0:0:
265,274,42956,6,0,P|220:296|150:268,1,100,6|10,1:2|0:0,0:0:0:0:
68,226,43662,2,0,P|46:181|74:111,1,100,2|10,1:2|0:0,0:0:0:0:
134,43,44368,2,0,L|221:61,1,66.6666666666667,2|2,1:2|0:0,0:0:0:0:
238,66,44721,1,10,0:0:0:0:
311,160,45074,2,0,L|224:178,1,66.6666666666667,2|2,1:2|0:0,0:0:0:0:
207,183,45427,1,10,0:0:0:0:
136,279,45780,6,0,P|135:325|197:376,1,100,6|10,1:2|0:0,0:0:0:0:
276,315,46486,2,0,B|337:306|315:348|383:336,1,100,2|10,1:2|0:0,0:0:0:0:
476,282,47192,2,0,P|489:246|487:215,1,66.6666666666667,2|2,1:2|0:0,0:0:0:0:
464,185,47545,1,8,0:0:0:0:
348,216,47898,2,0,P|335:180|337:149,1,66.6666666666667,2|2,1:2|0:0,0:0:0:0:
360,119,48251,1,8,0:0:0:0:
318,6,48603,6,0,B|262:12|292:42|213:52,1,100,6|10,1:2|0:0,0:0:0:0:
113,21,49309,1,2,1:2:0:0:
30,108,49662,1,10,0:0:0:0:
83,221,50015,6,0,B|128:226|129:198|192:206,1,104.999996795654,6|14,1:2|0:0,0:0:0:0:
260,306,50721,2,0,B|316:298|301:325|362:321,1,104.999996795654,6|14,1:2|0:0,0:0:0:0:
479,368,51427,2,0,P|487:327|494:296,1,69.9999978637696,6|0,1:2|1:0,0:0:0:0:
508,260,51780,1,14,0:0:0:0:
383,241,52133,2,0,B|375:200|371:184|368:169,1,69.9999978637696,6|0,1:2|1:0,0:0:0:0:
354,133,52486,1,14,0:0:0:0:
249,61,52839,6,0,L|119:41,1,104.999996795654,10|10,0:0|0:0,0:0:0:0:
90,159,53545,2,0,L|220:139,1,104.999996795654,10|10,0:0|0:0,0:0:0:0:
314,123,54251,5,2,1:2:0:0:
314,123,55309,5,10,3:0:0:0:
314,123,55662,6,0,P|392:111|425:133,1,110.000003356934,6|8,1:2|0:0,0:0:0:0:
500,212,56368,2,0,P|490:276|487:282,1,55.0000016784668,10|0,0:0|1:0,0:0:0:0:
506,325,56721,2,0,P|453:363|447:365,1,55.0000016784668,8|0,0:0|1:0,0:0:0:0:
403,369,57074,2,0,L|267:344,1,110.000003356934,10|8,0:0|0:0,0:0:0:0:
188,289,57780,1,10,0:0:0:0:
203,168,58133,2,0,P|267:157|282:153,1,55.0000016784668,10|0,0:0|1:0,0:0:0:0:
313,136,58486,5,14,0:0:0:0:
422,186,58839,1,10,0:0:0:0:
500,93,59192,2,0,P|481:63|458:45,1,55.0000016784668,10|0,0:0|1:0,0:0:0:0:
418,13,59545,2,0,P|383:5|354:8,1,55.0000016784668,10|0,0:0|1:0,0:0:0:0:
311,36,59898,2,0,B|253:46|281:77|206:91,1,110.000003356934,10|8,0:0|0:0,0:0:0:0:
98,67,60603,1,8,0:0:0:0:
16,156,60956,2,0,P|0:197|1:209,1,55.0000016784668,8|0,0:0|1:0,0:0:0:0:
23,263,61309,6,0,B|69:263|69:263|88:271|88:271|150:273,1,110.000003356934,14|8,0:0|0:0,0:0:0:0:
227,346,62015,2,0,L|291:338,1,55.0000016784668,10|0,0:0|1:0,0:0:0:0:
310,285,62368,2,0,L|364:291,1,55.0000016784668,8|0,0:0|1:0,0:0:0:0:
420,269,62721,2,0,P|426:225|379:157,1,110.000003356934,10|10,0:0|0:0,0:0:0:0:
292,105,63427,1,10,0:0:0:0:
197,180,63780,2,0,P|158:196|124:201,1,55.0000016784668,10|0,0:0|1:0,0:0:0:0:
89,175,64133,5,14,0:0:0:0:
52,59,64486,1,10,0:0:0:0:
160,4,64839,2,0,L|227:17,1,55.0000016784668,10|0,0:0|1:0,0:0:0:0:
257,56,65192,2,0,L|310:45,1,55.0000016784668,10|0,0:0|1:0,0:0:0:0:
370,32,65545,1,10,0:0:0:0:
457,115,65898,1,8,0:0:0:0:
393,218,66251,2,0,P|322:230|317:232,2,55.0000016784668,8|4|8,3:0|3:0|0:0,0:0:0:0:
477,305,66956,6,0,P|489:251|506:187,1,110.000003356934,14|8,0:0|0:0,0:0:0:0:
468,81,67662,2,0,P|437:63|406:53,1,55.0000016784668,10|0,0:0|1:0,0:0:0:0:
376,13,68015,2,0,P|341:22|312:37,1,55.0000016784668,8|0,0:0|1:0,0:0:0:0:
274,64,68368,2,0,B|229:57|229:57|221:47|221:47|153:37,1,110.000003356934,10|8,0:0|0:0,0:0:0:0:
54,75,69074,1,10,0:0:0:0:
20,191,69427,2,0,P|58:183|85:176,1,55.0000016784668,10|0,0:0|1:0,0:0:0:0:
123,214,69780,6,0,P|230:231|240:232,1,110.000003356934,14|10,0:0|0:0,0:0:0:0:
340,177,70486,2,0,P|386:173|406:165,1,55.0000016784668,10|0,0:0|1:0,0:0:0:0:
433,216,70839,2,0,P|460:216|487:222,1,55.0000016784668,10|0,0:0|1:0,0:0:0:0:
502,281,71192,2,0,P|495:340|449:370,1,110.000003356934,10|8,0:0|0:0,0:0:0:0:
345,319,71898,1,8,0:0:0:0:
235,371,72251,2,0,P|197:366|168:362,1,55.0000016784668,8|0,0:0|1:0,0:0:0:0:
128,333,72603,6,0,P|102:295|120:229,1,110.000003356934,14|8,0:0|0:0,0:0:0:0:
223,183,73309,2,0,P|214:152|209:125,1,55.0000016784668,10|0,0:0|1:0,0:0:0:0:
159,96,73662,2,0,P|166:69|172:42,1,55.0000016784668,8|0,0:0|1:0,0:0:0:0:
128,1,74015,2,0,P|87:-11|16:29,1,110.000003356934,10|10,0:0|0:0,0:0:0:0:
11,134,74721,2,0,P|19:167|22:197,1,55.0000016784668,10|0,0:0|1:0,0:0:0:0:
69,225,75074,2,0,P|61:258|58:288,1,55.0000016784668,10|0,0:0|1:0,0:0:0:0:
33,334,75427,5,14,0:0:0:0:
146,375,75780,1,10,0:0:0:0:
220,279,76133,2,0,P|264:269|284:265,1,55.0000016784668,10|0,0:0|1:0,0:0:0:0:
324,233,76486,2,0,P|350:238|377:244,1,55.0000016784668,10|0,0:0|1:0,0:0:0:0:
427,280,76839,6,0,P|421:318|420:340,2,55.0000016784668,10|10|14,0:0|3:0|0:0,0:0:0:0:
495,180,77545,6,0,P|492:152|488:125,2,55.0000016784668,10|10|14,0:0|3:0|0:0,0:0:0:0:
387,204,78251,6,0,B|240:173|292:293|131:241,1,250,6|2,1:2|0:0,0:0:0:0:
107,214,79309,5,8,3:0:0:0:
174,127,79662,6,0,P|187:80|191:50,1,66.6666666666667,6|2,1:2|0:0,0:0:0:0:
183,22,80015,1,10,0:0:0:0:
294,66,80368,2,0,P|307:113|311:143,1,66.6666666666667,10|2,0:0|0:0,0:0:0:0:
304,170,80721,2,0,P|308:207|316:232,1,50,10|0,0:0|1:0,0:0:0:0:
355,260,81074,6,0,L|457:239,2,100,10|10|10,0:0|0:0|0:0,0:0:0:0:
288,360,82133,2,0,L|232:356,1,50,10|0,0:0|1:0,0:0:0:0:
184,329,82486,6,0,L|110:342,1,66.6666666666667,10|2,0:0|0:0,0:0:0:0:
78,348,82839,1,10,0:0:0:0:
8,250,83192,2,0,P|0:225|9:176,1,66.6666666666667,10|2,0:0|0:0,0:0:0:0:
17,147,83545,2,0,L|67:157,1,50,10|2,0:0|1:2,0:0:0:0:
117,187,83898,6,0,B|157:182|157:182|178:170|178:170|216:166,1,100,10|10,0:0|0:0,0:0:0:0:
310,95,84603,1,10,0:0:0:0:
387,187,84956,2,0,P|416:202|436:210,1,50,10|0,0:0|1:0,0:0:0:0:
490,193,85309,6,0,P|501:153|491:119,1,66.6666666666667,10|2,0:0|0:0,0:0:0:0:
471,97,85662,1,10,0:0:0:0:
369,33,86015,2,0,P|329:22|295:32,1,66.6666666666667,10|2,0:0|0:0,0:0:0:0:
273,52,86368,2,0,L|217:46,1,50,10|0,0:0|1:0,0:0:0:0:
164,35,86721,6,0,P|149:77|167:132,1,100,10|10,0:0|0:0,0:0:0:0:
249,214,87427,1,10,0:0:0:0:
172,306,87780,2,0,L|108:300,1,50,10|0,0:0|1:0,0:0:0:0:
62,297,88133,5,6,1:2:0:0:
20,60,88839,1,6,1:2:0:0:
258,30,89545,1,6,1:2:0:0:
