osu file format v14

[General]
AudioFilename: audio.mp3
AudioLeadIn: 0
PreviewTime: 22558
Countdown: 0
SampleSet: Soft
StackLeniency: 0.7
Mode: 0
LetterboxInBreaks: 0
WidescreenStoryboard: 0

[Editor]
DistanceSpacing: 1
BeatDivisor: 4
GridSize: 16
TimelineZoom: 1

[Metadata]
Title:padowo padowo
TitleUnicode:padowo padowo
Artist:senzawa
ArtistUnicode:senzawa
Creator:PotatoDew
Version:padowo
Source:Fate/EXTRA
Tags:hashire sori yo kaze no you ni tsukimihara wo padoru padoru jingle bells japanese virtual youtuber vtuber novelty christmas xmas x-mas cover video game vgm nero claudius caesar augustus germanicus ネロ・クラウディウス・カエサル・アウグストゥス・ゲルマニクス 丹下桜 Tange Sakura フェイト/エクストラ respektive ronaldmcdonald owo
BeatmapID:3370177
BeatmapSetID:1650892

[Difficulty]
HPDrainRate:6
CircleSize:4
OverallDifficulty:8.2
ApproachRate:8.5
SliderMultiplier:1.8
SliderTickRate:1

[Events]
//Background and Video events
0,0,"guwa.jpg",0,0
Video,50,"padowocut.mp4"
//Break Periods
//Storyboard Layer 0 (Background)
//Storyboard Layer 1 (Fail)
//Storyboard Layer 2 (Pass)
//Storyboard Layer 3 (Foreground)
//Storyboard Layer 4 (Overlay)
//Storyboard Sound Samples

[TimingPoints]
499,550.45871559633,4,2,1,50,1,0
499,-142.857142857143,4,2,1,50,0,0
4902,-90.9090909090909,4,2,1,55,0,0
13710,-50,4,2,1,60,0,0
14260,-66.6666666666667,4,2,1,60,0,0
14810,-55.5555555555556,4,2,1,60,0,0
15361,-47.6190476190476,4,2,1,60,0,0
15911,-50,4,2,1,60,0,0
16462,-66.6666666666667,4,2,1,60,0,0
17012,-90.9090909090909,4,2,1,55,0,0
20355,550.45871559633,4,2,1,55,1,0
22006,-76.9230769230769,4,2,1,68,0,0
22556,-50,4,2,1,68,0,0
30813,-25,4,2,1,68,0,0
31364,-50,4,2,1,68,0,0
34666,-43.4782608695652,4,2,1,68,0,0
34942,-29.4117647058824,4,2,1,68,0,0
35217,-45.4545454545455,4,2,1,68,0,0
35767,-33.3333333333333,4,2,1,68,0,0
36868,-50,4,2,1,68,0,0
37969,-43.4782608695652,4,2,1,68,0,0
38520,-38.4615384615385,4,2,1,68,0,0
39070,-33.3333333333333,4,2,1,68,0,1
39896,-33.3333333333333,4,2,1,5,0,0

[Colours]
Combo1 : 223,223,223
Combo2 : 155,222,255
Combo3 : 255,125,125

[HitObjects]
280,62,499,6,0,P|287:111|292:144,3,62.9999980773926,2|0|0|0,3:2|0:0|0:0|0:0,0:0:0:0:
361,47,1599,2,0,P|368:96|373:129,3,62.9999980773926,2|0|0|0,3:2|0:0|0:0|0:0,0:0:0:0:
442,32,2700,2,0,P|449:81|454:114,3,62.9999980773926,2|0|0|0,3:2|0:0|0:0|0:0,0:0:0:0:
484,233,3801,5,2,3:2:0:0:
225,93,4352,1,2,3:2:0:0:
162,154,4627,5,2,0:0:0:0:
162,154,4765,1,2,0:0:0:0:
162,154,4902,2,0,P|118:142|46:129,1,99.0000030212403,2|2,3:2|0:3,0:0:0:0:
266,264,5453,2,0,P|310:252|382:239,1,99.0000030212403,2|2,3:2|0:3,0:0:0:0:
126,384,6003,6,0,P|113:320|97:261,2,99.0000030212403,2|2|0,3:2|0:3|3:0,0:0:0:0:
47,230,6829,2,0,P|18:222|-10:216,1,49.5000015106202,2|2,0:2|0:0,0:0:0:0:
162,92,7104,6,0,P|111:82|108:9,1,99.0000030212403,2|2,3:2|0:3,0:0:0:0:
235,161,7517,1,2,0:2:0:0:
235,161,7654,2,0,P|220:221|216:277,1,99.0000030212403,2|2,3:2|0:3,0:0:0:0:
409,186,8205,6,0,B|308:157|368:96|262:66,1,198.000006042481,2|0,3:2|3:0,0:0:0:0:
139,203,9031,5,2,0:0:0:0:
139,203,9168,1,2,0:0:0:0:
139,203,9306,2,0,P|148:267|151:314,1,99.0000030212403,2|2,3:2|0:3,0:0:0:0:
33,100,9856,2,0,P|42:36|45:-11,1,99.0000030212403,2|2,3:2|0:3,0:0:0:0:
250,76,10407,6,0,P|182:93|128:108,2,99.0000030212403,2|2|0,3:2|0:3|3:0,0:0:0:0:
401,7,11232,2,0,P|438:13|468:18,1,49.5000015106202,2|2,0:0|0:0,0:0:0:0:
506,87,11508,5,2,3:2:0:0:
348,214,11783,1,2,0:0:0:0:
490,220,12058,5,2,3:2:0:0:
349,95,12333,1,2,0:2:0:0:
200,189,12609,2,0,P|212:267|218:308,2,99.0000030212403,2|2|0,3:2|0:3|3:0,0:0:0:0:
280,341,13434,2,0,P|316:349|341:354,1,49.5000015106202,2|2,0:0|0:0,0:0:0:0:
102,155,13710,6,0,B|9:202|-13:172|-26:100|10:56|38:93|19:174|89:161|124:169|153:91,1,270,2|0,3:2|0:0,0:1:0:0:
92,60,14260,6,0,B|62:103|62:103|102:173|128:287,1,202.500007724762,2|0,3:2|0:0,0:0:0:0:
180,367,14810,6,0,B|159:343|139:313|181:257|209:277|210:318|235:337|279:318|293:269|265:241|227:243|212:250|198:257|182:272|187:286,1,242.999992584229,2|0,3:2|0:0,0:0:0:0:
43,268,15361,6,0,P|206:309|396:344,1,283.499991348267,0|0,3:2|0:0,0:0:0:0:
405,254,15911,6,0,B|381:268|350:250|324:227|307:190|311:162|340:83|400:59|452:133|446:169|422:184|397:191|370:194|338:184,1,270,2|0,3:2|0:0,0:0:0:0:
492,235,16462,6,0,B|384:217|425:154|298:139,1,202.500007724762,2|0,3:2|0:0,0:0:0:0:
229,166,17012,6,0,P|244:94|253:44,2,99.0000030212403,2|2|0,3:2|0:3|3:0,0:0:0:0:
56,215,17838,5,2,0:0:0:0:
56,215,17976,1,2,0:0:0:0:
56,215,18113,2,0,P|91:265|143:264,1,99.0000030212403,2|2,3:2|0:3,0:0:0:0:
280,340,18664,2,0,P|218:353|172:364,1,99.0000030212403,2|2,3:2|0:3,0:0:0:0:
339,274,19076,1,2,0:0:0:0:
339,274,19214,6,0,P|351:205|361:160,1,99.0000030212403,2|2,3:2|0:3,0:0:0:0:
266,21,19765,2,0,B|193:40|240:101|150:121,1,148.50000453186,2|0,3:2|0:0,0:0:0:0:
92,61,20355,5,2,3:2:0:0:
218,274,20629,1,2,0:0:0:0:
352,110,20904,5,2,3:2:0:0:
98,191,21180,1,2,0:0:0:0:
362,119,21455,1,2,3:2:0:0:
362,119,22006,2,0,P|376:202|388:317,1,175.499991966248,6|0,3:2|0:0,0:0:0:0:
325,353,22556,6,0,P|286:337|273:282,1,90,2|0,3:2|0:0,0:0:0:0:
171,119,22832,2,0,P|176:160|135:199,1,90,2|0,0:2|0:0,0:0:0:0:
6,320,23107,2,0,P|98:296|213:273,1,180,2|2,1:2|0:3,0:0:0:0:
370,108,23657,6,0,P|317:96|262:88,1,90,2|0,3:2|0:0,0:0:0:0:
45,34,23932,2,0,P|98:22|153:14,1,90,2|0,0:2|0:0,0:0:0:0:
299,178,24208,2,0,P|208:151|208:59,1,180,2|2,1:2|0:3,0:0:0:0:
470,245,24758,6,0,P|479:296|490:345,1,90,2|0,3:2|0:0,0:0:0:0:
400,353,25033,2,0,P|391:302|380:253,1,90,2|0,0:0|0:0,0:0:0:0:
125,161,25309,6,0,P|116:212|105:261,1,90,2|0,1:2|0:0,0:0:0:0:
195,269,25584,2,0,P|204:218|215:169,1,90,2|0,0:0|0:0,0:0:0:0:
395,145,25859,5,2,3:2:0:0:
294,252,26134,1,2,0:3:0:0:
28,168,26410,2,0,P|38:110|155:91,1,180,0|2,1:2|0:3,0:0:0:0:
273,339,26960,6,0,P|282:295|293:251,1,90,2|0,3:2|0:0,0:0:0:0:
505,110,27235,5,2,0:0:0:0:
464,97,27327,1,2,0:0:0:0:
431,122,27419,1,2,0:0:0:0:
410,115,27510,2,0,P|331:133|223:162,1,180,2|2,1:2|0:3,0:0:0:0:
0,311,28061,6,0,P|33:356|95:355,1,90,2|0,3:2|0:0,0:0:0:0:
180,241,28336,2,0,P|124:247|94:301,1,90,2|0,0:0|0:0,0:0:0:0:
71,39,28611,2,0,P|46:141|29:246,1,180,2|2,1:2|0:3,0:0:0:0:
292,366,29162,6,0,P|353:359|375:314,1,90,2|0,3:2|0:0,0:0:0:0:
343,263,29437,2,0,P|282:270|260:315,1,90,2|0,0:0|0:0,0:0:0:0:
139,160,29712,6,0,P|172:188|215:186,1,90,2|0,1:2|0:0,0:0:0:0:
241,110,29988,2,0,P|207:81|164:83,1,90,2|0,0:0|0:0,0:0:0:0:
436,166,30263,6,0,P|446:220|451:246,1,45,2|0,1:0|0:0,0:0:0:0:
505,261,30813,2,2,B|515:305|455:369|361:389|256:355|210:296|174:209|211:139|188:41|410:21|379:137|354:248|288:233,1,630,6|0,1:1|0:0,0:1:0:0:
337,200,31364,6,0,P|272:181|263:140,1,90,2|0,3:2|0:0,0:0:0:0:
140,302,31639,2,0,P|188:255|228:267,1,90,2|0,0:0|0:0,0:0:0:0:
148,83,31914,2,0,P|124:172|32:143,1,180,2|2,1:2|0:3,0:0:0:0:
335,11,32465,6,0,P|400:2|466:-5,1,90,2|0,3:2|0:0,0:0:0:0:
363,177,32740,2,0,P|298:186|232:193,1,90,2|0,0:0|0:0,0:0:0:0:
487,77,33015,2,0,P|361:93|232:111,1,180,2|2,1:2|0:3,0:0:0:0:
73,253,33566,6,0,P|63:204|43:148,1,90,2|0,3:2|0:0,0:0:0:0:
176,76,33841,2,0,P|162:118|153:162,1,90,2|0,0:0|0:0,0:0:0:0:
169,246,34116,6,0,P|155:288|146:332,1,90,2|0,1:2|0:0,0:0:0:0:
78,86,34391,2,0,P|69:41|55:0,1,90,2|0,0:0|0:0,0:0:0:0:
275,162,34666,6,0,B|306:167|306:167|323:167|323:167|347:161|397:132,1,103.500001974106,2|0,1:3|0:0,0:0:0:0:
500,374,34942,6,0,B|474:396|414:379|411:362|411:362|379:340|398:276,1,153.000002918243,2|0,1:3|0:0,0:0:0:0:
469,107,35217,6,0,B|496:171|468:211|468:211|455:207|455:207|422:239|367:228,1,198.000006042481,2|2,1:2|0:3,0:0:0:0:
28,339,35767,6,2,P|134:320|204:313,1,135.000005149842,2|0,3:1|0:0,0:1:0:0:
137,96,36043,2,2,P|31:115|-39:122,1,135.000005149842,2|0,0:1|0:0,0:1:0:0:
255,359,36318,2,2,P|243:249|92:233,1,270.000010299683,2|2,1:1|0:3,0:1:0:0:
313,26,36868,6,0,P|342:67|396:66,1,90,2|0,3:2|0:0,0:0:0:0:
509,155,37143,2,0,P|458:159|432:206,1,90,2|0,0:0|0:0,0:0:0:0:
363,335,37419,2,0,P|340:225|312:142,1,180,2|2,1:2|0:3,0:0:0:0:
47,66,37969,6,0,P|104:78|175:98,1,103.500001974106,2|0,3:2|0:0,0:0:0:0:
32,155,38244,2,0,P|89:167|160:187,1,103.500001974106,2|0,0:0|0:0,0:0:0:0:
364,335,38520,6,0,P|291:354|233:372,1,116.999994644165,2|0,1:2|0:0,0:0:0:0:
335,249,38795,2,0,P|262:268|204:286,1,116.999994644165,2|0,0:0|0:0,0:0:0:0:
484,7,39070,6,0,P|461:78|448:153,1,135.000005149842,6|0,3:1|0:0,0:0:0:0:
222,185,39345,6,0,P|235:118|255:54,1,135.000005149842,6|0,0:1|0:0,0:0:0:0:
17,353,39621,6,0,P|38:219|76:90,1,270.000010299683,6|0,1:1|0:0,0:0:0:0:
