osu file format v14

[General]
AudioFilename: audio.mp3
AudioLeadIn: 0
PreviewTime: 12925
Countdown: 1
SampleSet: Normal
StackLeniency: 0.9
Mode: 0
LetterboxInBreaks: 0
WidescreenStoryboard: 1

[Editor]
Bookmarks: 44125,44925
DistanceSpacing: 1
BeatDivisor: 4
GridSize: 32
TimelineZoom: 1

[Metadata]
Title:i turned a bad copypasta into a bad rap
TitleUnicode:i turned a bad copypasta into a bad rap
Artist:senzawa
ArtistUnicode:senzawa
Creator:danreactor
Version:u so warm...
Source:https://www.youtube.com/channel/UCTUHzVzRwN_2x13IWQ9QVNg
Tags:rap, sensawa, hip-hop, comedy, copypasta
BeatmapID:1937032
BeatmapSetID:927402

[Difficulty]
HPDrainRate:4
CircleSize:2
OverallDifficulty:3
ApproachRate:5.5
SliderMultiplier:1.5
SliderTickRate:1

[Events]
//Background and Video events
Video,0,"creepypasta.avi"
0,0,"img.jpg",0,0
//Break Periods
//Storyboard Layer 0 (Background)
//Storyboard Layer 1 (Fail)
//Storyboard Layer 2 (Pass)
//Storyboard Layer 3 (Foreground)
//Storyboard Sound Samples

[TimingPoints]
125,400,4,1,0,100,1,0
12925,-100,4,1,0,80,0,0

[HitObjects]
255,192,125,5,8,0:0:0:0:
256,192,3325,5,8,0:0:0:0:
255,192,6525,5,8,0:0:0:0:
254,192,9725,5,8,0:0:0:0:
176,82,12925,5,4,0:0:0:0:
326,82,13325,1,0,0:0:0:0:
396,214,13725,2,0,P|256:272|112:217,1,300
240,132,14925,1,0,0:0:0:0:
121,225,15325,2,0,P|259:275|400:232,1,300,0|4,0:0|0:0,0:0:0:0:
301,130,16525,5,0,0:0:0:0:
160,182,16925,1,0,0:0:0:0:
235,311,17325,2,0,P|381:249|362:121,1,300
224,170,18525,1,0,0:0:0:0:
136,48,18925,2,0,P|68:70|58:141,1,150,0|4,0:0|0:0,0:0:0:0:
208,157,19725,5,0,0:0:0:0:
353,194,20125,1,0,0:0:0:0:
291,330,20525,2,0,P|204:211|209:64,1,300
355,102,21725,1,0,0:0:0:0:
205,110,22125,2,0,P|235:177|298:216,1,150,0|4,0:0|0:0,0:0:0:0:
371,84,22925,5,0,0:0:0:0:
437,218,23325,1,0,0:0:0:0:
316,307,23725,2,0,P|181:198|236:105,1,300
361,81,24925,1,0,0:0:0:0:
401,225,25325,2,0,P|349:278|277:297,1,150,0|4,0:0|0:0,0:0:0:0:
172,190,26125,5,0,0:0:0:0:
43,112,26525,1,0,0:0:0:0:
184,61,26925,2,0,P|322:64|462:146,1,300
422,289,28125,1,0,0:0:0:0:
272,275,28525,2,0,L|104:273,1,150,0|4,0:0|0:0,0:0:0:0:
110,127,29325,5,0,0:0:0:0:
245,62,29725,1,0,0:0:0:0:
379,128,30125,2,0,P|334:240|169:285,1,300
185,136,31325,1,0,0:0:0:0:
162,284,31725,2,0,P|231:304|311:288,1,150,0|4,0:0|0:0,0:0:0:0:
375,156,32525,5,0,0:0:0:0:
257,63,32925,1,0,0:0:0:0:
165,182,33325,2,0,P|212:247|295:258,1,150
244,91,35325,5,4,0:0:0:0:
388,130,35725,1,0,0:0:0:0:
346,274,36125,2,0,P|259:274|193:220,1,150
452,65,37325,1,0,0:0:0:0:
428,213,37725,2,0,P|301:279|128:226,1,300,0|4,0:0|0:0,0:0:0:0:
135,97,38925,5,0,0:0:0:0:
282,72,39325,1,0,0:0:0:0:
199,197,39725,2,0,P|338:252|463:187,1,300
338,114,40925,1,0,0:0:0:0:
199,172,41325,2,0,P|113:176|46:219,1,150,0|4,0:0|0:0,0:0:0:0:
167,310,42125,5,0,0:0:0:0:
316,300,42525,1,0,0:0:0:0:
347,150,42925,2,0,P|265:144|188:173,1,150
350,147,43725,1,0,0:0:0:0:
424,154,44925,5,4,0:0:0:0:
309,58,45325,1,0,0:0:0:0:
171,117,45725,2,0,P|246:244|408:315,1,300
455,182,46925,1,0,0:0:0:0:
341,83,47325,2,0,L|56:199,1,300,0|4,0:0|0:0,0:0:0:0:
157,313,48525,5,0,0:0:0:0:
329,298,48925,1,0,0:0:0:0:
369,153,49325,2,0,L|221:227,1,150
101,150,50125,1,0,0:0:0:0:
261,65,50525,2,0,P|386:149|445:312,1,300,0|4,0:0|0:0,0:0:0:0:
256,192,51725,12,0,56925,0:0:0:0:
