osu file format v14

[General]
AudioFilename: audio.mp3
AudioLeadIn: 0
PreviewTime: 12925
Countdown: 1
SampleSet: Normal
StackLeniency: 0.7
Mode: 0
LetterboxInBreaks: 0
WidescreenStoryboard: 1

[Editor]
Bookmarks: 44125,44925
DistanceSpacing: 0.1
BeatDivisor: 4
GridSize: 32
TimelineZoom: 1

[Metadata]
Title:i turned a bad copypasta into a bad rap
TitleUnicode:i turned a bad copypasta into a bad rap
Artist:senzawa
ArtistUnicode:senzawa
Creator:danreactor
Version:PLEASE ADOPT ME!!!
Source:https://www.youtube.com/channel/UCTUHzVzRwN_2x13IWQ9QVNg
Tags:rap, sensawa, hip-hop, comedy, copypasta
BeatmapID:1937031
BeatmapSetID:927402

[Difficulty]
HPDrainRate:6
CircleSize:5
OverallDifficulty:7
ApproachRate:8
SliderMultiplier:2
SliderTickRate:1

[Events]
//Background and Video events
Video,0,"creepypasta.avi"
0,0,"img.jpg",0,0
//Break Periods
//Storyboard Layer 0 (Background)
//Storyboard Layer 1 (Fail)
//Storyboard Layer 2 (Pass)
//Storyboard Layer 3 (Foreground)
//Storyboard Sound Samples

[TimingPoints]
125,400,4,1,0,100,1,0
12925,-100,4,1,0,80,0,0

[HitObjects]
257,193,125,5,0,0:0:0:0:
257,193,925,1,0,0:0:0:0:
257,193,1725,1,0,0:0:0:0:
257,193,2525,1,0,0:0:0:0:
257,193,3325,1,0,0:0:0:0:
257,193,4125,1,0,0:0:0:0:
257,193,4925,1,0,0:0:0:0:
257,193,5725,1,0,0:0:0:0:
257,193,6525,1,0,0:0:0:0:
257,193,7325,1,0,0:0:0:0:
257,193,8125,1,0,0:0:0:0:
257,193,8925,1,0,0:0:0:0:
257,193,9725,1,0,0:0:0:0:
257,193,10525,1,0,0:0:0:0:
257,193,11325,1,0,0:0:0:0:
257,193,12125,1,0,0:0:0:0:
140,80,12925,5,4,0:0:0:0:
339,81,13325,6,0,P|412:130|440:168,1,100
329,183,13725,1,0,0:0:0:0:
395,257,13925,1,0,0:0:0:0:
320,323,14125,2,0,P|261:331|209:322,1,100
131,282,14525,1,0,0:0:0:0:
101,241,14625,1,0,0:0:0:0:
106,195,14725,1,0,0:0:0:0:
129,97,14925,2,0,B|224:45|319:97,1,200
364,121,15425,1,0,0:0:0:0:
401,213,15625,2,0,B|412:269|412:269|334:267|334:267|361:317|361:317|296:325,1,250,0|4,0:0|0:0,0:0:0:0:
172,338,16525,5,0,0:0:0:0:
73,335,16725,1,0,0:0:0:0:
124,250,16925,1,0,0:0:0:0:
80,159,17125,2,0,P|64:109|129:88,1,100,0|0,0:0|0:0,2:0:0:0:
192,49,17525,1,0,0:0:0:0:
291,52,17725,2,0,L|432:56,1,100
454,132,18125,1,0,0:0:0:0:
463,181,18225,1,0,0:0:0:0:
445,227,18325,1,0,0:0:0:0:
345,227,18525,2,0,L|229:227,1,100
164,286,18925,2,0,P|276:249|283:176,1,200,0|4,0:0|0:0,0:0:0:0:
255,100,19725,5,0,0:0:0:0:
197,191,19925,1,0,0:0:0:0:
255,274,20125,1,0,0:0:0:0:
311,191,20325,1,0,0:0:0:0:
264,105,20525,2,0,P|229:72|177:115,1,100
111,156,20925,1,0,0:0:0:0:
105,255,21125,1,0,0:0:0:0:
191,307,21325,2,0,L|311:364,1,100
379,327,21725,1,0,0:0:0:0:
412,289,21825,1,0,0:0:0:0:
434,244,21925,1,0,0:0:0:0:
466,149,22125,2,0,P|423:62|296:74,1,200,0|4,0:0|0:0,0:0:0:0:
291,72,22925,5,0,0:0:0:0:
192,88,23125,1,0,0:0:0:0:
128,165,23325,1,0,0:0:0:0:
116,263,23525,1,0,0:0:0:0:
158,351,23725,2,0,L|281:351,1,100
350,321,24125,1,0,0:0:0:0:
386,286,24225,1,0,0:0:0:0:
414,244,24325,1,0,0:0:0:0:
424,144,24525,2,0,P|366:59|245:40,1,200
241,128,25125,1,0,0:0:0:0:
146,95,25325,2,0,P|100:163|68:264,1,150,0|4,0:0|0:0,0:0:0:0:
80,274,25725,5,0,0:0:0:0:
163,329,25925,1,0,0:0:0:0:
159,229,26125,1,0,0:0:0:0:
248,274,26325,1,0,0:0:0:0:
248,174,26525,1,0,0:0:0:0:
333,229,26725,1,0,0:0:0:0:
248,274,26925,1,0,0:0:0:0:
154,253,27125,2,0,P|106:222|84:176,1,100
71,86,27525,1,0,0:0:0:0:
109,54,27625,1,0,0:0:0:0:
157,42,27725,1,0,0:0:0:0:
256,42,27925,2,0,L|382:142,1,150
407,172,28325,2,0,L|183:313,1,250,0|4,0:0|0:0,0:0:0:0:
149,324,28925,5,0,0:0:0:0:
93,240,29125,1,0,0:0:0:0:
107,141,29325,1,0,0:0:0:0:
178,70,29525,1,0,0:0:0:0:
239,149,29725,2,0,L|183:248,1,100
225,329,30125,1,0,0:0:0:0:
323,346,30325,1,0,0:0:0:0:
407,292,30525,1,0,0:0:0:0:
454,203,30725,2,0,L|454:102,1,100
364,59,31125,1,0,0:0:0:0:
274,102,31325,2,0,L|161:185,1,100
126,235,31725,2,0,L|314:344,1,200,0|4,0:0|0:0,0:0:0:0:
397,317,32325,5,0,0:0:0:0:
437,225,32525,1,0,0:0:0:0:
426,176,32625,1,0,0:0:0:0:
401,132,32725,2,0,P|353:97|279:88,1,100
216,111,33125,1,0,0:0:0:0:
185,206,33325,2,0,P|215:281|234:201,1,200
156,31,34125,1,0,0:0:0:0:
255,33,34325,1,0,0:0:0:0:
349,66,34525,1,0,0:0:0:0:
383,102,34625,1,0,0:0:0:0:
402,148,34725,2,0,P|348:266|236:220,1,250,0|4,0:0|0:0,0:0:0:0:
105,108,35325,5,0,0:0:0:0:
29,173,35525,1,0,0:0:0:0:
121,211,35725,1,0,0:0:0:0:
200,272,35925,2,0,L|306:321,1,100
390,307,36325,1,0,0:0:0:0:
431,278,36425,1,0,0:0:0:0:
461,238,36525,1,0,0:0:0:0:
441,191,36625,2,0,L|327:44,1,150
318,32,37025,1,0,0:0:0:0:
179,90,37325,1,0,0:0:0:0:
83,120,37525,1,0,0:0:0:0:
162,180,37725,1,0,0:0:0:0:
70,220,37925,1,0,0:0:0:0:
162,256,38125,2,0,L|345:168,1,200,0|4,0:0|0:0,0:0:0:0:
360,100,38925,5,0,0:0:0:0:
270,144,39125,1,0,0:0:0:0:
360,188,39325,1,0,0:0:0:0:
270,231,39525,1,0,0:0:0:0:
197,300,39725,2,0,L|71:271,1,100
88,178,40125,2,0,L|197:148,1,100
278,129,40525,1,0,0:0:0:0:
376,112,40725,1,0,0:0:0:0:
452,175,40925,1,0,0:0:0:0:
448,224,41025,1,0,0:0:0:0:
427,269,41125,1,0,0:0:0:0:
331,297,41325,2,0,L|96:297,1,200,0|4,0:0|0:0,0:0:0:0:
131,297,42125,5,0,0:0:0:0:
88,206,42325,1,0,0:0:0:0:
111,108,42525,1,0,0:0:0:0:
189,45,42725,1,0,0:0:0:0:
289,45,42925,2,0,L|401:45,1,100
465,112,43325,2,0,L|465:345,1,200
416,323,43825,2,0,B|355:350|355:350|299:296,1,100
209,305,44925,5,0,0:0:0:0:
143,229,45125,1,0,0:0:0:0:
143,129,45325,1,0,0:0:0:0:
213,58,45525,1,0,0:0:0:0:
312,60,45725,2,0,L|439:58,1,100
463,144,46125,1,0,0:0:0:0:
463,244,46325,1,0,0:0:0:0:
388,311,46525,2,0,L|168:339,1,200
158,296,47025,2,0,B|105:321|105:321|65:228,1,150
80,137,47525,1,0,0:0:0:0:
134,59,47725,2,0,L|207:57,1,50
233,65,47925,2,0,L|292:152,1,100,0|4,0:0|0:0,0:0:0:0:
345,230,48325,5,0,0:0:0:0:
428,285,48525,1,0,0:0:0:0:
345,341,48725,1,0,0:0:0:0:
262,285,48925,1,0,0:0:0:0:
162,282,49125,2,0,P|95:285|64:245,1,100
45,223,49425,1,0,0:0:0:0:
46,173,49525,1,0,0:0:0:0:
85,142,49625,1,0,0:0:0:0:
130,120,49725,2,0,L|330:25,1,200
342,72,50225,1,0,0:0:0:0:
299,97,50325,1,0,0:0:0:0:
217,154,50525,1,0,0:0:0:0:
215,253,50725,1,0,0:0:0:0:
266,338,50925,2,0,L|454:226,1,200,0|4,0:0|0:0,0:0:0:0:
256,192,51725,12,0,56925,0:0:0:0:
