osu file format v14

[General]
AudioFilename: audio.mp3
AudioLeadIn: 0
PreviewTime: 12594
Countdown: 1
SampleSet: None
StackLeniency: 0.3
Mode: 0
LetterboxInBreaks: 0
WidescreenStoryboard: 0

[Editor]
Bookmarks: 12994,15694,22194,22594,28594,28994,31394,32194,42594,42994,44194,44994
DistanceSpacing: 0.8
BeatDivisor: 4
GridSize: 4
TimelineZoom: 1

[Metadata]
Title:i turned a bad copypasta into a bad rap
TitleUnicode:i turned a bad copypasta into a bad rap
Artist:senzawa
ArtistUnicode:senzawa
Creator:Nibareaux
Version:i turned a bad rap into a bad map
Source:
Tags:
BeatmapID:1889058
BeatmapSetID:905055

[Difficulty]
HPDrainRate:5
CircleSize:4
OverallDifficulty:8
ApproachRate:9.3
SliderMultiplier:2
SliderTickRate:1

[Events]
//Background and Video events
//Break Periods
2,34168,43640
//Storyboard Layer 0 (Background)
//Storyboard Layer 1 (Fail)
//Storyboard Layer 2 (Pass)
//Storyboard Layer 3 (Foreground)
//Storyboard Sound Samples

[TimingPoints]
1794,400,4,1,0,100,1,0
1794,-100,4,1,0,100,0,0
12594,-25,4,1,0,100,0,0
13394,-10,4,1,0,100,0,0
16194,-25,4,1,0,100,0,0
22194,-10,4,1,0,100,0,0
25794,-100,4,1,0,100,0,0
31394,-10,4,1,0,100,0,0
32194,-100,4,1,0,100,0,0
33794,-10,4,1,0,100,0,0
44094,-10,4,1,0,100,0,0
57194,-10000,4,1,0,100,0,0

[HitObjects]
150,68,12594,6,0,B|147:282|147:282|150:68|150:68|249:118|249:118|163:183|163:183|276:290,1,800
89,101,13394,2,0,B|202:222|202:222|152:155|152:155|214:98|214:98|92:221|92:221,1,500
324,64,13594,2,0,B|414:108|340:155|340:155|422:222|334:240|334:240,1,250
145,303,13794,1,0,0:0:0:0:
377,261,13994,1,0,0:0:0:0:
153,77,14194,5,0,0:0:0:0:
210,306,14394,1,0,0:0:0:0:
272,52,14594,5,0,0:0:0:0:
179,288,14794,1,0,0:0:0:0:
60,139,14994,2,0,B|116:278|190:140|190:140|232:235|232:235|257:160|257:160|288:229|288:229|332:138|332:138|411:276|471:103,1,750
422,165,15394,5,0,0:0:0:0:
257,284,15594,1,0,0:0:0:0:
71,200,15794,1,0,0:0:0:0:
255,49,16194,2,0,P|221:213|344:112,1,400
257,139,16594,5,0,0:0:0:0:
312,244,16794,1,0,0:0:0:0:
193,239,16994,1,0,0:0:0:0:
273,114,17194,5,0,0:0:0:0:
321,285,17394,1,0,0:0:0:0:
148,241,17594,1,0,0:0:0:0:
328,83,17794,5,0,0:0:0:0:
306,348,17994,1,0,0:0:0:0:
86,196,18194,1,0,0:0:0:0:
380,111,18394,5,0,0:0:0:0:
255,383,18594,1,0,0:0:0:0:
80,138,18794,1,0,0:0:0:0:
355,264,18994,5,0,0:0:0:0:
256,188,19394,1,0,0:0:0:0:
350,65,19794,5,0,0:0:0:0:
282,145,19994,1,0,0:0:0:0:
214,225,20194,1,0,0:0:0:0:
282,145,20394,1,0,0:0:0:0:
282,145,20594,1,0,0:0:0:0:
214,225,20794,1,0,0:0:0:0:
178,126,20994,1,0,0:0:0:0:
214,225,21194,1,0,0:0:0:0:
282,145,21394,1,0,0:0:0:0:
248,185,21594,1,0,0:0:0:0:
180,265,21794,1,0,0:0:0:0:
316,105,21994,1,0,0:0:0:0:
89,101,22194,6,0,B|202:222|202:222|152:155|152:155|214:98|214:98|92:221|92:221,1,500
397,46,22394,2,0,B|398:194|398:194|338:103|223:236|349:314|405:231|405:231,1,375
121,70,22994,5,0,0:0:0:0:
138,270,23194,1,0,0:0:0:0:
209,75,23394,5,0,0:0:0:0:
191,274,23594,1,0,0:0:0:0:
155,119,23794,5,0,0:0:0:0:
239,301,23994,1,0,0:0:0:0:
374,158,24194,5,0,0:0:0:0:
288,339,24394,1,0,0:0:0:0:
388,313,24594,5,0,0:0:0:0:
303,130,24794,1,0,0:0:0:0:
4,4,24994,5,0,0:0:0:0:
504,376,25194,1,0,0:0:0:0:
508,0,25394,5,0,0:0:0:0:
4,380,25594,1,0,0:0:0:0:
116,108,25794,6,0,P|153:155|211:183,1,100
276,188,26194,1,0,0:0:0:0:
392,240,26394,2,0,P|354:287|296:315,1,100
232,320,26794,1,0,0:0:0:0:
120,252,26994,2,0,L|24:224,2,100
232,219,27594,1,0,0:0:0:0:
135,95,27794,5,0,0:0:0:0:
379,98,27994,1,0,0:0:0:0:
88,165,28194,5,0,0:0:0:0:
416,173,28394,1,0,0:0:0:0:
41,235,28594,5,0,0:0:0:0:
453,248,28794,1,0,0:0:0:0:
147,78,28994,5,0,0:0:0:0:
289,146,29194,1,0,0:0:0:0:
289,146,29294,1,0,0:0:0:0:
289,146,29394,1,0,0:0:0:0:
164,228,29594,1,0,0:0:0:0:
317,289,29794,1,0,0:0:0:0:
317,289,29894,1,0,0:0:0:0:
317,289,29994,1,0,0:0:0:0:
164,228,30194,5,0,0:0:0:0:
164,228,30394,1,0,0:0:0:0:
233,104,30594,1,0,0:0:0:0:
482,167,30794,5,0,0:0:0:0:
413,291,30994,1,0,0:0:0:0:
275,319,31194,1,0,0:0:0:0:
145,290,31394,6,0,B|66:339|78:206|130:243|130:243|162:137|188:75|193:148|178:253|178:253|247:248|186:364|162:285,1,500
327,59,31794,6,0,B|272:-16|234:111|296:96|296:96|286:206|287:274|319:208|344:105|344:105|406:135|393:5|341:69,1,500
184,122,32194,2,0,L|71:75,2,100
257,182,32794,2,0,L|272:303,2,100
273,88,33394,1,0,0:0:0:0:
158,170,33794,2,0,B|44:142|57:288|197:302|164:175|198:167|198:167|231:257|231:257|276:179|276:179|310:265|310:265|353:170|353:170|374:272|455:260|496:161|403:121|363:177,1,875
61,24,44194,6,0,B|338:234|338:234|309:315|346:113|145:333|271:262|58:269|54:118|344:63|472:214|237:370|443:123|97:91|381:58|460:195|106:123|49:383|157:87|211:150|211:150|304:79|304:79|11:365|29:339|29:339|106:92|103:88|106:124|106:121|106:121|325:227|380:257|380:257|144:343|539:168|18:281|31:288|31:288|397:325|397:325|427:210|319:157|319:157|246:278|246:278|50:358|266:205|266:205|473:164|473:164|47:234,1,3500
60,139,46994,2,0,B|116:278|190:140|190:140|232:235|232:235|257:160|257:160|288:229|288:229|332:138|332:138|411:276|471:103,1,750
