osu file format v14

[General]
AudioFilename: audio.mp3
AudioLeadIn: 0
PreviewTime: 462
Countdown: 1
SampleSet: None
StackLeniency: 0.5
Mode: 0
LetterboxInBreaks: 0
WidescreenStoryboard: 1

[Editor]
DistanceSpacing: 2.2
BeatDivisor: 4
GridSize: 8
TimelineZoom: 1

[Metadata]
Title:Padowo Padowo
TitleUnicode:Padowo Padowo
Artist:senzawa
ArtistUnicode:senzawa
Creator:Hishiro Chizuru
Version:Merry Christmas
Source:
Tags:sleepstr
BeatmapID:2707489
BeatmapSetID:889547

[Difficulty]
HPDrainRate:5.1
CircleSize:4.1
OverallDifficulty:8.1
ApproachRate:8.1
SliderMultiplier:1.7
SliderTickRate:1

[Events]
//Background and Video events
0,0,"nigward.png",0,0
//Break Periods
//Storyboard Layer 0 (Background)
//Storyboard Layer 1 (Fail)
//Storyboard Layer 2 (Pass)
//Storyboard Layer 3 (Foreground)
//Storyboard Layer 4 (Overlay)
//Storyboard Sound Samples

[TimingPoints]
462,551.724137931035,4,2,69,100,1,0
462,-100,4,2,69,40,0,0
1565,-100,4,2,69,50,0,0
2668,-100,4,2,69,60,0,0
3772,-100,4,2,69,65,0,0
4599,-100,4,2,69,50,0,0
22530,-100,4,2,69,60,0,0
27082,-100,4,2,69,60,0,1
27496,-100,4,2,69,60,0,0
30806,-66.6666666666667,4,2,69,60,0,0
31358,-100,4,2,69,60,0,0

[HitObjects]
218,256,462,5,2,0:0:0:0:
218,125,737,1,0,0:0:0:0:
330,191,1013,1,0,0:0:0:0:
255,191,1289,1,0,0:0:0:0:
162,191,1565,5,2,0:0:0:0:
303,110,1840,1,0,0:0:0:0:
302,271,2116,1,0,0:0:0:0:
255,191,2392,1,0,0:0:0:0:
180,62,2668,5,2,0:0:0:0:
405,191,2943,1,0,0:0:0:0:
182,318,3219,1,0,0:0:0:0:
255,191,3495,1,0,0:0:0:0:
340,43,3772,5,2,0:0:0:0:
340,338,4324,1,2,0:0:0:0:
409,285,4599,5,0,0:0:0:0:
366,214,4875,2,0,B|326:204|333:217|349:236|317:217|286:220,1,85,2|0,0:0|0:0,0:0:0:0:
146,280,5427,2,0,B|186:270|179:283|163:302|195:283|225:286,1,85,2|0,0:0|0:0,0:0:0:0:
214,104,5979,2,0,B|218:152|192:176|167:174|167:174|149:202|132:202|104:181,1,170,2|0,0:0|0:0,0:0:0:0:
105,181,6806,1,0,0:0:0:0:
319,48,7082,6,0,B|320:84|355:94|287:112|370:71|316:67|336:108|344:137,1,85,2|0,0:0|0:0,0:0:0:0:
420,36,7634,2,0,B|421:72|456:82|388:100|471:59|417:55|437:96|445:125,1,85,2|0,0:0|0:0,0:0:0:0:
340,212,8186,2,0,B|330:215|345:228|370:242|385:250|401:223|401:223|435:247|460:224|465:196,1,170,2|0,0:0|0:0,0:0:0:0:
465,196,9013,1,0,0:0:0:0:
105,26,9289,6,0,B|62:26|60:49|79:81|57:115,1,85,2|0,0:0|0:0,0:0:0:0:
179,64,9841,2,0,B|200:101|181:114|144:114|125:150,1,85,2|0,0:0|0:0,0:0:0:0:
30,201,10393,2,0,B|23:199|19:170|50:152|119:165|119:228|67:275|36:285|22:272,1,170,2|0,0:0|0:0,0:0:0:0:
49,271,11220,1,0,0:0:0:0:
224,368,11496,5,2,0:0:0:0:
304,344,11772,1,0,0:0:0:0:
413,285,12048,1,2,0:0:0:0:
333,261,12324,1,0,0:0:0:0:
216,188,12599,6,0,B|213:184|212:238|254:189|267:223|369:172|317:138,1,170,2|0,0:0|0:0,0:0:0:0:
318,139,13427,1,0,0:0:0:0:
146,30,13703,6,0,B|131:70|102:95|178:94|123:69|149:49|137:110|121:119,1,85,2|0,0:0|0:0,0:0:0:0:
47,18,14255,2,0,B|42:75|11:64|42:83|27:57|50:37|30:78|22:107,1,85,2|0,0:0|0:0,0:0:0:0:
125,194,14807,2,0,B|135:197|120:210|95:224|80:232|64:205|64:205|30:229|5:206|0:178,1,170,2|0,0:0|0:0,0:0:0:0:
0,177,15634,1,0,0:0:0:0:
184,347,15910,6,0,B|200:318|191:306|203:290|248:306|270:292|278:284,1,85,2|0,0:0|0:0,0:0:0:0:
308,350,16462,2,0,B|324:321|315:309|327:293|372:309|394:295|402:287,1,85,2|0,0:0|0:0,0:0:0:0:
512,280,17013,2,0,B|457:251|466:294|401:243|510:227|521:245|456:175|417:196,1,170,2|0,0:0|0:0,0:0:0:0:
427,192,17841,1,0,0:0:0:0:
178,22,18117,6,0,B|147:67|168:103|192:113|208:91,1,85,2|0,0:0|0:0,0:0:0:0:
268,84,18668,2,0,B|298:38|277:2|253:-7|237:14,1,85,2|0,0:0|0:0,0:0:0:0:
273,182,19220,6,0,B|328:184|321:199|331:218|369:220|370:216|382:197,1,85,2|0,0:0|0:0,0:0:0:0:
187,220,19772,2,0,B|132:222|139:237|129:256|91:258|90:254|78:235,1,85,2|0,0:0|0:0,0:0:0:0:
376,143,20324,5,2,0:0:0:0:
458,179,20599,1,0,0:0:0:0:
352,305,20875,1,2,0:0:0:0:
264,324,21151,1,0,0:0:0:0:
92,226,21427,1,2,0:0:0:0:
92,226,21979,6,0,B|143:238|143:269|115:270|99:269|144:313|165:313|168:277,1,127.5,2|0,0:0|0:0,0:0:0:0:
78,231,22530,5,2,0:0:0:0:
143,90,22806,1,0,0:0:0:0:
305,57,23082,2,0,B|331:14|263:11|294:51|312:18|374:7|368:4,1,85,2|0,0:0|0:0,0:0:0:0:
494,161,23634,5,2,0:0:0:0:
378,241,23910,1,0,0:0:0:0:
245,194,24186,2,0,B|211:207|190:174|181:178|154:201|196:190|153:208|151:216,1,85,2|0,0:0|0:0,0:0:0:0:
53,374,24737,5,2,0:0:0:0:
163,352,25013,1,0,0:0:0:0:
353,315,25289,1,2,0:0:0:0:
240,283,25565,1,0,0:0:0:0:
416,152,25841,6,0,B|451:171|454:215|418:244|485:235|388:255|365:204,1,170,2|0,0:0|0:0,0:0:0:0:
368,210,26668,1,0,0:0:0:0:
295,93,26944,6,0,B|263:93|255:101|223:101,1,42.5,2|0,0:0|0:0,0:0:0:0:
175,141,27220,1,0,0:0:0:0:
175,141,27358,1,0,0:0:0:0:
175,141,27496,2,0,B|168:171|200:185|197:208|189:228,1,85,2|0,0:0|0:0,0:0:0:0:
84,351,28048,5,2,0:0:0:0:
34,248,28324,1,0,0:0:0:0:
186,313,28599,2,0,B|260:303|213:329|208:333|277:319|285:293|285:289,1,85,2|0,0:0|0:0,0:0:0:0:
480,384,29151,5,2,0:0:0:0:
424,266,29427,1,0,0:0:0:0:
389,347,29703,5,2,0:0:0:0:
412,189,29979,1,0,0:0:0:0:
288,13,30255,5,2,0:0:0:0:
111,366,30806,6,0,B|80:347|80:347|136:352|136:352|151:361|151:361|207:366|207:366|176:347,1,191.250007295609,2|0,0:0|0:0,0:0:0:0:
106,383,31358,5,2,0:0:0:0:
26,276,31634,1,0,0:0:0:0:
115,154,31910,2,0,B|180:176|146:203|203:147|169:236,1,85,2|0,0:0|0:0,0:0:0:0:
436,284,32462,5,2,0:0:0:0:
486,161,32738,1,0,0:0:0:0:
381,75,33013,2,0,B|335:108|349:110|322:82|341:68|279:111|305:122,1,85,2|0,0:0|0:0,0:0:0:0:
153,197,33565,5,2,0:0:0:0:
126,119,33841,1,0,0:0:0:0:
189,66,34117,5,2,0:0:0:0:
125,267,34393,1,0,0:0:0:0:
33,172,34668,6,0,P|54:178|78:177,1,42.5,2|0,0:0|0:0,0:0:0:0:
239,162,34944,2,0,P|263:155|285:165,1,42.5,2|0,0:0|0:0,0:0:0:0:
445,232,35220,2,0,B|381:244|420:278|377:274,1,85,2|0,0:0|0:0,0:0:0:0:
69,301,35772,5,2,0:0:0:0:
8,196,36048,1,0,0:0:0:0:
178,280,36324,2,0,B|214:254|194:237|204:206|197:191,1,85,2|0,0:0|0:0,0:0:0:0:
394,38,36875,5,2,0:0:0:0:
469,118,37151,1,0,0:0:0:0:
293,73,37427,2,0,B|265:55|264:100|238:65|225:76|202:120,1,85,2|0,0:0|0:0,0:0:0:0:
270,339,37979,5,2,0:0:0:0:
334,303,38255,1,0,0:0:0:0:
211,294,38530,1,2,0:0:0:0:
147,249,38806,1,0,0:0:0:0:
355,207,39082,5,2,0:0:0:0:
164,142,39358,5,2,0:0:0:0:
260,19,39634,5,2,0:0:0:0:
