osu file format v14

[General]
AudioFilename: audio.mp3
AudioLeadIn: 0
PreviewTime: 51084
Countdown: 1
SampleSet: Soft
StackLeniency: 0.7
Mode: 0
LetterboxInBreaks: 0
WidescreenStoryboard: 0

[Editor]
Bookmarks: 12374,20116,24761,30955,37148,43342,88245,100632,106826,153277,154632,159471,167213,179600,202826
DistanceSpacing: 1
BeatDivisor: 4
GridSize: 4
TimelineZoom: 1.6

[Metadata]
Title:Zouka de Arou to Shita Mono
TitleUnicode:造花であろうとした者
Artist:senya
ArtistUnicode:senya
Creator:AtHeoN
Version:Satellite
Source:東方Project
Tags:yuuhei satellite c90 reimu hakurei theme
BeatmapID:1061655
BeatmapSetID:498738

[Difficulty]
HPDrainRate:6
CircleSize:4
OverallDifficulty:8
ApproachRate:9
SliderMultiplier:1.8
SliderTickRate:2

[Events]
//Background and Video events
0,0,"BG.jpg",0,0
//Break Periods
//Storyboard Layer 0 (Background)
//Storyboard Layer 1 (Fail)
//Storyboard Layer 2 (Pass)
//Storyboard Layer 3 (Foreground)
//Storyboard Sound Samples

[TimingPoints]
1536,387.096774193548,4,2,1,40,1,0
1536,-133.333333333333,4,2,1,60,0,0
12374,-100,4,2,1,60,0,0
23213,-76.9230769230769,4,2,1,70,0,0
23794,-100,4,2,1,60,0,0
24761,-133.333333333333,4,2,1,40,0,0
30955,-100,4,2,1,60,0,0
32116,-100,4,2,2,60,0,0
32213,-100,4,2,1,60,0,0
37148,-100,4,2,1,50,0,0
43342,-100,4,2,1,60,0,0
51084,-83.3333333333333,4,2,1,80,0,1
57277,-100,4,2,1,60,0,0
58826,-83.3333333333333,4,2,1,80,0,1
63471,-100,4,2,1,60,0,0
64826,-83.3333333333333,4,2,1,80,0,1
75858,-100,4,2,1,60,0,0
80116,-100,4,2,2,60,0,0
80213,-100,4,2,1,60,0,0
86697,-76.9230769230769,4,2,1,70,0,0
88245,-100,4,2,1,60,0,0
100632,-100,4,2,1,50,0,0
106826,-100,4,2,1,60,0,0
116116,-83.3333333333333,4,2,1,80,0,1
122310,-100,4,2,1,60,0,0
123858,-83.3333333333333,4,2,1,80,0,1
128503,-100,4,2,1,60,0,0
129858,-83.3333333333333,4,2,1,80,0,1
140890,-100,4,2,1,60,0,0
151342,-100,4,2,2,60,0,0
151439,-100,4,2,1,60,0,0
165665,-133.333333333333,4,2,1,40,0,0
179600,-100,4,2,1,60,0,0
180955,-83.3333333333333,4,2,1,80,0,1
191987,-100,4,2,1,60,0,0
202826,-76.9230769230769,4,2,1,90,0,0
206697,-76.9230769230769,4,2,1,60,0,0

[Colours]
Combo1 : 255,128,0
Combo2 : 154,21,38
Combo3 : 240,229,233

[HitObjects]
436,99,1536,6,0,P|336:60|251:128,1,202.500007724762,2|0,0:0|0:0,0:0:0:0:
149,294,2503,1,0,0:0:0:0:
196,204,2697,1,0,0:0:0:0:
175,105,2890,1,0,0:0:0:0:
96,40,3084,6,0,P|74:113|114:188,1,135.000005149842,2|0,0:0|0:0,0:0:0:0:
188,201,3665,1,0,0:0:0:0:
104,276,3858,1,0,0:0:0:0:
283,254,4052,1,0,0:0:0:0:
175,105,4245,1,0,0:0:0:0:
204,298,4439,1,0,0:0:0:0:
279,63,4632,22,0,P|337:42|305:89,1,135.000005149842,2|0,0:0|0:0,0:0:0:0:
175,105,5213,2,0,L|99:94,1,67.5000025749208,2|0,0:0|0:0,0:0:0:0:
302,180,5600,2,0,L|378:169,1,67.5000025749208,2|0,0:0|0:0,0:0:0:0:
196,241,5987,1,0,0:0:0:0:
279,63,6181,5,2,0:0:0:0:
279,63,6955,21,0,0:0:0:0:
208,138,7148,1,0,0:0:0:0:
178,40,7342,1,0,0:0:0:0:
305,157,7535,1,0,0:0:0:0:
146,227,7729,6,0,P|103:167|112:93,1,135.000005149842,6|0,0:1|0:0,0:0:0:0:
176,302,8310,2,0,P|137:307|108:298,1,67.5000025749208
232,237,8697,1,0,0:0:0:0:
288,356,8890,1,0,0:0:0:0:
305,157,9084,1,0,0:0:0:0:
450,271,9277,22,0,L|298:255,1,135.000005149842,2|0,0:0|0:0,0:0:0:0:
212,144,9858,1,0,0:0:0:0:
245,288,10052,1,0,0:0:0:0:
291,115,10245,1,0,0:0:0:0:
250,316,10439,1,0,0:0:0:0:
138,87,10632,1,0,0:0:0:0:
377,182,10826,6,0,L|234:173,1,135.000005149842,2|0,0:0|0:0,0:0:0:0:
94,233,11406,2,0,L|179:238,1,67.5000025749208
242,173,11794,1,0,0:0:0:0:
297,327,11987,1,0,0:0:0:0:
379,205,12181,5,0,0:0:0:0:
377,182,12245,1,0,0:0:0:0:
375,159,12310,1,0,0:0:0:0:
393,102,12374,5,2,0:0:0:0:
351,119,12470,1,0,0:0:0:0:
307,116,12567,1,0,0:0:0:0:
268,94,12664,1,0,0:0:0:0:
236,36,12761,5,10,0:0:0:0:
197,13,12857,1,0,0:0:0:0:
152,11,12954,1,0,0:0:0:0:
111,28,13051,1,0,0:0:0:0:
64,80,13148,21,2,0:0:0:0:
60,124,13244,1,0,0:0:0:0:
56,168,13341,1,0,0:0:0:0:
52,212,13438,1,0,0:0:0:0:
104,256,13535,5,10,0:0:0:0:
146,273,13631,1,0,0:0:0:0:
190,270,13728,1,0,0:0:0:0:
229,248,13825,1,0,0:0:0:0:
261,190,13922,21,2,0:0:0:0:
300,167,14018,1,0,0:0:0:0:
345,165,14115,1,0,0:0:0:0:
386,182,14212,1,0,0:0:0:0:
435,229,14310,5,10,0:0:0:0:
470,202,14406,1,0,0:0:0:0:
487,160,14503,1,0,0:0:0:0:
479,117,14600,1,0,0:0:0:0:
423,80,14697,22,0,L|363:78,1,45,2|0,0:0|0:0,0:0:0:0:
233,14,14890,1,0,0:0:0:0:
233,14,14987,1,0,0:0:0:0:
182,58,15084,1,10,0:0:0:0:
168,101,15181,1,0,0:0:0:0:
108,130,15277,21,0,0:0:0:0:
99,159,15341,1,0,0:0:0:0:
89,187,15406,1,0,0:0:0:0:
80,215,15471,21,2,0:0:0:0:
334,159,15858,1,10,0:0:0:0:
168,101,16052,1,0,0:0:0:0:
233,256,16245,2,0,L|232:148,1,90,2|0,0:0|0:0,0:0:0:0:
276,77,16632,1,10,0:0:0:0:
141,212,16826,2,0,P|93:228|34:198,1,90,0|2,0:0|0:0,0:0:0:0:
232,166,17213,1,0,0:0:0:0:
232,166,17310,1,0,0:0:0:0:
232,166,17406,22,0,L|235:223,1,45,2|0,0:0|0:0,0:0:0:0:
339,255,17600,2,0,L|338:306,1,45
224,372,17794,1,2,0:0:0:0:
224,372,17890,1,0,0:0:0:0:
224,372,17987,6,0,L|228:327,1,45
339,255,18181,2,0,L|335:210,1,45,2|0,0:0|0:0,0:0:0:0:
210,72,18374,1,0,0:0:0:0:
210,72,18471,1,0,0:0:0:0:
210,72,18568,21,2,0:0:0:0:
176,102,18665,1,0,0:0:0:0:
165,145,18761,1,0,0:0:0:0:
170,189,18858,1,0,0:0:0:0:
230,218,18955,5,8,0:0:0:0:
260,252,19052,1,0,0:0:0:0:
303,263,19148,1,0,0:0:0:0:
347,259,19245,1,0,0:0:0:0:
400,217,19342,21,0,0:0:0:0:
392,172,19439,1,0,0:0:0:0:
333,139,19535,5,0,0:0:0:0:
323,94,19632,1,0,0:0:0:0:
271,49,19729,21,0,0:0:0:0:
247,87,19826,1,0,0:0:0:0:
205,103,19922,1,0,0:0:0:0:
159,105,20019,1,0,0:0:0:0:
117,51,20116,21,2,0:0:0:0:
43,104,20245,1,0,0:0:0:0:
40,194,20374,1,0,0:0:0:0:
122,45,20503,21,2,0:0:0:0:
40,103,20632,1,0,0:0:0:0:
37,202,20761,1,0,0:0:0:0:
127,38,20890,21,2,0:0:0:0:
38,102,21019,1,0,0:0:0:0:
34,211,21148,1,0,0:0:0:0:
133,30,21277,21,2,0:0:0:0:
35,100,21406,1,0,0:0:0:0:
31,220,21535,1,0,0:0:0:0:
139,21,21665,21,6,0:0:0:0:
27,230,21858,1,0,0:0:0:0:
238,160,22052,1,8,0:0:0:0:
53,34,22245,1,0,0:0:0:0:
40,250,22439,21,6,0:0:0:0:
275,180,22632,1,0,0:0:0:0:
101,324,22826,1,8,0:0:0:0:
218,79,23019,1,0,0:0:0:0:
404,296,23213,6,0,L|287:291,1,116.999994644165,4|0,0:0|0:0,0:0:0:0:
117,183,23503,2,0,L|233:178,1,116.999994644165,4|0,0:0|0:0,0:0:0:0:
373,98,23794,21,4,0:0:0:0:
328,93,23890,1,0,0:0:0:0:
286,108,23987,1,0,0:0:0:0:
253,138,24084,1,0,0:0:0:0:
234,178,24181,1,0,0:0:0:0:
234,223,24277,1,0,0:0:0:0:
285,266,24374,5,0,0:0:0:0:
329,275,24471,1,0,0:0:0:0:
369,331,24568,21,0,0:0:0:0:
413,340,24665,1,0,0:0:0:0:
465,383,24761,5,4,0:1:0:0:
508,236,24955,1,0,0:0:0:0:
409,258,25148,1,2,0:0:0:0:
329,194,25342,1,0,0:0:0:0:
328,93,25535,1,2,0:0:0:0:
328,93,25729,22,0,L|342:16,1,67.5000025749208,2|2,0:0|0:2,0:0:0:0:
199,210,26116,2,0,L|185:133,1,67.5000025749208,2|0,0:0|0:0,0:0:0:0:
338,320,26503,5,0,0:0:0:0:
238,338,26697,1,2,0:0:0:0:
152,283,26890,1,0,0:0:0:0:
132,183,27084,1,2,0:0:0:0:
75,351,27277,1,2,0:0:0:0:
232,222,27471,1,2,0:0:0:0:
42,146,27665,1,0,0:0:0:0:
173,344,27858,22,0,P|243:368|310:345,1,135.000005149842,2|0,0:3|0:0,0:0:0:0:
472,226,28439,2,0,P|402:202|335:225,1,135.000005149842,2|0,0:3|0:0,0:0:0:0:
399,370,29019,2,0,L|404:303,1,67.5000025749208,2|0,0:3|0:0,0:0:0:0:
470,116,29406,5,2,0:3:0:0:
441,134,29503,1,0,0:0:0:0:
407,137,29600,1,0,0:0:0:0:
373,133,29697,1,0,0:0:0:0:
327,110,29794,22,0,L|311:55,1,33.7500012874604,2|0,0:0|0:0,0:0:0:0:
250,221,29987,1,0,0:0:0:0:
217,230,30084,1,0,0:0:0:0:
184,268,30181,5,2,0:0:0:0:
154,251,30277,1,0,0:0:0:0:
135,224,30374,1,0,0:0:0:0:
129,191,30471,1,0,0:0:0:0:
151,146,30568,21,2,0:0:0:0:
145,113,30664,1,0,0:0:0:0:
125,86,30761,1,0,0:0:0:0:
96,70,30858,1,0,0:0:0:0:
46,79,30954,5,6,0:1:0:0:
254,146,31148,1,0,0:0:0:0:
46,214,31342,1,10,0:0:0:0:
175,37,31535,1,0,0:0:0:0:
175,256,31729,1,2,0:0:0:0:
46,79,31923,2,0,P|105:73|80:119,1,135
82,118,32310,22,0,B|121:138|121:138|203:123,1,90,0|2,0:0|0:0,0:0:0:0:
319,49,32697,1,0,0:0:0:0:
321,71,32794,1,0,0:0:0:0:
322,93,32890,1,10,0:0:0:0:
405,226,33084,1,0,0:0:0:0:
219,150,33277,1,2,0:0:0:0:
363,54,33471,1,0,0:0:0:0:
363,54,33568,1,0,0:0:0:0:
363,54,33665,6,0,L|301:46,1,45,10|0,0:0|0:0,0:0:0:0:
259,139,33858,2,0,L|197:131,1,45
72,33,34052,22,0,B|52:77|52:77|64:150,1,90,2|0,0:0|0:0,0:0:0:0:
139,243,34439,1,10,0:0:0:0:
211,69,34632,1,0,0:0:0:0:
166,268,34826,1,2,0:0:0:0:
58,118,35019,2,0,L|161:129,1,90,0|10,0:0|0:0,0:0:0:0:
305,65,35406,1,0,0:0:0:0:
378,284,35600,5,2,0:0:0:0:
361,242,35697,1,0,0:0:0:0:
366,198,35793,1,0,0:0:0:0:
392,162,35890,1,0,0:0:0:0:
448,120,35987,21,2,0:0:0:0:
406,137,36084,1,0,0:0:0:0:
362,132,36180,1,0,0:0:0:0:
326,106,36277,1,0,0:0:0:0:
268,72,36374,5,2,0:0:0:0:
226,55,36471,1,0,0:0:0:0:
182,60,36567,1,0,0:0:0:0:
146,86,36664,1,0,0:0:0:0:
124,148,36761,21,2,0:0:0:0:
56,157,36858,1,0,0:0:0:0:
6,111,36955,1,0,0:0:0:0:
1,44,37052,1,0,0:0:0:0:
76,80,37148,21,4,0:0:0:0:
56,319,37406,1,0,0:0:0:0:
270,209,37665,1,0,0:0:0:0:
36,167,37923,21,2,0:0:0:0:
190,350,38181,1,0,0:0:0:0:
264,121,38440,1,0,0:0:0:0:
70,265,38697,21,2,0:0:0:0:
308,285,38955,1,0,0:0:0:0:
198,71,39214,1,0,0:0:0:0:
198,71,39471,6,0,P|181:125|207:198,1,120,2|0,0:0|0:0,0:0:0:0:
295,129,39987,1,0,0:0:0:0:
88,212,40245,22,0,P|114:262|184:295,1,120,2|0,0:0|0:0,0:0:0:0:
197,184,40761,1,0,0:0:0:0:
276,103,41019,6,0,P|249:153|179:186,1,120,2|0,0:0|0:0,0:0:0:0:
167,75,41535,1,0,0:0:0:0:
324,257,41794,21,2,0:0:0:0:
86,289,42052,1,0,0:0:0:0:
274,141,42310,1,0,0:0:0:0:
68,16,42568,5,0,0:0:0:0:
52,58,42664,1,0,0:0:0:0:
55,102,42761,1,0,0:0:0:0:
74,143,42858,1,0,0:0:0:0:
133,176,42955,21,0,0:0:0:0:
149,218,43051,1,0,0:0:0:0:
146,263,43148,1,0,0:0:0:0:
127,303,43245,1,0,0:0:0:0:
82,354,43342,5,2,0:0:0:0:
233,242,43535,1,0,0:0:0:0:
230,219,43632,1,0,0:0:0:0:
226,196,43729,1,8,0:0:0:0:
357,319,43923,1,0,0:0:0:0:
477,187,44116,22,0,P|448:205|376:196,1,90,2|0,0:0|0:0,0:0:0:0:
360,174,44406,1,0,0:0:0:0:
360,173,44503,1,8,0:0:0:0:
232,333,44697,1,0,0:0:0:0:
167,134,44890,5,2,0:0:0:0:
379,269,45084,1,0,0:0:0:0:
421,253,45181,1,0,0:0:0:0:
447,216,45277,1,8,0:0:0:0:
390,383,45471,1,0,0:0:0:0:
311,187,45665,22,0,L|317:142,1,45,2|0,0:0|0:0,0:0:0:0:
178,318,45858,1,0,0:0:0:0:
178,318,45955,1,0,0:0:0:0:
178,318,46052,2,0,P|127:328|78:302,1,90,8|0,0:0|0:0,0:0:0:0:
140,231,46439,5,6,0:1:0:0:
140,231,46826,21,0,0:0:0:0:
178,318,47019,1,0,0:0:0:0:
298,181,47213,6,0,P|321:140|321:79,1,90,6|0,0:1|0:0,0:0:0:0:
141,81,47503,2,0,P|180:103|225:108,1,90
268,21,47794,1,0,0:0:0:0:
396,244,47987,21,2,0:0:0:0:
351,251,48084,1,0,0:0:0:0:
306,255,48181,1,2,0:0:0:0:
261,260,48277,1,0,0:0:0:0:
220,313,48374,5,2,0:0:0:0:
175,307,48471,1,0,0:0:0:0:
130,303,48568,1,2,0:0:0:0:
85,298,48664,1,0,0:0:0:0:
24,327,48761,21,2,0:0:0:0:
53,293,48857,1,0,0:0:0:0:
68,251,48954,1,2,0:0:0:0:
69,206,49051,1,0,0:0:0:0:
25,153,49148,5,2,0:0:0:0:
25,108,49245,1,0,0:0:0:0:
33,66,49342,1,2,0:0:0:0:
62,32,49438,1,0,0:0:0:0:
121,64,49535,22,0,L|184:55,1,45,2|0,0:0|0:0,0:0:0:0:
355,77,49729,5,0,0:0:0:0:
302,119,49826,2,0,L|231:130,1,45,2|0,0:0|0:0,0:0:0:0:
25,153,50019,21,0,0:0:0:0:
78,195,50116,2,0,L|149:206,1,45,2|0,0:0|0:0,0:0:0:0:
414,260,50310,5,0,0:0:0:0:
361,302,50407,2,0,L|290:313,1,45,2|0,0:0|0:0,0:0:0:0:
146,328,50600,21,0,0:0:0:0:
188,275,50697,2,0,L|199:204,1,45,2|0,0:0|0:0,0:0:0:0:
362,32,50890,2,0,L|352:94,1,45,2|0,0:0|0:0,0:0:0:0:
459,307,51084,6,0,P|409:324|361:302,1,107.999996704102,6|0,0:0|0:0,0:0:0:0:
296,164,51471,1,10,0:0:0:0:
163,347,51665,1,0,0:0:0:0:
150,323,51761,1,0,0:0:0:0:
137,298,51858,21,2,0:0:0:0:
235,213,52052,1,0,0:0:0:0:
54,261,52245,1,10,0:0:0:0:
135,96,52439,1,0,0:0:0:0:
137,298,52632,6,0,P|112:242|134:182,1,107.999996704102,2|0,0:0|0:0,0:0:0:0:
194,156,52923,1,0,0:0:0:0:
194,156,53019,2,0,P|219:100|197:40,1,107.999996704102,10|0,0:0|0:0,0:0:0:0:
135,5,53310,1,0,0:0:0:0:
135,5,53406,21,2,0:0:0:0:
46,195,53600,1,0,0:0:0:0:
255,115,53794,1,10,0:0:0:0:
39,0,53987,1,0,0:0:0:0:
74,282,54181,6,0,B|124:306|124:306|205:294,1,107.999996704102,2|0,0:0|0:0,0:0:0:0:
240,248,54471,1,0,0:0:0:0:
240,248,54568,1,10,0:0:0:0:
110,384,54761,1,0,0:0:0:0:
331,311,54955,22,0,L|324:203,1,107.999996704102,2|0,0:0|0:0,0:0:0:0:
337,123,55245,1,0,0:0:0:0:
337,123,55342,1,10,0:0:0:0:
426,343,55535,1,0,0:0:0:0:
211,287,55729,5,2,0:0:0:0:
211,287,55826,1,0,0:0:0:0:
211,287,55923,2,0,L|206:224,1,53.9999983520508
271,105,56116,21,2,0:0:0:0:
231,139,56212,1,0,0:0:0:0:
178,142,56309,1,0,0:0:0:0:
134,112,56406,1,0,0:0:0:0:
84,48,56503,6,0,L|23:68,1,53.9999983520508,2|0,0:0|0:0,0:0:0:0:
231,139,56697,2,0,L|292:159,1,53.9999983520508
33,246,56890,22,0,L|43:176,1,53.9999983520508,2|0,0:0|0:0,0:0:0:0:
194,53,57084,2,0,L|201:0,1,53.9999983520508,2|2,0:0|0:0,0:0:0:0:
294,281,57277,5,2,0:0:0:0:
294,281,57471,1,2,0:0:0:0:
134,112,57665,1,4,0:1:0:0:
353,95,57858,1,0,0:0:0:0:
353,95,57955,1,0,0:0:0:0:
353,95,58052,1,2,0:0:0:0:
145,243,58245,1,2,0:0:0:0:
370,233,58439,1,4,0:1:0:0:
237,61,58632,1,0,0:0:0:0:
185,320,58826,22,0,P|270:351|293:251,1,215.999993408203,2|8,0:0|0:0,0:0:0:0:
174,130,59406,1,0,0:0:0:0:
62,304,59600,6,0,L|-19:294,1,53.9999983520508,2|0,0:0|0:0,0:0:0:0:
201,197,59794,2,0,L|282:207,1,53.9999983520508,2|0,0:0|0:0,0:0:0:0:
78,181,59987,2,0,L|88:100,1,53.9999983520508,10|0,0:0|0:0,0:0:0:0:
185,320,60181,2,0,L|175:401,1,53.9999983520508,2|0,0:0|0:0,0:0:0:0:
383,203,60374,22,0,P|409:156|399:85,1,107.999996704102,6|0,0:1|0:0,0:0:0:0:
211,17,60761,1,10,0:0:0:0:
311,133,60955,1,0,0:0:0:0:
139,319,61148,6,0,P|113:272|124:199,1,107.999996704102,6|0,0:1|0:0,0:0:0:0:
311,133,61535,1,10,0:0:0:0:
211,249,61729,1,0,0:0:0:0:
44,93,61923,21,2,0:0:0:0:
88,63,62019,1,0,0:0:0:0:
141,67,62116,1,0,0:0:0:0:
181,102,62213,1,0,0:0:0:0:
248,146,62310,5,2,0:0:0:0:
288,181,62407,1,0,0:0:0:0:
341,185,62504,1,0,0:0:0:0:
385,155,62600,1,0,0:0:0:0:
419,81,62697,22,0,P|422:54|418:18,1,53.9999983520508,2|0,0:0|0:0,0:0:0:0:
322,270,62890,2,0,P|319:297|323:333,1,53.9999983520508,2|0,0:0|0:0,0:0:0:0:
215,39,63084,5,2,0:0:0:0:
141,67,63180,1,0,0:0:0:0:
105,138,63277,1,0,0:0:0:0:
125,214,63374,1,0,0:0:0:0:
191,258,63471,22,0,P|131:218|11:246,1,180,2|0,0:0|0:0,0:0:0:0:
323,179,64052,2,0,P|358:155|430:171,1,90,2|0,0:0|0:0,0:0:0:0:
488,362,64439,1,2,0:0:0:0:
381,227,64632,1,2,0:0:0:0:
473,51,64826,6,0,P|438:75|366:58,1,107.999996704102,6|0,0:0|0:0,0:0:0:0:
241,0,65213,1,0,0:0:0:0:
51,145,65406,2,0,P|86:169|158:152,1,107.999996704102,10|0,0:0|0:0,0:0:0:0:
283,94,65794,21,2,0:0:0:0:
108,92,65987,1,0,0:0:0:0:
167,268,66181,1,10,0:0:0:0:
214,38,66374,1,0,0:0:0:0:
1,75,66568,6,0,L|121:94,1,107.999996704102,2|0,0:0|0:0,0:0:0:0:
185,161,66858,1,0,0:0:0:0:
148,160,66955,1,10,0:0:0:0:
341,206,67148,2,0,L|221:225,1,107.999996704102,0|2,0:0|0:0,0:0:0:0:
124,331,67535,1,0,0:0:0:0:
148,160,67729,1,10,0:0:0:0:
230,344,67923,1,0,0:0:0:0:
19,296,68116,21,2,0:0:0:0:
10,242,68212,1,0,0:0:0:0:
16,189,68309,1,0,0:0:0:0:
37,139,68406,1,0,0:0:0:0:
107,98,68503,5,2,0:0:0:0:
149,130,68599,1,0,0:0:0:0:
202,136,68696,1,0,0:0:0:0:
252,116,68793,1,0,0:0:0:0:
302,53,68890,22,0,P|302:27|296:0,1,53.9999983520508,2|0,0:0|0:0,0:0:0:0:
376,232,69084,2,0,P|375:257|382:285,1,53.9999983520508
468,67,69277,6,0,L|396:73,1,53.9999983520508,2|0,0:0|0:0,0:0:0:0:
268,217,69471,2,0,L|196:223,1,53.9999983520508,2|0,0:0|0:0,0:0:0:0:
37,99,69665,22,0,P|18:179|126:165,1,215.999993408203,6|10,0:1|0:0,0:0:0:0:
194,63,70245,2,0,L|301:52,1,107.999996704102,0|2,0:0|0:0,0:0:0:0:
383,209,70632,1,0,0:0:0:0:
466,30,70826,1,10,0:0:0:0:
498,282,71019,1,0,0:0:0:0:
374,109,71213,5,2,0:0:0:0:
324,128,71309,1,0,0:0:0:0:
291,170,71406,1,0,0:0:0:0:
283,222,71503,1,0,0:0:0:0:
303,272,71600,21,10,0:0:0:0:
227,85,71794,1,0,0:0:0:0:
383,209,71987,1,2,0:0:0:0:
190,280,72181,1,0,0:0:0:0:
332,55,72374,5,10,0:0:0:0:
384,41,72471,1,0,0:0:0:0:
437,148,72568,1,2,0:0:0:0:
385,134,72665,1,0,0:0:0:0:
466,79,72761,22,0,P|490:202|392:208,1,215.999993408203,2|10,0:0|0:0,0:0:0:0:
332,119,73342,2,0,L|438:148,1,107.999996704102,0|2,0:0|0:0,0:0:0:0:
198,213,73729,1,0,0:0:0:0:
287,32,73923,1,10,0:0:0:0:
312,260,74116,1,0,0:0:0:0:
74,189,74310,5,2,0:0:0:0:
118,159,74406,1,0,0:0:0:0:
171,152,74503,1,0,0:0:0:0:
221,171,74600,1,0,0:0:0:0:
262,241,74697,21,2,0:0:0:0:
312,260,74794,1,0,0:0:0:0:
365,253,74891,1,0,0:0:0:0:
409,223,74987,1,0,0:0:0:0:
433,145,75084,5,2,0:0:0:0:
434,199,75181,1,0,0:0:0:0:
441,252,75277,1,0,0:0:0:0:
445,305,75374,1,0,0:0:0:0:
474,380,75471,22,0,P|437:388|400:366,1,53.9999983520508,2|0,0:0|0:0,0:0:0:0:
323,148,75665,2,0,P|348:176|347:219,1,53.9999983520508,2|0,0:0|0:0,0:0:0:0:
244,379,75858,6,0,P|201:381|143:352,1,90,6|0,0:0|0:0,0:0:0:0:
115,310,76148,1,0,0:0:0:0:
115,310,76245,2,0,L|101:210,1,90,10|0,0:0|0:0,0:0:0:0:
55,12,76632,22,0,P|64:53|108:101,1,90,2|0,0:0|0:0,0:0:0:0:
156,116,76922,1,0,0:0:0:0:
156,116,77019,2,0,L|255:101,1,90,10|0,0:0|0:0,0:0:0:0:
364,31,77406,5,2,0:0:0:0:
303,192,77600,1,0,0:0:0:0:
178,29,77794,1,10,0:0:0:0:
383,131,77987,1,0,0:0:0:0:
401,171,78083,1,0,0:0:0:0:
401,216,78180,21,2,0:0:0:0:
381,256,78277,1,0,0:0:0:0:
346,283,78374,1,0,0:0:0:0:
303,293,78470,1,0,0:0:0:0:
259,283,78568,2,0,P|346:291|357:355,1,135,10|0,0:0|0:0,0:0:0:0:
360,326,78955,6,0,L|364:221,1,90,2|0,0:0|0:0,0:0:0:0:
465,62,79342,2,0,L|461:167,1,90,10|0,0:0|0:0,0:0:0:0:
259,283,79729,22,0,P|248:238|261:190,1,90,2|0,0:0|0:0,0:0:0:0:
415,110,80019,2,0,P|381:142|333:154,1,90,2|0,0:0|0:0,0:0:0:0:
195,52,80310,1,2,0:0:0:0:
130,295,80503,5,2,0:0:0:0:
85,296,80599,1,0,0:0:0:0:
49,271,80696,1,0,0:0:0:0:
36,229,80793,1,0,0:0:0:0:
74,173,80890,21,2,0:0:0:0:
96,134,80986,1,0,0:0:0:0:
99,89,81083,1,0,0:0:0:0:
81,48,81180,1,0,0:0:0:0:
24,12,81277,5,2,0:0:0:0:
68,19,81373,1,0,0:0:0:0:
112,26,81470,1,0,0:0:0:0:
157,33,81567,1,0,0:0:0:0:
208,80,81665,21,2,0:0:0:0:
253,73,81762,1,0,0:0:0:0:
297,66,81859,1,0,0:0:0:0:
341,59,81955,1,0,0:0:0:0:
408,20,82052,6,0,L|452:32,1,45,2|0,0:0|0:0,0:0:0:0:
296,180,82245,2,0,L|252:192,1,45,2|0,0:0|0:0,0:0:0:0:
460,200,82439,21,10,0:0:0:0:
341,59,82632,1,0,0:0:0:0:
296,272,82826,1,2,0:0:0:0:
232,44,83019,1,0,0:0:0:0:
209,19,83115,1,0,0:0:0:0:
179,6,83212,1,10,0:0:0:0:
144,6,83309,1,0,0:0:0:0:
115,19,83406,1,0,0:0:0:0:
93,45,83502,1,0,0:0:0:0:
76,88,83600,6,0,L|70:194,1,90,2|0,0:0|0:0,0:0:0:0:
155,262,83890,1,0,0:0:0:0:
155,262,83987,2,0,L|161:156,1,90,10|0,0:0|0:0,0:0:0:0:
360,52,84374,22,0,L|366:158,1,90,2|0,0:0|0:0,0:0:0:0:
281,226,84664,1,0,0:0:0:0:
281,226,84761,2,0,L|275:120,1,90,10|0,0:0|0:0,0:0:0:0:
160,31,85148,5,6,0:1:0:0:
106,241,85342,1,0,0:0:0:0:
275,136,85535,2,0,B|236:118|236:118|164:126,1,90,10|0,0:0|0:0,0:0:0:0:
311,320,85923,21,6,0:1:0:0:
365,110,86117,1,0,0:0:0:0:
196,215,86310,2,0,B|236:232|236:232|307:225,1,90,10|0,0:0|0:0,0:0:0:0:
460,154,86697,6,0,B|416:133|416:133|348:140,1,116.999994644165,6|0,0:1|0:0,0:0:0:0:
152,348,86987,2,0,B|191:320|191:320|223:246,1,116.999994644165,6|0,0:1|0:0,0:0:0:0:
159,25,87277,2,0,B|162:63|162:63|200:115,1,58.4999973220826,6|0,0:1|0:0,0:0:0:0:
307,236,87471,21,2,0:0:0:0:
280,186,87568,1,2,0:0:0:0:
227,164,87665,1,2,0:0:0:0:
172,180,87762,1,2,0:0:0:0:
131,258,87859,5,2,0:0:0:0:
140,201,87955,1,2,0:0:0:0:
149,143,88052,1,2,0:0:0:0:
157,85,88149,1,2,0:0:0:0:
109,9,88246,21,2,0:0:0:0:
227,164,88439,1,0,0:0:0:0:
43,214,88632,1,10,0:0:0:0:
157,85,88826,1,0,0:0:0:0:
209,270,89019,1,2,0:0:0:0:
344,148,89213,6,0,L|461:131,1,90,0|10,0:0|0:0,0:0:0:0:
346,361,89600,2,0,L|229:344,1,90,0|2,0:0|0:0,0:0:0:0:
150,193,89987,21,0,0:0:0:0:
320,255,90181,1,10,0:0:0:0:
176,362,90374,1,0,0:0:0:0:
204,128,90568,1,2,0:0:0:0:
395,273,90761,1,0,0:0:0:0:
116,272,90955,5,10,0:0:0:0:
81,244,91052,1,0,0:0:0:0:
64,203,91148,1,2,0:0:0:0:
70,159,91245,1,0,0:0:0:0:
98,124,91342,22,0,L|209:107,1,90,2|0,0:0|0:0,0:0:0:0:
310,192,91729,1,10,0:0:0:0:
242,21,91923,1,0,0:0:0:0:
223,238,92116,1,2,0:0:0:0:
414,129,92310,1,0,0:0:0:0:
187,110,92503,1,10,0:0:0:0:
303,281,92697,6,0,L|309:191,1,90,0|2,0:0|0:0,0:0:0:0:
384,44,93084,1,0,0:0:0:0:
475,197,93277,2,0,P|433:218|363:205,1,90,10|0,0:0|0:0,0:0:0:0:
272,112,93665,21,2,0:0:0:0:
348,331,93858,1,0,0:0:0:0:
380,301,93954,1,0,0:0:0:0:
388,258,94051,1,2,0:0:0:0:
366,219,94148,1,0,0:0:0:0:
325,203,94245,1,0,0:0:0:0:
283,216,94341,1,0,0:0:0:0:
258,253,94439,6,0,P|221:268|174:258,1,90,6|0,0:1|0:0,0:0:0:0:
118,119,94826,1,10,0:0:0:0:
31,289,95019,1,0,0:0:0:0:
212,192,95213,1,2,0:0:0:0:
26,55,95406,2,0,L|14:159,1,90,0|10,0:0|0:0,0:0:0:0:
121,283,95794,1,0,0:0:0:0:
121,283,95987,22,0,L|133:179,1,90,6|0,0:1|0:0,0:0:0:0:
207,53,96374,1,10,0:0:0:0:
42,117,96568,1,0,0:0:0:0:
233,212,96761,1,2,0:0:0:0:
74,43,96955,1,0,0:0:0:0:
0,275,97148,2,0,P|63:302|135:273,1,135,10|0,0:0|0:0,0:0:0:0:
166,269,97535,6,0,L|263:276,1,90,6|0,0:1|0:0,0:0:0:0:
397,227,97923,1,10,0:0:0:0:
295,370,98116,1,0,0:0:0:0:
189,159,98310,22,0,L|286:152,1,90,6|0,0:1|0:0,0:0:0:0:
420,201,98698,1,10,0:0:0:0:
318,58,98891,1,0,0:0:0:0:
230,221,99084,5,2,0:0:0:0:
198,252,99180,1,0,0:0:0:0:
157,272,99277,1,0,0:0:0:0:
113,277,99374,1,0,0:0:0:0:
57,240,99471,21,2,0:0:0:0:
99,253,99567,1,0,0:0:0:0:
131,284,99664,1,0,0:0:0:0:
144,327,99761,1,0,0:0:0:0:
201,363,99858,5,2,0:0:0:0:
241,384,99955,1,0,0:0:0:0:
285,384,100052,1,0,0:0:0:0:
325,363,100148,1,0,0:0:0:0:
347,299,100245,21,2,0:0:0:0:
390,250,100341,1,0,0:0:0:0:
455,255,100438,1,0,0:0:0:0:
490,310,100535,1,0,0:0:0:0:
417,326,100632,21,2,0:0:0:0:
464,90,100890,1,0,0:0:0:0:
238,174,101149,1,0,0:0:0:0:
485,247,101406,21,2,0:0:0:0:
351,47,101664,1,0,0:0:0:0:
250,266,101923,1,0,0:0:0:0:
506,110,102181,21,2,0:0:0:0:
223,8,102439,1,0,0:0:0:0:
393,256,102698,1,0,0:0:0:0:
393,256,102955,22,0,L|408:128,1,120,2|0,0:0|0:0,0:0:0:0:
312,37,103471,1,0,0:0:0:0:
312,37,103729,22,0,P|268:71|186:57,1,120,2|0,0:0|0:0,0:0:0:0:
46,18,104245,1,0,0:0:0:0:
247,142,104503,22,0,P|192:151|126:100,1,120,2|0,0:0|0:0,0:0:0:0:
21,0,105019,1,0,0:0:0:0:
38,240,105278,21,2,0:0:0:0:
206,68,105536,1,0,0:0:0:0:
357,326,105794,1,0,0:0:0:0:
57,348,106052,21,0,0:0:0:0:
44,304,106149,1,0,0:0:0:0:
45,259,106245,1,0,0:0:0:0:
65,218,106342,1,0,0:0:0:0:
113,170,106439,21,0,0:0:0:0:
126,126,106536,1,0,0:0:0:0:
125,81,106632,1,0,0:0:0:0:
105,40,106729,1,0,0:0:0:0:
41,15,106826,5,6,0:1:0:0:
224,112,107019,1,0,0:0:0:0:
245,105,107116,1,0,0:0:0:0:
266,99,107213,1,10,0:0:0:0:
137,250,107407,1,0,0:0:0:0:
40,86,107600,22,0,L|60:199,1,90,2|0,0:0|0:0,0:0:0:0:
51,219,107890,1,0,0:0:0:0:
51,218,107987,1,10,0:0:0:0:
195,176,108181,1,0,0:0:0:0:
203,342,108374,5,2,0:0:0:0:
303,161,108568,1,0,0:0:0:0:
348,161,108665,1,0,0:0:0:0:
392,162,108761,1,10,0:0:0:0:
508,276,108955,1,0,0:0:0:0:
423,83,109149,22,0,L|429:38,1,45,2|0,0:0|0:0,0:0:0:0:
318,238,109342,1,0,0:0:0:0:
318,238,109439,1,0,0:0:0:0:
318,238,109535,2,0,P|267:248|218:222,1,90,10|0,0:0|0:0,0:0:0:0:
151,67,109923,5,6,0:1:0:0:
151,67,110310,21,0,0:0:0:0:
145,248,110503,1,0,0:0:0:0:
326,169,110697,6,0,L|214:160,1,90,6|0,0:0|0:0,0:0:0:0:
145,248,110987,2,0,L|257:239,1,90,2|0,0:0|0:0,0:0:0:0:
394,117,111278,1,2,0:0:0:0:
449,326,111471,21,2,0:0:0:0:
407,309,111567,1,0,0:0:0:0:
362,307,111664,1,2,0:0:0:0:
319,319,111761,1,0,0:0:0:0:
259,348,111858,5,2,0:0:0:0:
218,366,111954,1,0,0:0:0:0:
173,368,112051,1,2,0:0:0:0:
130,355,112148,1,0,0:0:0:0:
82,306,112245,21,2,0:0:0:0:
104,267,112341,1,0,0:0:0:0:
110,223,112438,1,2,0:0:0:0:
98,180,112535,1,0,0:0:0:0:
61,123,112632,6,0,P|52:98|51:57,1,45,2|0,0:0|0:0,0:0:0:0:
82,306,112826,2,0,P|64:326|29:347,1,45,2|0,0:0|0:0,0:0:0:0:
255,207,113019,22,0,P|281:210|317:230,1,45,2|0,0:0|0:0,0:0:0:0:
479,365,113213,5,0,0:0:0:0:
452,302,113310,2,0,L|462:222,1,45,2|0,0:0|0:0,0:0:0:0:
374,45,113503,21,0,0:0:0:0:
347,108,113600,2,0,L|357:188,1,45,2|0,0:0|0:0,0:0:0:0:
221,384,113794,5,0,0:0:0:0:
194,321,113891,2,0,L|204:241,1,45,2|0,0:0|0:0,0:0:0:0:
143,0,114084,21,0,0:0:0:0:
116,63,114181,2,0,L|126:143,1,45,2|0,0:0|0:0,0:0:0:0:
299,307,114374,2,0,L|306:262,1,45,2|0,0:0|0:0,0:0:0:0:
463,80,114568,5,2,0:0:0:0:
463,80,114955,22,0,L|389:102,1,45
349,249,115148,2,0,L|275:271,1,45
116,63,115342,5,2,0:0:0:0:
116,63,115729,22,0,P|141:52|180:53,1,45
305,261,115923,2,0,P|282:244|264:210,1,45
396,25,116116,6,0,P|390:72|355:130,1,107.999996704102,6|0,0:0|0:0,0:0:0:0:
252,133,116503,1,10,0:0:0:0:
387,311,116697,1,0,0:0:0:0:
401,288,116793,1,0,0:0:0:0:
414,264,116890,21,2,0:0:0:0:
507,173,117084,1,0,0:0:0:0:
313,223,117277,1,10,0:0:0:0:
485,367,117471,1,0,0:0:0:0:
367,149,117664,6,0,P|314:132|263:146,1,107.999996704102,2|0,0:0|0:0,0:0:0:0:
214,210,117955,1,0,0:0:0:0:
214,210,118052,2,0,P|161:227|110:212,1,107.999996704102,10|0,0:0|0:0,0:0:0:0:
42,162,118342,1,0,0:0:0:0:
42,162,118438,21,2,0:0:0:0:
141,342,118632,1,0,0:0:0:0:
164,138,118826,1,10,0:0:0:0:
24,287,119019,1,0,0:0:0:0:
225,247,119213,6,0,B|96:217,1,107.999996704102,2|0,0:0|0:0,0:0:0:0:
42,162,119503,1,0,0:0:0:0:
42,162,119600,1,10,0:0:0:0:
142,318,119793,1,0,0:0:0:0:
307,173,119987,22,0,L|172:142,1,107.999996704102,2|0,0:0|0:0,0:0:0:0:
134,94,120277,1,0,0:0:0:0:
134,94,120374,1,10,0:0:0:0:
225,247,120567,1,0,0:0:0:0:
392,79,120761,5,2,0:0:0:0:
392,79,120858,1,0,0:0:0:0:
392,79,120955,2,0,L|396:132,1,53.9999983520508
296,297,121148,21,2,0:0:0:0:
256,331,121244,1,0,0:0:0:0:
203,334,121341,1,0,0:0:0:0:
159,304,121438,1,0,0:0:0:0:
119,232,121535,6,0,L|121:169,1,53.9999983520508,2|0,0:0|0:0,0:0:0:0:
256,30,121729,2,0,L|254:93,1,53.9999983520508
302,188,121923,22,0,L|249:194,1,53.9999983520508,2|0,0:0|0:0,0:0:0:0:
135,66,122116,2,0,L|82:72,1,53.9999983520508,2|0,0:0|0:0,0:0:0:0:
77,304,122310,5,2,0:0:0:0:
77,304,122503,1,2,0:0:0:0:
194,135,122697,1,4,0:1:0:0:
280,345,122890,1,0,0:0:0:0:
280,345,122987,1,0,0:0:0:0:
280,345,123084,1,2,0:0:0:0:
101,196,123277,1,2,0:0:0:0:
360,264,123471,1,4,0:1:0:0:
114,370,123664,1,0,0:0:0:0:
174,94,123858,22,0,P|227:190|167:303,1,215.999993408203,2|10,0:0|0:0,0:0:0:0:
101,196,124439,1,0,0:0:0:0:
268,63,124632,6,0,L|321:69,1,53.9999983520508,2|0,0:0|0:0,0:0:0:0:
342,164,124827,2,0,L|423:174,1,53.9999983520508,2|0,0:0|0:0,0:0:0:0:
154,189,125019,2,0,L|100:195,1,53.9999983520508,10|0,0:0|0:0,0:0:0:0:
80,290,125213,2,0,L|-1:300,1,53.9999983520508,2|0,0:0|0:0,0:0:0:0:
258,349,125407,22,0,L|269:231,1,107.999996704102,6|0,0:1|0:0,0:0:0:0:
176,107,125794,1,10,0:0:0:0:
371,256,125988,1,0,0:0:0:0:
186,304,126181,6,0,L|175:186,1,107.999996704102,6|0,0:1|0:0,0:0:0:0:
268,62,126568,1,10,0:0:0:0:
73,211,126762,1,0,0:0:0:0:
303,348,126956,21,2,0:0:0:0:
344,316,127051,1,0,0:0:0:0:
369,269,127148,1,0,0:0:0:0:
364,216,127245,1,0,0:0:0:0:
317,149,127342,5,2,0:0:0:0:
265,157,127439,1,0,0:0:0:0:
214,140,127534,1,0,0:0:0:0:
180,99,127631,1,0,0:0:0:0:
198,18,127730,22,0,L|251:22,1,53.9999983520508
417,211,127923,2,0,L|364:215,1,53.9999983520508
204,318,128117,5,2,0:0:0:0:
130,290,128213,1,0,0:0:0:0:
94,219,128310,1,2,0:0:0:0:
114,143,128407,1,0,0:0:0:0:
180,99,128503,22,0,L|128:310,1,180,2|0,0:0|0:0,0:0:0:0:
363,177,129084,2,0,L|384:264,1,90,2|0,0:0|0:0,0:0:0:0:
214,166,129471,1,2,0:0:0:0:
403,70,129664,1,2,0:0:0:0:
444,319,129858,6,0,P|390:346|340:332,1,107.999996704102,6|0,0:0|0:0,0:0:0:0:
200,255,130245,1,0,0:0:0:0:
369,157,130438,2,0,L|380:264,1,107.999996704102,10|0,0:0|0:0,0:0:0:0:
444,319,130729,1,0,0:0:0:0:
444,319,130826,21,2,0:0:0:0:
288,236,131019,1,0,0:0:0:0:
463,145,131213,1,10,0:0:0:0:
441,96,131309,1,0,0:0:0:0:
396,67,131406,1,0,0:0:0:0:
343,66,131503,1,0,0:0:0:0:
280,118,131600,6,0,L|156:127,1,107.999996704102,2|0,0:0|0:0,0:0:0:0:
109,71,131890,1,0,0:0:0:0:
109,71,131987,1,8,0:0:0:0:
349,187,132181,2,0,P|372:145|366:73,1,107.999996704102,0|2,0:0|0:0,0:0:0:0:
280,118,132567,1,0,0:0:0:0:
461,55,132761,1,10,0:0:0:0:
425,252,132955,1,0,0:0:0:0:
269,23,133148,21,2,0:0:0:0:
216,11,133244,1,0,0:0:0:0:
163,21,133341,1,0,0:0:0:0:
118,50,133439,1,0,0:0:0:0:
71,116,133535,5,2,0:0:0:0:
92,165,133631,1,0,0:0:0:0:
96,218,133728,1,0,0:0:0:0:
83,270,133825,1,0,0:0:0:0:
27,329,133922,22,0,P|27:356|42:380,1,53.9999983520508,2|0,0:0|0:0,0:0:0:0:
180,199,134116,2,0,P|180:172|165:148,1,53.9999983520508
249,360,134310,6,0,L|319:346,1,53.9999983520508,2|0,0:0|0:0,0:0:0:0:
339,208,134503,2,0,L|409:194,1,53.9999983520508,2|0,0:0|0:0,0:0:0:0:
424,64,134697,22,0,P|405:144|513:130,1,215.999993408203,6|10,0:1|0:0,0:0:0:0:
508,141,135277,1,0,0:0:0:0:
392,285,135471,2,0,L|273:275,1,107.999996704102,2|0,0:0|0:0,0:0:0:0:
221,224,135761,1,0,0:0:0:0:
221,224,135858,1,10,0:0:0:0:
348,370,136051,1,0,0:0:0:0:
364,163,136245,5,2,0:0:0:0:
362,110,136341,1,0,0:0:0:0:
396,69,136438,1,0,0:0:0:0:
448,61,136535,1,0,0:0:0:0:
493,90,136632,21,10,0:0:0:0:
275,56,136826,1,0,0:0:0:0:
436,143,137019,1,2,0:0:0:0:
277,207,137213,1,0,0:0:0:0:
348,16,137406,5,10,0:0:0:0:
364,67,137503,1,0,0:0:0:0:
301,118,137600,1,2,0:0:0:0:
285,169,137697,1,0,0:0:0:0:
349,240,137793,22,0,P|271:183|284:246,1,215.999993408203,2|10,0:0|0:0,0:0:0:0:
431,261,138374,2,0,P|440:212|418:136,1,107.999996704102,0|2,0:0|0:0,0:0:0:0:
348,16,138761,1,0,0:0:0:0:
341,202,138955,1,10,0:0:0:0:
503,126,139148,1,0,0:0:0:0:
264,46,139342,5,2,0:0:0:0:
211,35,139438,1,0,0:0:0:0:
159,52,139535,1,0,0:0:0:0:
121,90,139632,1,0,0:0:0:0:
89,164,139729,21,2,0:0:0:0:
53,199,139825,1,0,0:0:0:0:
12,171,139922,1,0,0:0:0:0:
31,125,140019,1,0,0:0:0:0:
121,90,140116,5,2,0:0:0:0:
173,98,140213,1,0,0:0:0:0:
226,108,140309,1,0,0:0:0:0:
278,119,140406,1,0,0:0:0:0:
347,76,140503,22,0,L|400:86,1,53.9999983520508,2|0,0:0|0:0,0:0:0:0:
507,233,140697,2,0,L|454:244,1,53.9999983520508,2|0,0:0|0:0,0:0:0:0:
321,314,140890,5,6,0:0:0:0:
278,119,141084,1,0,0:0:0:0:
278,119,141181,1,0,0:0:0:0:
278,119,141277,1,10,0:0:0:0:
454,243,141471,1,0,0:0:0:0:
381,37,141665,1,2,0:0:0:0:
245,183,141858,2,0,P|204:198|129:181,1,90,0|10,0:0|0:0,0:0:0:0:
193,117,142148,1,0,0:0:0:0:
193,117,142245,1,0,0:0:0:0:
77,306,142439,21,2,0:0:0:0:
61,106,142632,1,0,0:0:0:0:
245,183,142826,1,10,0:0:0:0:
12,262,143019,2,0,P|0:310|19:359,1,90,0|2,0:0|0:0,0:0:0:0:
91,193,143406,1,0,0:0:0:0:
162,351,143600,1,10,0:0:0:0:
12,262,143794,1,0,0:0:0:0:
130,118,143987,6,0,P|175:192|115:273,1,180,2|10,0:0|0:0,0:0:0:0:
63,42,144568,2,0,L|165:32,1,90,0|2,0:0|0:0,0:0:0:0:
288,114,144955,1,0,0:0:0:0:
91,193,145148,1,10,0:0:0:0:
152,33,145342,1,0,0:0:0:0:
273,202,145535,21,2,0:0:0:0:
317,201,145631,1,0,0:0:0:0:
355,178,145728,1,0,0:0:0:0:
376,139,145825,1,0,0:0:0:0:
365,71,145923,5,2,0:0:0:0:
401,46,146019,1,0,0:0:0:0:
445,48,146116,1,0,0:0:0:0:
480,76,146213,1,0,0:0:0:0:
500,140,146310,22,0,L|493:226,1,45,2|0,0:0|0:0,0:0:0:0:
403,233,146503,2,0,L|396:319,1,45,2|0,0:0|0:0,0:0:0:0:
299,351,146697,5,2,0:0:0:0:
242,315,146793,1,0,0:0:0:0:
176,301,146890,1,0,0:0:0:0:
110,311,146987,1,0,0:0:0:0:
51,343,147084,22,0,P|100:253|82:198,1,135
26,167,147471,1,6,0:1:0:0:
211,124,147665,1,0,0:0:0:0:
160,35,147858,6,0,P|111:125|129:180,1,135
185,211,148245,1,6,0:1:0:0:
0,254,148439,1,0,0:0:0:0:
211,304,148632,22,0,L|211:116,1,180,2|10,0:0|0:0,0:0:0:0:
315,26,149213,1,0,0:0:0:0:
116,152,149406,2,0,L|60:131,1,45,2|0,0:0|0:0,0:0:0:0:
86,9,149600,2,0,L|142:30,1,45,2|0,0:0|0:0,0:0:0:0:
231,165,149794,5,10,0:0:0:0:
241,208,149890,1,0,0:0:0:0:
322,246,149987,21,2,0:0:0:0:
332,289,150084,1,0,0:0:0:0:
396,352,150181,6,0,P|475:323|478:219,1,180,6|10,0:1|0:0,0:0:0:0:
377,102,150761,1,0,0:0:0:0:
244,290,150955,22,0,P|196:302|135:277,1,90,2|0,0:0|0:0,0:0:0:0:
152,144,151245,2,0,P|184:175|198:218,1,90,2|0,0:0|0:0,0:0:0:0:
97,226,151535,1,2,0:0:0:0:
97,226,151729,6,0,L|4:208,1,90,2|0,0:0|0:0,0:0:0:0:
0,126,152019,1,0,0:0:0:0:
0,126,152116,22,0,L|69:140,1,45,2|0,0:0|0:0,0:0:0:0:
79,309,152310,2,0,L|148:323,1,45
247,217,152503,5,2,0:0:0:0:
289,204,152599,1,0,0:0:0:0:
333,213,152696,1,0,0:0:0:0:
368,241,152793,1,0,0:0:0:0:
396,303,152890,22,0,L|389:377,1,45,2|0,0:0|0:0,0:0:0:0:
321,131,153084,2,0,L|328:57,1,45,2|0,0:0|0:0,0:0:0:0:
491,145,153277,6,0,P|413:225|383:104,1,270,2|2,0:0|0:0,0:0:0:0:
369,117,154245,1,2,0:0:0:0:
228,199,154439,1,2,0:0:0:0:
421,224,154632,22,0,P|483:149|470:62,1,180,6|0,0:0|0:0,0:0:0:0:
331,301,155213,1,10,0:0:0:0:
272,122,155406,2,0,P|231:111|166:132,2,90,0|2|0,0:0|0:0|0:0,0:0:0:0:
421,224,155987,1,10,0:0:0:0:
248,337,156181,1,0,0:0:0:0:
185,312,156277,1,0,0:0:0:0:
151,252,156374,5,2,0:0:0:0:
157,207,156470,1,0,0:0:0:0:
145,164,156567,1,0,0:0:0:0:
85,131,156665,21,0,0:0:0:0:
79,87,156761,1,10,0:0:0:0:
91,43,156858,1,0,0:0:0:0:
151,10,156955,5,0,0:0:0:0:
157,54,157051,1,0,0:0:0:0:
145,97,157148,1,2,0:0:0:0:
85,131,157246,21,0,0:0:0:0:
79,175,157342,1,0,0:0:0:0:
91,219,157439,1,0,0:0:0:0:
151,252,157535,5,10,0:0:0:0:
211,222,157631,1,0,0:0:0:0:
278,220,157728,1,0,0:0:0:0:
339,246,157825,1,0,0:0:0:0:
378,302,157923,21,2,0:0:0:0:
380,257,158019,1,0,0:0:0:0:
383,212,158116,1,0,0:0:0:0:
385,167,158213,1,0,0:0:0:0:
424,112,158310,5,2,0:0:0:0:
372,71,158406,1,0,0:0:0:0:
306,76,158503,1,0,0:0:0:0:
262,125,158600,1,0,0:0:0:0:
241,190,158697,21,2,0:0:0:0:
211,222,158794,1,0,0:0:0:0:
167,226,158891,1,0,0:0:0:0:
132,199,158987,1,0,0:0:0:0:
140,132,159084,5,2,0:0:0:0:
156,67,159180,1,0,0:0:0:0:
112,15,159277,1,0,0:0:0:0:
44,15,159374,1,0,0:0:0:0:
24,80,159471,21,6,0:1:0:0:
56,111,159567,1,0,0:0:0:0:
96,131,159664,1,0,0:0:0:0:
140,138,159761,1,0,0:0:0:0:
184,132,159858,1,10,0:0:0:0:
225,112,159954,1,0,0:0:0:0:
258,82,160051,1,0,0:0:0:0:
280,43,160148,1,0,0:0:0:0:
344,19,160245,5,2,0:0:0:0:
387,28,160341,1,0,0:0:0:0:
425,52,160438,1,0,0:0:0:0:
451,88,160535,1,0,0:0:0:0:
463,131,160632,1,10,0:0:0:0:
458,176,160728,1,0,0:0:0:0:
438,216,160825,1,0,0:0:0:0:
405,245,160922,1,0,0:0:0:0:
337,252,161019,21,2,0:0:0:0:
304,222,161115,1,0,0:0:0:0:
260,214,161212,1,0,0:0:0:0:
220,232,161309,1,0,0:0:0:0:
195,269,161406,1,10,0:0:0:0:
194,313,161502,1,0,0:0:0:0:
218,351,161599,1,0,0:0:0:0:
258,369,161696,1,0,0:0:0:0:
266,292,161794,5,2,0:0:0:0:
240,255,161890,1,0,0:0:0:0:
199,238,161987,1,0,0:0:0:0:
155,245,162084,1,0,0:0:0:0:
110,295,162181,21,10,0:0:0:0:
66,302,162278,1,0,0:0:0:0:
25,285,162375,1,0,0:0:0:0:
10,248,162471,1,0,0:0:0:0:
78,227,162568,6,0,L|90:357,1,90,2|0,0:0|0:0,0:0:0:0:
154,162,162858,1,0,0:0:0:0:
154,162,162955,2,0,L|145:72,1,90,10|0,0:0|0:0,0:0:0:0:
240,255,163342,21,2,0:0:0:0:
353,144,163535,1,0,0:0:0:0:
353,144,163632,1,0,0:0:0:0:
353,144,163729,1,10,0:0:0:0:
413,317,163923,1,0,0:0:0:0:
413,317,164019,1,0,0:0:0:0:
413,317,164116,5,2,0:0:0:0:
372,335,164213,1,0,0:0:0:0:
287,303,164310,21,2,0:0:0:0:
246,321,164407,1,0,0:0:0:0:
164,284,164503,6,0,L|86:309,1,45,2|0,0:0|0:0,0:0:0:0:
22,361,164697,2,0,L|39:280,1,45,2|0,0:0|0:0,0:0:0:0:
52,210,164890,21,2,0:0:0:0:
51,164,164987,1,0,0:0:0:0:
111,97,165084,5,2,0:0:0:0:
114,52,165181,1,0,0:0:0:0:
188,2,165277,21,2,0:0:0:0:
226,63,165374,1,0,0:0:0:0:
289,96,165471,1,0,0:0:0:0:
357,73,165568,1,0,0:0:0:0:
399,40,165665,5,0,0:0:0:0:
432,38,165761,1,0,0:0:0:0:
463,50,165858,1,0,0:0:0:0:
487,74,165955,1,0,0:0:0:0:
499,105,166052,1,0,0:0:0:0:
497,138,166148,1,0,0:0:0:0:
481,168,166245,1,0,0:0:0:0:
455,189,166342,1,0,0:0:0:0:
423,197,166439,1,0,0:0:0:0:
390,191,166535,1,0,0:0:0:0:
362,173,166632,1,0,0:0:0:0:
344,144,166729,1,0,0:0:0:0:
331,91,166826,22,0,B|346:144|346:144|327:203,1,101.250003862381
307,232,167213,5,2,0:0:0:0:
253,145,167406,1,0,0:0:0:0:
165,196,167600,1,0,0:0:0:0:
108,112,167794,1,0,0:0:0:0:
326,73,167987,21,2,0:0:0:0:
253,145,168181,1,0,0:0:0:0:
181,73,168374,1,0,0:0:0:0:
253,1,168568,1,0,0:0:0:0:
307,232,168761,5,2,0:0:0:0:
361,145,168954,1,0,0:0:0:0:
449,196,169148,1,0,0:0:0:0:
506,112,169342,1,0,0:0:0:0:
474,299,169535,21,2,0:0:0:0:
307,232,169728,1,0,0:0:0:0:
475,306,169922,1,0,0:0:0:0:
306,382,170116,1,0,0:0:0:0:
361,145,170310,5,2,0:0:0:0:
294,69,170503,1,0,0:0:0:0:
199,105,170697,1,0,0:0:0:0:
210,205,170891,1,0,0:0:0:0:
426,82,171084,21,2,0:0:0:0:
512,134,171277,1,0,0:0:0:0:
493,234,171471,1,0,0:0:0:0:
393,240,171665,1,0,0:0:0:0:
199,105,171858,5,2,0:0:0:0:
268,294,172051,1,0,0:0:0:0:
394,147,172245,1,0,0:0:0:0:
200,208,172439,1,0,0:0:0:0:
301,106,172632,21,2,0:0:0:0:
300,207,172826,1,0,0:0:0:0:
199,207,173019,1,0,0:0:0:0:
199,106,173213,1,0,0:0:0:0:
482,237,173406,5,2,0:0:0:0:
398,180,173599,1,0,0:0:0:0:
300,207,173793,1,0,0:0:0:0:
254,297,173987,1,0,0:0:0:0:
30,237,174181,21,2,0:0:0:0:
114,180,174374,1,0,0:0:0:0:
212,207,174568,1,0,0:0:0:0:
258,297,174762,1,0,0:0:0:0:
257,94,174955,5,2,0:0:0:0:
212,207,175148,1,0,0:0:0:0:
300,207,175342,1,0,0:0:0:0:
257,94,175536,1,0,0:0:0:0:
160,300,175729,21,2,0:0:0:0:
255,327,175922,1,0,0:0:0:0:
349,293,176116,1,0,0:0:0:0:
256,188,176310,1,0,0:0:0:0:
372,48,176503,5,2,0:0:0:0:
452,112,176696,1,0,0:0:0:0:
360,152,176890,1,0,0:0:0:0:
500,48,177084,22,0,L|486:208,1,135.000005149842,2|2,0:0|0:0,0:0:0:0:
412,248,177665,1,0,0:0:0:0:
488,316,177858,1,0,0:0:0:0:
308,364,178052,5,2,0:0:0:0:
268,272,178245,1,0,0:0:0:0:
284,172,178439,1,0,0:0:0:0:
344,88,178633,1,0,0:0:0:0:
196,216,178826,22,0,P|128:244|52:212,1,135.000005149842,2|0,0:0|0:0,0:0:0:0:
220,110,179600,6,2,P|304:198|236:318,1,270
196,216,180568,1,0,0:0:0:0:
375,309,180761,1,0,0:0:0:0:
333,80,180955,22,0,L|110:62,1,215.999993408203,6|0,0:0|0:0,0:0:0:0:
398,144,181535,2,0,P|424:89|400:20,1,107.999996704102,10|0,0:0|0:0,0:0:0:0:
314,166,181923,5,2,0:0:0:0:
465,243,182116,1,0,0:0:0:0:
254,298,182310,1,10,0:0:0:0:
262,86,182503,1,0,0:0:0:0:
329,337,182697,22,0,P|281:378|195:359,1,107.999996704102,2|0,0:0|0:0,0:0:0:0:
175,329,182987,1,0,0:0:0:0:
175,329,183084,1,10,0:0:0:0:
374,198,183277,6,0,P|422:239|508:220,1,107.999996704102,0|2,0:0|0:0,0:0:0:0:
456,143,183664,1,0,0:0:0:0:
348,290,183858,1,10,0:0:0:0:
276,84,184052,1,0,0:0:0:0:
442,312,184245,21,2,0:0:0:0:
416,358,184341,1,0,0:0:0:0:
369,384,184438,1,0,0:0:0:0:
316,382,184535,1,0,0:0:0:0:
264,320,184632,5,2,0:0:0:0:
212,307,184729,1,0,0:0:0:0:
159,311,184826,1,0,0:0:0:0:
110,332,184922,1,0,0:0:0:0:
35,364,185019,22,0,P|20:332|13:284,1,53.9999983520508,2|0,0:0|0:0,0:0:0:0:
99,76,185213,2,0,P|111:100|118:125,1,53.9999983520508
176,229,185407,6,0,L|228:239,1,53.9999983520508,2|0,0:0|0:0,0:0:0:0:
333,111,185600,2,0,L|385:100,1,53.9999983520508,2|0,0:0|0:0,0:0:0:0:
475,294,185794,22,0,P|400:322|402:221,1,215.999993408203,6|10,0:1|0:0,0:0:0:0:
504,147,186374,1,0,0:0:0:0:
363,340,186568,2,0,L|244:330,1,107.999996704102,2|0,0:0|0:0,0:0:0:0:
204,225,186858,1,0,0:0:0:0:
204,225,186955,1,10,0:0:0:0:
306,384,187148,1,0,0:0:0:0:
114,272,187342,6,0,P|104:211|132:152,1,107.999996704102,2|0,0:0|0:0,0:0:0:0:
119,45,187632,1,0,0:0:0:0:
119,45,187729,22,0,P|82:95|21:117,1,107.999996704102,10|0,0:0|0:0,0:0:0:0:
22,203,188019,1,0,0:0:0:0:
22,203,188116,1,2,0:0:0:0:
222,58,188310,1,0,0:0:0:0:
204,225,188503,5,10,0:0:0:0:
42,114,188697,1,0,0:0:0:0:
278,177,188890,22,2,P|218:259|220:184,1,215.999993408203,2|10,0:0|0:0,0:0:0:0:
293,70,189471,2,0,L|275:194,1,107.999996704102,0|2,0:0|0:0,0:0:0:0:
344,331,189858,1,0,0:0:0:0:
203,224,190052,1,10,0:0:0:0:
391,158,190245,1,0,0:0:0:0:
197,330,190439,5,2,0:0:0:0:
146,314,190535,1,0,0:0:0:0:
109,275,190632,1,0,0:0:0:0:
96,223,190729,1,0,0:0:0:0:
164,178,190826,21,2,0:0:0:0:
191,132,190923,1,0,0:0:0:0:
193,78,191020,1,0,0:0:0:0:
168,31,191116,1,0,0:0:0:0:
89,53,191213,6,0,L|28:34,1,53.9999983520508,2|0,0:0|0:0,0:0:0:0:
244,204,191406,2,0,L|305:223,1,53.9999983520508,2|0,0:0|0:0,0:0:0:0:
91,206,191600,22,0,L|74:257,1,53.9999983520508,2|0,0:0|0:0,0:0:0:0:
242,51,191793,2,0,L|258:0,1,53.9999983520508,2|0,0:0|0:0,0:0:0:0:
283,307,191987,5,6,0:0:0:0:
171,131,192181,1,0,0:0:0:0:
171,131,192277,1,0,0:0:0:0:
171,131,192374,2,0,L|208:10,1,90,10|0,0:0|0:0,0:0:0:0:
340,205,192761,22,0,P|287:230|248:222,1,90,2|0,0:0|0:0,0:0:0:0:
410,155,193052,1,0,0:0:0:0:
410,155,193148,2,0,L|416:249,1,90,10|0,0:0|0:0,0:0:0:0:
481,347,193535,5,2,0:0:0:0:
257,225,193729,1,0,0:0:0:0:
257,225,193825,1,0,0:0:0:0:
257,225,193923,2,0,L|251:131,1,90,10|0,0:0|0:0,0:0:0:0:
127,289,194310,21,2,0:0:0:0:
351,167,194504,1,0,0:0:0:0:
351,167,194600,1,0,0:0:0:0:
351,167,194698,2,0,L|357:73,1,90,10|0,0:0|0:0,0:0:0:0:
471,270,195084,5,2,0:0:0:0:
251,135,195277,1,0,0:0:0:0:
251,135,195374,1,0,0:0:0:0:
251,135,195471,1,10,0:0:0:0:
426,51,195665,1,0,0:0:0:0:
174,73,195858,22,0,P|158:106|175:183,1,90,2|0,0:0|0:0,0:0:0:0:
223,223,196148,1,0,0:0:0:0:
223,223,196245,2,0,L|342:214,1,90,10|0,0:0|0:0,0:0:0:0:
447,94,196632,5,2,0:0:0:0:
433,137,196729,1,0,0:0:0:0:
433,182,196826,1,0,0:0:0:0:
447,224,196923,1,0,0:0:0:0:
485,279,197019,22,0,P|492:315|489:342,1,45,2|0,0:0|0:0,0:0:0:0:
348,145,197213,2,0,P|341:109|344:82,1,45,2|0,0:0|0:0,0:0:0:0:
269,304,197406,5,2,0:0:0:0:
227,321,197502,1,0,0:0:0:0:
183,319,197599,1,0,0:0:0:0:
143,299,197696,1,0,0:0:0:0:
102,244,197794,21,2,0:0:0:0:
119,203,197890,1,0,0:0:0:0:
118,159,197987,1,0,0:0:0:0:
97,119,198084,1,0,0:0:0:0:
34,93,198181,5,6,0:1:0:0:
218,233,198374,1,0,0:0:0:0:
218,233,198471,1,0,0:0:0:0:
218,233,198568,2,0,L|241:120,1,90,10|0,0:0|0:0,0:0:0:0:
403,17,198955,22,0,L|426:130,1,90,2|0,0:0|0:0,0:0:0:0:
397,192,199245,1,0,0:0:0:0:
397,192,199342,2,0,P|341:219|264:176,1,135,10|0,0:0|0:0,0:0:0:0:
334,91,199729,6,0,L|336:135,1,45,2|0,0:0|0:0,0:0:0:0:
221,297,199923,2,0,L|219:253,1,45
412,127,200116,2,0,L|414:171,1,45,10|0,0:0|0:0,0:0:0:0:
299,333,200310,2,0,L|297:289,1,45
202,120,200503,21,2,0:0:0:0:
181,90,200600,1,0,0:0:0:0:
145,81,200697,1,0,0:0:0:0:
113,99,200794,1,0,0:0:0:0:
100,132,200890,2,0,L|213:131,1,90,10|0,0:0|0:0,0:0:0:0:
395,53,201277,5,6,0:1:0:0:
189,131,201471,1,0,0:0:0:0:
189,131,201568,1,0,0:0:0:0:
189,131,201665,2,0,P|177:178|191:226,1,90,10|0,0:0|0:0,0:0:0:0:
348,338,202052,21,6,0:1:0:0:
426,132,202246,1,0,0:0:0:0:
426,132,202343,1,0,0:0:0:0:
426,132,202440,2,0,P|473:120|521:134,1,90,10|0,0:0|0:0,0:0:0:0:
382,320,202826,6,0,L|310:304,1,58.4999973220826,6|0,0:1|0:0,0:0:0:0:
98,188,203019,21,0,0:0:0:0:
150,216,203116,2,0,L|214:200,1,58.4999973220826,6|0,0:1|0:0,0:0:0:0:
478,104,203310,5,0,0:0:0:0:
426,132,203407,2,0,L|362:116,1,58.4999973220826,6|0,0:1|0:0,0:0:0:0:
91,96,203600,2,0,L|155:80,1,58.4999973220826,6|0,0:1|0:0,0:0:0:0:
319,18,203794,21,0,0:0:0:0:
287,66,203891,2,0,P|279:98|279:152,1,58.4999973220826,6|0,0:1|0:0,0:0:0:0:
413,350,204084,5,0,0:0:0:0:
387,298,204181,2,0,P|363:275|316:248,1,58.4999973220826,6|0,0:1|0:0,0:0:0:0:
97,319,204374,2,0,P|128:309|175:282,1,58.4999973220826,6|0,0:1|0:0,0:0:0:0:
412,190,204568,21,0,0:0:0:0:
381,239,204665,2,0,L|390:330,1,58.4999973220826,6|0,0:1|0:0,0:0:0:0:
60,145,204858,5,0,0:0:0:0:
91,96,204955,2,0,L|82:5,1,58.4999973220826,6|0,0:1|0:0,0:0:0:0:
150,298,205148,2,0,L|145:357,1,58.4999973220826,6|0,0:1|0:0,0:0:0:0:
302,92,205342,21,2,0:0:0:0:
294,149,205438,1,2,0:0:0:0:
256,192,205535,1,2,0:0:0:0:
201,208,205632,1,2,0:0:0:0:
146,190,205729,1,2,0:0:0:0:
109,146,205825,1,2,0:0:0:0:
256,192,206697,5,6,0:0:0:0:
256,192,206794,12,0,210568,0:0:0:0:
