osu file format v14

[General]
AudioFilename: audio.mp3
AudioLeadIn: 0
PreviewTime: 57591
Countdown: 0
SampleSet: None
StackLeniency: 0
Mode: 0
LetterboxInBreaks: 0
WidescreenStoryboard: 1

[Editor]
Bookmarks: 24832,113108,186211
DistanceSpacing: 1
BeatDivisor: 4
GridSize: 4
TimelineZoom: 1.6

[Metadata]
Title:Zetsubou no Fuchi
TitleUnicode:絶望の淵
Artist:senya
ArtistUnicode:senya
Creator:-Mo-
Version:Easy
Source:
Tags:Yuuhei Catharsis 幽閉カタルシス Shoujo Fractal 少女フラクタル Satellite 空母ヲ級 Kantai Collection KanColle 艦隊これくしょん 艦これ 艦隊これくしょん -艦これ- Kamase-tora かませ虎 poplar Mayumi Morinaga 森永真由美 Korekushon Combined Fleet C90
BeatmapID:1342009
BeatmapSetID:605290

[Difficulty]
HPDrainRate:2.2
CircleSize:3
OverallDifficulty:3.2
ApproachRate:3.2
SliderMultiplier:0.8
SliderTickRate:1

[Events]
//Background and Video events
0,0,"bg.jpg",0,0
//Break Periods
2,2963,5461
2,102418,106176
//Storyboard Layer 0 (Background)
//Storyboard Layer 1 (Fail)
//Storyboard Layer 2 (Pass)
//Storyboard Layer 3 (Foreground)
Sprite,Foreground,CentreLeft,"sb\flash.png",486,158 S,0,24832,,0.9 R,0,24832,,-3.03441 F,1,24832,25832,1,0
Sprite,Foreground,CentreLeft,"sb\flash.png",276,419 S,0,27591,,0.9 R,0,27591,,-1.747285 F,1,27591,28591,1,0
Sprite,Foreground,CentreLeft,"sb\flash.png",344,344 S,0,30349,,0.9 R,0,30349,,3.060013 F,1,30349,31349,1,0
Sprite,Foreground,CentreLeft,"sb\flash.png",396,62 S,0,34487,,0.9 R,0,34487,,-0.03748244 F,1,34487,35487,1,0
Sprite,Foreground,CentreLeft,"sb\flash.png",274,134 S,0,35177,,0.9 R,0,35177,,-0.03748244 F,1,35177,36177,1,0
Sprite,Foreground,CentreLeft,"sb\flash.png",234,234 S,0,35867,,0.9 R,0,35867,,-1.671718 F,1,35867,36867,1,0
Sprite,Foreground,CentreLeft,"sb\flash.png",366,86 S,0,38625,,0.9 R,0,38625,,2.965104 F,1,38625,39625,1,0
Sprite,Foreground,CentreLeft,"sb\flash.png",277,347 S,0,41384,,0.9 R,0,41384,,-1.386997 F,1,41384,42384,1,0
Sprite,Foreground,CentreLeft,"sb\flash.png",166,294 S,0,45522,,0.9 R,0,45522,,2.963996 F,1,45522,46522,1,0
Sprite,Foreground,CentreLeft,"sb\flash.png",312,323 S,0,46211,,0.9 R,0,46211,,2.963996 F,1,46211,47211,1,0
Sprite,Foreground,CentreLeft,"sb\flash.png",403,265 S,0,46901,,0.9 R,0,46901,,1.733892 F,1,46901,47901,1,0
Sprite,Foreground,CentreLeft,"sb\flash.png",211,290 S,0,49660,,0.9 R,0,49660,,1.407701 F,1,49660,50660,1,0
Sprite,Foreground,CentreLeft,"sb\flash.png",454,356 S,0,52418,,0.9 R,0,52418,,2.418062 F,1,52418,53418,1,0
Sprite,Foreground,CentreLeft,"sb\flash.png",99,282 S,0,55177,,0.9 R,0,55177,,0.8338184 F,1,55177,56177,1,0
Sprite,Foreground,CentreLeft,"sb\flash.png",377,164 S,0,57936,,0.9 R,0,57936,,3.066264 F,1,57936,58936,1,0
Sprite,Foreground,CentreLeft,"sb\flash.png",289,373 S,0,60694,,0.9 R,0,60694,,-0.4385132 F,1,60694,61694,1,0
Sprite,Foreground,CentreLeft,"sb\flash.png",131,129 S,0,63453,,0.9 R,0,63453,,1.658074 F,1,63453,64453,1,0
Sprite,Foreground,CentreLeft,"sb\flash.png",427,158 S,0,66211,,0.9 R,0,66211,,-2.742462 F,1,66211,67211,1,0
Sprite,Foreground,CentreLeft,"sb\flash.png",266,390 S,0,68970,,0.9 R,0,68970,,-1.904498 F,1,68970,69970,1,0
Sprite,Foreground,CentreLeft,"sb\flash.png",427,407 S,0,71728,,0.9 R,0,71728,,2.946648 F,1,71728,72728,1,0
Sprite,Foreground,CentreLeft,"sb\flash.png",414,116 S,0,74487,,0.9 R,0,74487,,0.8689039 F,1,74487,75487,1,0
Sprite,Foreground,CentreLeft,"sb\flash.png",292,328 S,0,77246,,0.9 R,0,77246,,-1.690475 F,1,77246,78246,1,0
Sprite,Foreground,CentreLeft,"sb\flash.png",368,277 S,0,78625,,0.9 R,0,78625,,1.446441 F,1,78625,79625,1,0
Sprite,Foreground,CentreLeft,"sb\flash.png",425,150 S,0,113453,,0.9 R,0,113453,,2.982687 F,1,113453,114453,1,0
Sprite,Foreground,CentreLeft,"sb\flash.png",336,283 S,0,115867,,0.9 R,0,115867,,-2.329415 F,1,115867,116867,1,0
Sprite,Foreground,CentreLeft,"sb\flash.png",389,243 S,0,118625,,0.9 R,0,118625,,2.951604 F,1,118625,119625,1,0
Sprite,Foreground,CentreLeft,"sb\flash.png",406,345 S,0,122763,,0.9 R,0,122763,,0.7588557 F,1,122763,123763,1,0
Sprite,Foreground,CentreLeft,"sb\flash.png",343,209 S,0,123453,,0.9 R,0,123453,,0.7588557 F,1,123453,124453,1,0
Sprite,Foreground,CentreLeft,"sb\flash.png",203,289 S,0,124142,,0.9 R,0,124142,,-0.5467888 F,1,124142,125142,1,0
Sprite,Foreground,CentreLeft,"sb\flash.png",243,191 S,0,126901,,0.9 R,0,126901,,0.3256416 F,1,126901,127901,1,0
Sprite,Foreground,CentreLeft,"sb\flash.png",379,253 S,0,129660,,0.9 R,0,129660,,-0.2984989 F,1,129660,130660,1,0
Sprite,Foreground,CentreLeft,"sb\flash.png",369,196 S,0,132418,,0.9 R,0,132418,,0.03748244 F,1,132418,133418,1,0
Sprite,Foreground,CentreLeft,"sb\flash.png",210,250 S,0,135177,,0.9 R,0,135177,,-1.017502 F,1,135177,136177,1,0
Sprite,Foreground,CentreLeft,"sb\flash.png",295,251 S,0,137936,,0.9 R,0,137936,,2.902656 F,1,137936,138936,1,0
Sprite,Foreground,CentreLeft,"sb\flash.png",259,194 S,0,140694,,0.9 R,0,140694,,0.2510027 F,1,140694,141694,1,0
Sprite,Foreground,CentreLeft,"sb\flash.png",263,286 S,0,143452,,0.9 R,0,143452,,-1.95832 F,1,143452,144452,1,0
Sprite,Foreground,CentreLeft,"sb\flash.png",442,427 S,0,146211,,0.9 R,0,146211,,3.060013 F,1,146211,147211,1,0
Sprite,Foreground,CentreLeft,"sb\flash.png",470,239 S,0,148970,,0.9 R,0,148970,,1.390389 F,1,148970,149970,1,0
Sprite,Foreground,CentreLeft,"sb\flash.png",144,166 S,0,151729,,0.9 R,0,151729,,-0.1366432 F,1,151729,152729,1,0
Sprite,Foreground,CentreLeft,"sb\flash.png",191,235 S,0,154487,,0.9 R,0,154487,,-2.446042 F,1,154487,155487,1,0
Sprite,Foreground,CentreLeft,"sb\flash.png",106,271 S,0,155866,,0.9 R,0,155866,,0.6989093 F,1,155866,156866,1,0
Sprite,Foreground,CentreLeft,"sb\flash.png",550,351 S,0,160005,,0.9 R,0,160005,,-2.432281 F,1,160005,161005,1,0
Sprite,Foreground,CentreLeft,"sb\flash.png",496,201 S,0,162763,,0.9 R,0,162763,,1.221494 F,1,162763,163763,1,0
Sprite,Foreground,CentreLeft,"sb\flash.png",133,86 S,0,165522,,0.9 R,0,165522,,0.124355 F,1,165522,166522,1,0
Sprite,Foreground,CentreLeft,"sb\flash.png",180,340 S,0,168280,,0.9 R,0,168280,,-2.333976 F,1,168280,169280,1,0
Sprite,Foreground,CentreLeft,"sb\flash.png",217,70 S,0,171039,,0.9 R,0,171039,,2.853761 F,1,171039,172039,1,0
Sprite,Foreground,CentreLeft,"sb\flash.png",348,282 S,0,173798,,0.9 R,0,173798,,-1.765741 F,1,173798,174798,1,0
Sprite,Foreground,CentreLeft,"sb\flash.png",225,353 S,0,176556,,0.9 R,0,176556,,0.3021452 F,1,176556,177556,1,0
Sprite,Foreground,CentreLeft,"sb\flash.png",178,376 S,0,179315,,0.9 R,0,179315,,-1.621174 F,1,179315,180315,1,0
//Storyboard Sound Samples

[TimingPoints]
5,344.827586206897,4,2,1,100,1,0
2505,-100,4,3,1,20,0,0
2591,-100,4,2,1,100,0,0
6901,-100,4,3,1,30,0,0
7591,-100,4,3,1,50,0,0
8280,-100,4,2,1,60,0,0
13108,-100,4,3,1,60,0,0
13194,-100,4,2,1,60,0,0
13798,-100,4,2,1,80,0,0
18970,-100,4,3,2,80,0,0
19315,-100,4,2,1,80,0,0
24487,-100,4,3,2,80,0,0
24832,-100,4,2,1,80,0,0
30005,-100,4,3,2,80,0,0
30349,-100,4,2,1,80,0,0
33798,-100,4,3,1,80,0,0
33884,-100,4,2,1,80,0,0
34401,-100,4,2,1,20,0,0
34487,-100,4,2,1,80,0,0
35522,-100,4,3,2,80,0,0
35867,-100,4,2,1,80,0,0
41039,-100,4,3,2,80,0,0
41384,-100,4,2,1,80,0,0
44832,-100,4,3,1,80,0,0
44918,-100,4,2,1,80,0,0
45436,-100,4,2,1,20,0,0
45522,-100,4,2,1,80,0,0
46556,-100,4,3,2,80,0,0
46901,-100,4,2,1,80,0,0
48453,-100,4,3,1,80,0,0
48539,-100,4,2,1,80,0,0
51211,-100,4,3,1,80,0,0
51298,-100,4,2,1,80,0,0
52073,-100,4,3,2,80,0,0
52418,-100,4,2,1,80,0,0
53970,-100,4,3,1,80,0,0
54056,-100,4,2,1,80,0,0
57591,-100,4,3,2,80,0,0
57936,-100,4,2,1,100,0,1
63108,-100,4,3,2,100,0,1
63453,-100,4,2,1,100,0,1
67591,-100,4,2,1,100,0,0
68625,-100,4,3,2,100,0,0
68970,-100,4,2,1,100,0,1
74142,-100,4,3,2,100,0,1
74487,-100,4,2,1,100,0,1
78625,-100,4,2,1,100,0,0
78970,-100,4,3,1,100,0,0
79660,-100,4,3,2,100,0,0
80005,-100,4,2,1,100,0,1
80349,-100,4,2,1,100,0,0
80694,-100,4,3,1,100,0,0
80780,-100,4,2,1,100,0,0
83453,-100,4,3,1,100,0,0
83539,-100,4,2,1,100,0,0
85177,-100,4,3,2,100,0,0
85522,-100,4,2,1,100,0,0
86211,-100,4,3,1,100,0,0
86298,-100,4,2,1,100,0,0
88970,-100,4,3,1,100,0,0
89056,-100,4,2,1,100,0,0
90694,-100,4,3,2,100,0,0
91039,-100,4,2,1,100,0,0
92763,-100,4,3,1,100,0,0
92849,-100,4,2,1,100,0,0
95522,-100,4,3,1,100,0,0
95608,-100,4,2,1,100,0,0
96211,-100,4,3,2,100,0,0
96556,-100,4,2,1,100,0,0
100694,-83.3333333333333,4,2,1,100,0,0
101901,-83.3333333333333,4,3,1,60,0,0
101987,-83.3333333333333,4,2,1,100,0,0
102591,-100,4,2,1,50,0,0
106211,-100,4,2,1,30,0,0
106901,-100,4,2,1,50,0,0
107591,-100,4,2,1,60,0,0
111729,-100,4,3,1,40,0,0
112418,-100,4,3,1,60,0,0
113453,-100,4,2,1,80,0,0
113798,-100,4,3,1,80,0,0
113884,-100,4,2,1,80,0,0
118280,-100,4,3,2,80,0,0
118625,-100,4,2,1,80,0,0
122073,-100,4,3,1,80,0,0
122160,-100,4,2,1,80,0,0
122677,-100,4,2,1,20,0,0
122763,-100,4,2,1,80,0,0
123798,-100,4,3,2,80,0,0
124142,-100,4,2,1,80,0,0
125694,-100,4,3,1,80,0,0
125780,-100,4,2,1,80,0,0
128453,-100,4,3,1,80,0,0
128539,-100,4,2,1,80,0,0
129315,-100,4,3,2,80,0,0
129660,-100,4,2,1,80,0,0
131211,-100,4,3,1,80,0,0
131298,-100,4,2,1,80,0,0
134832,-100,4,3,2,80,0,0
135177,-100,4,2,1,100,0,1
140349,-100,4,3,2,100,0,1
140694,-100,4,2,1,100,0,1
144832,-100,4,2,1,100,0,0
145177,-100,4,3,1,100,0,0
145867,-100,4,3,2,100,0,0
146211,-100,4,2,1,100,0,1
151384,-100,4,3,2,100,0,1
151729,-100,4,2,1,100,0,1
155867,-100,4,2,1,100,0,0
156211,-100,4,3,1,100,0,0
156901,-100,4,3,2,100,0,0
157246,-100,4,2,1,100,0,1
157332,-100,4,2,1,100,0,0
159660,-100,4,3,2,100,0,0
160005,-100,4,2,1,100,0,1
165177,-100,4,3,2,100,0,1
165522,-100,4,2,1,100,0,1
169660,-100,4,2,1,100,0,0
170694,-100,4,3,2,100,0,0
171039,-100,4,2,1,100,0,1
176211,-100,4,3,2,100,0,1
176556,-100,4,2,1,100,0,1
179315,-100,4,3,1,100,0,1
183453,-100,4,2,1,100,0,0
185867,-100,4,2,1,50,0,0
186125,-100,4,2,1,10,0,0

[Colours]
Combo1 : 0,130,225
Combo2 : 1,67,220

[HitObjects]
268,80,2160,6,0,L|256:219,1,140,2|6,0:0|1:2,0:0:0:0:
81,122,6901,6,0,L|160:125,1,80
234,92,7591,1,0,0:0:0:0:
383,148,8280,6,0,L|370:227,1,80,0|0,1:2|3:0,0:0:0:0:
302,317,9142,2,0,L|308:277,1,40,0|0,1:2|3:0,0:0:0:0:
258,215,9660,2,0,L|271:136,1,80,0|0,1:2|3:0,0:0:0:0:
229,34,10522,2,0,L|222:73,1,40,0|0,1:2|3:0,0:0:0:0:
162,126,11039,6,0,L|84:146,1,80,2|2,1:1|1:1,0:0:0:0:
93,226,11729,2,0,L|170:205,1,80,2|2,1:1|1:1,0:0:0:0:
235,157,12418,1,0,3:0:0:0:
302,201,12763,2,0,L|267:357,1,160,2|8,1:0|0:0,0:0:0:0:
188,374,13798,6,0,L|74:249,1,160,6|2,1:2|0:0,0:0:0:0:
27,195,14832,1,8,0:0:0:0:
92,148,15177,2,0,L|206:273,1,160,2|2,1:2|0:0,0:0:0:0:
253,327,16211,1,8,0:0:0:0:
324,290,16556,6,0,L|318:121,1,160,2|2,1:2|0:0,0:0:0:0:
316,50,17591,1,8,0:0:0:0:
236,53,17936,2,0,L|241:221,1,160,2|2,1:2|0:0,0:0:0:0:
243,293,18971,1,8,0:0:0:0:
172,255,19315,6,0,L|94:273,2,80,6|8|2,1:2|0:0|1:2,0:0:0:0:
154,176,20349,1,8,0:0:0:0:
137,98,20694,2,0,L|60:117,1,80,6|8,1:2|0:0,0:0:0:0:
76,196,21384,1,2,1:2:0:0:
154,176,21729,1,8,0:0:0:0:
172,255,22073,6,0,L|249:276,2,80,6|8|4,1:2|0:0|1:1,0:0:0:0:
118,314,23108,1,8,0:0:0:0:
90,238,23453,6,0,L|126:166,1,80,12|12,1:2|1:1,0:0:0:0:
162,95,24142,2,0,L|198:23,1,80,12|8,1:1|0:0,0:0:0:0:
264,85,24832,6,0,L|422:102,1,160,6|2,1:2|0:0,0:0:0:0:
503,110,25867,1,8,0:0:0:0:
491,192,26211,2,0,L|333:175,1,160,2|2,1:2|0:0,0:0:0:0:
253,166,27246,1,8,0:0:0:0:
184,206,27591,6,0,L|212:363,2,160,6|2|2,1:2|0:0|1:2,0:0:0:0:
169,127,29315,1,8,0:0:0:0:
91,144,29660,2,0,L|105:222,1,80,2|8,0:0|0:0,0:0:0:0:
121,301,30349,6,0,L|280:288,1,160,6|2,1:2|0:0,0:0:0:0:
360,280,31384,1,8,0:0:0:0:
351,201,31729,2,0,L|192:214,2,160,2|2|2,1:2|0:0|1:2,0:0:0:0:
426,231,33453,2,0,L|451:73,1,160,8|8,0:0|0:0,0:0:0:0:
412,3,34487,6,0,L|332:6,1,80,2|10,1:2|0:0,0:0:0:0:
290,75,35177,2,0,L|210:78,1,80,2|10,0:0|0:2,0:0:0:0:
154,20,35867,6,0,L|170:178,1,160,6|2,1:2|0:0,0:0:0:0:
178,259,36902,1,8,0:0:0:0:
98,266,37246,2,0,L|81:107,1,160,2|2,1:2|0:0,0:0:0:0:
73,26,38281,1,8,0:0:0:0:
145,58,38625,6,0,L|302:30,2,160,6|2|2,1:2|0:0|1:2,0:0:0:0:
66,72,40349,1,8,0:0:0:0:
83,151,40694,2,0,L|161:137,1,80,2|8,0:0|0:0,0:0:0:0:
242,135,41384,6,0,L|213:291,1,160,6|2,1:2|0:0,0:0:0:0:
199,371,42419,1,8,0:0:0:0:
279,383,42764,2,0,L|307:226,2,160,2|2|2,1:2|0:0|1:2,0:0:0:0:
199,371,44487,2,0,L|44:330,1,160,8|8,0:0|0:0,0:0:0:0:
24,252,45522,6,0,L|102:238,1,80,2|10,1:2|0:0,0:0:0:0:
170,281,46211,2,0,L|248:267,1,80,2|10,0:0|0:2,0:0:0:0:
326,288,46901,6,0,L|339:209,1,80,6|8,1:2|1:0,0:0:0:0:
351,130,47591,2,0,L|357:90,1,40,6|0,1:2|1:0,0:0:0:0:
280,69,48108,2,0,L|260:187,1,120,4|12,1:1|1:1,0:0:0:0:
246,266,48970,2,0,L|233:345,1,80,4|12,1:1|1:1,0:0:0:0:
160,313,49660,6,0,L|147:234,1,80,6|8,1:2|1:0,0:0:0:0:
133,155,50350,2,0,L|127:115,1,40,6|0,1:2|1:0,0:0:0:0:
206,94,50867,2,0,L|225:212,1,120,4|12,1:1|1:1,0:0:0:0:
238,291,51729,2,0,L|251:370,1,80,4|12,1:1|1:1,0:0:0:0:
330,353,52418,6,0,L|390:300,1,80,6|8,1:2|1:0,0:0:0:0:
452,248,53108,2,0,L|482:221,1,40,6|0,1:2|1:0,0:0:0:0:
435,155,53625,2,0,L|343:233,1,120,4|12,1:1|1:1,0:0:0:0:
282,284,54487,2,0,L|221:336,1,80,4|12,1:1|1:1,0:0:0:0:
143,345,55177,6,0,L|35:226,2,160,4|4|12,1:2|1:1|1:2,0:0:0:0:
208,299,56901,2,0,L|154:239,1,80,12|12,1:1|1:1,0:0:0:0:
100,179,57591,1,8,0:0:0:0:
154,120,57936,6,0,L|313:108,2,160,6|2|2,1:2|0:0|1:2,0:0:0:0:
160,199,59660,1,8,0:0:0:0:
239,192,60005,2,0,L|318:186,1,80,2|8,0:0|0:0,0:0:0:0:
370,249,60694,6,0,L|225:317,1,160,2|2,1:2|0:0,0:0:0:0:
153,351,61729,1,8,0:0:0:0:
118,280,62073,2,0,L|190:246,2,80,2|10|2,1:2|0:0|0:0,0:0:0:0:
45,313,63108,1,10,0:2:0:0:
53,233,63453,6,0,L|67:73,2,160,2|2|2,1:2|0:0|1:2,0:0:0:0:
133,241,65177,1,8,0:0:0:0:
141,162,65522,2,0,L|148:82,1,80,2|8,0:0|0:0,0:0:0:0:
216,40,66211,6,0,L|363:102,1,160,2|2,1:2|0:0,0:0:0:0:
438,133,67246,1,8,0:0:0:0:
408,207,67591,2,0,L|334:175,1,80,2|10,1:2|0:0,0:0:0:0:
260,144,68280,2,0,L|186:112,1,80,2|10,0:0|0:2,0:0:0:0:
150,184,68970,6,0,L|202:334,2,160,6|2|2,1:2|0:0|1:2,0:0:0:0:
75,210,70694,1,8,0:0:0:0:
101,286,71039,2,0,L|127:360,1,80,2|8,0:0|0:0,0:0:0:0:
206,382,71728,6,0,L|363:351,1,160,2|2,1:2|0:0,0:0:0:0:
442,336,72763,1,8,0:0:0:0:
428,258,73108,2,0,L|349:272,2,80,2|10|2,1:2|0:0|0:0,0:0:0:0:
507,244,74142,1,10,0:2:0:0:
454,183,74487,6,0,L|350:60,2,160,2|2|2,1:2|0:0|1:2,0:0:0:0:
395,237,76211,1,8,0:0:0:0:
342,176,76556,2,0,L|290:114,1,80,2|8,0:0|0:0,0:0:0:0:
209,114,77246,6,0,L|228:272,1,160,2|2,1:2|0:0,0:0:0:0:
238,352,78280,1,8,0:0:0:0:
319,341,78625,6,0,L|304:221,2,120,8|8|8,1:2|1:2|0:0,0:0:0:0:
240,352,80005,5,6,1:2:0:0:
174,307,80349,2,0,L|47:209,1,160,8|8,0:0|0:0,0:0:0:0:
94,144,81384,2,0,L|220:241,1,160,0|0,1:0|1:0,0:0:0:0:
285,290,82418,1,8,0:0:0:0:
334,225,82763,5,0,1:2:0:0:
414,225,83108,2,0,L|426:65,1,160,8|8,0:0|0:0,0:0:0:0:
507,69,84143,2,0,L|495:229,1,160,0|0,1:0|1:0,0:0:0:0:
451,296,85177,1,8,0:0:0:0:
414,225,85522,5,6,1:2:0:0:
343,262,85867,2,0,L|183:250,1,160,8|8,0:0|0:0,0:0:0:0:
189,169,86902,2,0,L|30:156,1,160,0|0,1:0|1:0,0:0:0:0:
36,76,87936,1,8,0:0:0:0:
116,82,88280,5,6,1:2:0:0:
174,26,88625,2,0,L|278:147,1,160,8|8,0:0|0:0,0:0:0:0:
216,200,89660,2,0,L|267:260,2,80,0|8|0,1:0|0:0|1:0,0:0:0:0:
164,139,90694,1,4,0:1:0:0:
103,191,91039,5,6,1:2:0:0:
154,253,91384,2,0,L|94:304,2,80,2|10|2,1:2|0:0|0:0,0:0:0:0:
215,201,92418,2,0,L|374:210,1,160,0|8,1:0|0:0,0:0:0:0:
455,216,93453,1,0,3:0:0:0:
449,296,93798,5,0,1:0:0:0:
369,290,94142,2,0,L|289:285,2,80,0|8|0,1:0|0:0|0:0,0:0:0:0:
449,296,95177,2,0,L|458:137,1,160,0|8,1:0|0:0,0:0:0:0:
463,56,96211,1,0,0:0:0:0:
391,92,96556,5,6,1:2:0:0:
324,48,96901,2,0,L|257:3,2,80,2|10|2,1:2|0:0|0:0,0:0:0:0:
391,92,97936,2,0,L|372:169,1,80,0|8,1:0|0:0,0:0:0:0:
351,246,98625,2,0,L|332:323,1,80,0|8,0:0|0:0,0:0:0:0:
268,372,99315,5,6,1:2:0:0:
189,356,99660,2,0,L|110:338,2,80,8|0|8,0:0|1:0|0:0,0:0:0:0:
268,372,100694,6,0,L|256:218,1,143.999995605469,0|0,1:0|1:0,0:0:0:0:
191,179,101556,2,0,L|180:35,1,143.999995605469,4|6,1:1|1:2,0:0:0:0:
129,148,107591,6,0,L|142:227,1,80,0|0,1:2|3:0,0:0:0:0:
210,318,108453,2,0,L|204:278,1,40,0|0,1:2|3:0,0:0:0:0:
254,215,108971,2,0,L|241:136,1,80,0|0,1:2|3:0,0:0:0:0:
283,34,109833,2,0,L|290:73,1,40,0|0,1:2|3:0,0:0:0:0:
350,126,110350,6,0,L|428:146,1,80,2|2,1:1|1:1,0:0:0:0:
419,226,111040,2,0,L|342:205,1,80,2|2,1:1|1:1,0:0:0:0:
276,158,111729,6,0,L|306:327,2,160,0|0|0,0:0|0:0|1:2,0:0:0:0:
205,119,113453,6,0,L|361:94,1,160,12|8,0:1|0:0,0:0:0:0:
346,17,114487,2,0,L|187:41,1,160,2|2,1:2|0:0,0:0:0:0:
108,53,115522,1,8,0:0:0:0:
163,112,115867,6,0,L|272:227,2,160,2|2|2,1:2|0:0|1:2,0:0:0:0:
108,53,117591,1,8,0:0:0:0:
49,108,117936,2,0,L|101:168,1,80,2|8,0:0|0:0,0:0:0:0:
169,217,118625,6,0,L|325:187,1,160,6|2,1:2|0:0,0:0:0:0:
405,171,119660,1,8,0:0:0:0:
389,93,120005,2,0,L|233:122,2,160,2|2|2,1:2|0:0|1:2,0:0:0:0:
464,120,121728,2,0,L|449:279,1,160,8|8,0:0|0:0,0:0:0:0:
400,344,122763,6,0,L|342:289,1,80,2|10,1:2|0:0,0:0:0:0:
337,208,123453,2,0,L|279:153,1,80,2|10,0:0|0:2,0:0:0:0:
208,191,124142,6,0,L|139:233,1,80,6|8,1:2|1:0,0:0:0:0:
72,277,124832,2,0,L|37:299,1,40,6|0,1:2|1:0,0:0:0:0:
75,372,125349,2,0,L|175:307,1,120,4|12,1:1|1:1,0:0:0:0:
244,263,126211,2,0,L|311:219,1,80,4|12,1:1|1:1,0:0:0:0:
256,161,126901,6,0,L|179:135,1,80,6|8,1:2|1:0,0:0:0:0:
103,111,127591,2,0,L|64:98,1,40,6|0,1:2|1:0,0:0:0:0:
81,19,128108,2,0,L|194:55,1,120,4|12,1:1|1:1,0:0:0:0:
271,80,128970,2,0,L|346:104,1,80,4|12,1:1|1:1,0:0:0:0:
393,173,129660,6,0,L|315:197,1,80,6|8,1:2|1:0,0:0:0:0:
240,222,130350,2,0,L|200:234,1,40,6|0,1:2|1:0,0:0:0:0:
224,310,130867,2,0,L|337:273,1,120,4|12,1:1|1:1,0:0:0:0:
413,247,131729,2,0,L|488:222,1,80,4|12,1:1|1:1,0:0:0:0:
465,146,132418,6,0,L|305:140,2,160,4|4|12,1:2|1:1|1:2,0:0:0:0:
468,66,134142,2,0,L|388:63,1,80,12|12,1:1|1:1,0:0:0:0:
309,60,134832,1,8,0:0:0:0:
230,58,135177,6,0,L|146:194,2,160,6|2|2,1:2|0:0|1:2,0:0:0:0:
161,17,136901,1,8,0:0:0:0:
119,85,137246,2,0,L|77:153,1,80,2|8,0:0|0:0,0:0:0:0:
75,233,137936,6,0,L|231:195,1,160,2|2,1:2|0:0,0:0:0:0:
308,175,138971,1,8,0:0:0:0:
328,254,139315,2,0,L|250:271,2,80,2|10|2,1:2|0:0|0:0,0:0:0:0:
405,237,140350,1,8,0:0:0:0:
351,178,140694,6,0,L|195:138,2,160,2|2|2,1:2|0:0|1:2,0:0:0:0:
371,101,142418,1,8,0:0:0:0:
294,82,142763,2,0,L|216:62,1,80,2|8,0:0|0:0,0:0:0:0:
139,83,143452,6,0,L|199:230,1,160,2|2,1:2|0:0,0:0:0:0:
230,305,144487,1,8,0:0:0:0:
155,336,144832,2,0,L|110:224,2,120,8|8|8,1:2|1:2|0:0,0:0:0:0:
219,384,146211,6,0,L|378:371,2,160,6|2|2,1:2|0:0|1:2,0:0:0:0:
212,304,147935,1,8,0:0:0:0:
292,298,148280,2,0,L|371:292,1,80,2|8,0:0|0:0,0:0:0:0:
435,342,148970,6,0,L|406:183,1,160,2|2,1:2|0:0,0:0:0:0:
395,105,150005,1,8,0:0:0:0:
315,116,150350,2,0,L|328:194,2,80,2|10|2,1:2|0:0|0:0,0:0:0:0:
302,37,151384,1,10,0:2:0:0:
240,88,151729,6,0,L|80:110,2,160,2|2|2,1:2|0:0|1:2,0:0:0:0:
231,8,153453,1,8,0:0:0:0:
151,19,153798,2,0,L|70:31,1,80,2|8,0:0|0:0,0:0:0:0:
6,78,154487,6,0,L|127:179,1,160,2|2,1:2|0:0,0:0:0:0:
190,232,155521,1,8,0:0:0:0:
136,294,155866,6,0,L|42:215,2,120,8|8|8,1:2|1:2|0:0,0:0:0:0:
216,312,157246,6,0,L|216:232,1,80,6|8,1:2|0:0,0:0:0:0:
216,152,157936,2,0,L|216:72,1,80,0|8,1:0|0:0,0:0:0:0:
296,72,158625,2,0,L|296:152,1,80,0|8,1:0|0:0,0:0:0:0:
296,232,159315,2,0,L|296:272,2,40,0|4|4,1:0|0:1|0:2,0:0:0:0:
366,192,160005,6,0,L|486:295,2,160,6|2|2,1:2|0:0|1:2,0:0:0:0:
313,252,161729,1,10,0:0:0:0:
374,304,162074,2,0,L|434:355,1,80,2|10,0:0|0:0,0:0:0:0:
487,296,162763,6,0,L|432:145,1,160,6|2,1:2|0:0,0:0:0:0:
405,70,163798,1,10,0:0:0:0:
330,97,164142,2,0,L|356:171,2,80,6|10|4,1:2|0:0|0:1,0:0:0:0:
303,22,165177,1,12,0:1:0:0:
229,50,165522,6,0,L|69:30,2,160,6|2|4,1:2|0:0|1:1,0:0:0:0:
220,130,167246,1,10,0:0:0:0:
141,121,167591,2,0,L|61:111,1,80,2|10,0:0|0:0,0:0:0:0:
6,169,168280,6,0,L|116:284,1,160,6|4,1:2|0:1,0:0:0:0:
172,342,169315,1,10,0:0:0:0:
229,286,169660,2,0,L|172:228,1,80,6|10,1:2|0:0,0:0:0:0:
116,171,170349,2,0,L|59:113,1,80,4|12,0:1|0:1,0:0:0:0:
1,59,171039,6,0,L|153:14,2,160,6|2|4,1:2|0:0|1:1,0:0:0:0:
24,135,172763,1,8,0:0:0:0:
101,113,173108,2,0,L|178:91,1,80,2|8,0:0|0:0,0:0:0:0:
253,69,173798,6,0,L|284:226,1,160,6|2,1:2|0:0,0:0:0:0:
301,304,174833,1,8,0:0:0:0:
379,289,175178,2,0,L|365:210,2,80,6|10|4,1:2|0:0|0:1,0:0:0:0:
394,368,176212,1,12,0:1:0:0:
315,345,176556,6,0,L|161:297,2,160,6|2|4,1:2|0:0|1:1,0:0:0:0:
340,268,178280,1,8,0:0:0:0:
264,244,178625,2,0,L|186:220,1,80,2|8,0:0|0:0,0:0:0:0:
108,201,179315,6,0,L|114:320,2,120,12|12|12,1:2|2:1|1:2,0:0:0:0:
188,197,180694,2,0,L|182:78,2,120,12|12|12,1:2|2:1|1:2,0:0:0:0:
268,193,182073,2,0,L|274:312,2,120,12|12|12,1:2|2:1|1:2,0:0:0:0:
264,113,183453,5,6,1:2:0:0:
256,192,183539,12,2,185867,0:0:0:0:
