osu file format v14

[General]
AudioFilename: audio.mp3
AudioLeadIn: 0
PreviewTime: 57591
Countdown: 0
SampleSet: None
StackLeniency: 0
Mode: 0
LetterboxInBreaks: 0
WidescreenStoryboard: 1

[Editor]
Bookmarks: 24832,113108,186211
DistanceSpacing: 0.8
BeatDivisor: 4
GridSize: 4
TimelineZoom: 2

[Metadata]
Title:Zetsubou no Fuchi
TitleUnicode:絶望の淵
Artist:senya
ArtistUnicode:senya
Creator:-Mo-
Version:Insane
Source:
Tags:Yuuhei Catharsis 幽閉カタルシス Shoujo Fractal 少女フラクタル Satellite 空母ヲ級 Kantai Collection KanColle 艦隊これくしょん 艦これ 艦隊これくしょん -艦これ- Kamase-tora かませ虎 poplar Mayumi Morinaga 森永真由美 Korekushon Combined Fleet C90
BeatmapID:1352167
BeatmapSetID:605290

[Difficulty]
HPDrainRate:5.2
CircleSize:4
OverallDifficulty:7.2
ApproachRate:9
SliderMultiplier:1.6
SliderTickRate:1

[Events]
//Background and Video events
0,0,"bg.jpg",0,0
//Break Periods
2,3367,6301
//Storyboard Layer 0 (Background)
//Storyboard Layer 1 (Fail)
//Storyboard Layer 2 (Pass)
//Storyboard Layer 3 (Foreground)
Sprite,Foreground,CentreLeft,"sb\flash.png",316,400 S,0,13798,,0.9 R,0,13798,,3.002372 F,1,13798,14798,1,0
Sprite,Foreground,CentreLeft,"sb\flash.png",190,282 S,0,15177,,0.9 R,0,15177,,1.969927 F,1,15177,16177,1,0
Sprite,Foreground,CentreLeft,"sb\flash.png",347,340 S,0,16556,,0.9 R,0,16556,,-2.81181 F,1,16556,17556,1,0
Sprite,Foreground,CentreLeft,"sb\flash.png",345,227 S,0,17936,,0.9 R,0,17936,,2.742462 F,1,17936,18936,1,0
Sprite,Foreground,CentreLeft,"sb\flash.png",202,435 S,0,22073,,0.9 R,0,22073,,3.079174 F,1,22073,23073,1,0
Sprite,Foreground,CentreLeft,"sb\flash.png",468,355 S,0,22763,,0.9 R,0,22763,,0.06241881 F,1,22763,23763,1,0
Sprite,Foreground,CentreLeft,"sb\flash.png",175,372 S,0,23453,,0.9 R,0,23453,,1.446441 F,1,23453,24453,1,0
Sprite,Foreground,CentreLeft,"sb\flash.png",328,122 S,0,24832,,0.9 R,0,24832,,2.977477 F,1,24832,25832,1,0
Sprite,Foreground,CentreLeft,"sb\flash.png",305,279 S,0,26211,,0.9 R,0,26211,,-1.419104 F,1,26211,27211,1,0
Sprite,Foreground,CentreLeft,"sb\flash.png",329,122 S,0,27591,,0.9 R,0,27591,,-0.2084652 F,1,27591,28591,1,0
Sprite,Foreground,CentreLeft,"sb\flash.png",406,367 S,0,28970,,0.9 R,0,28970,,-1.830994 F,1,28970,29970,1,0
Sprite,Foreground,CentreLeft,"sb\flash.png",144,286 S,0,30349,,0.9 R,0,30349,,0.1127276 F,1,30349,31349,1,0
Sprite,Foreground,CentreLeft,"sb\flash.png",413,268 S,0,31729,,0.9 R,0,31729,,-1.955954 F,1,31729,32729,1,0
Sprite,Foreground,CentreLeft,"sb\flash.png",365,350 S,0,33108,,0.9 R,0,33108,,3.035079 F,1,33108,34108,1,0
Sprite,Foreground,CentreLeft,"sb\flash.png",98,261 S,0,34487,,0.9 R,0,34487,,1.662207 F,1,34487,35487,1,0
Sprite,Foreground,CentreLeft,"sb\flash.png",109,141 S,0,34832,,0.9 R,0,34832,,1.662207 F,1,34832,35832,1,0
Sprite,Foreground,CentreLeft,"sb\flash.png",117,62 S,0,35177,,0.9 R,0,35177,,1.670465 F,1,35177,36177,1,0
Sprite,Foreground,CentreLeft,"sb\flash.png",345,125 S,0,35867,,0.9 R,0,35867,,2.762252 F,1,35867,36867,1,0
Sprite,Foreground,CentreLeft,"sb\flash.png",438,252 S,0,37246,,0.9 R,0,37246,,-1.684231 F,1,37246,38246,1,0
Sprite,Foreground,CentreLeft,"sb\flash.png",221,175 S,0,38626,,0.9 R,0,38626,,0.7853982 F,1,38626,39626,1,0
Sprite,Foreground,CentreLeft,"sb\flash.png",334,288 S,0,40005,,0.9 R,0,40005,,-0.1002913 F,1,40005,41005,1,0
Sprite,Foreground,CentreLeft,"sb\flash.png",275,140 S,0,41384,,0.9 R,0,41384,,0.1374918 F,1,41384,42384,1,0
Sprite,Foreground,CentreLeft,"sb\flash.png",381,266 S,0,42763,,0.9 R,0,42763,,-0.594911 F,1,42763,43763,1,0
Sprite,Foreground,CentreLeft,"sb\flash.png",261,432 S,0,44142,,0.9 R,0,44142,,-0.1065136 F,1,44142,45142,1,0
Sprite,Foreground,CentreLeft,"sb\flash.png",528,281 S,0,45522,,0.9 R,0,45522,,1.479385 F,1,45522,46522,1,0
Sprite,Foreground,CentreLeft,"sb\flash.png",517,161 S,0,45867,,0.9 R,0,45867,,1.479385 F,1,45867,46867,1,0
Sprite,Foreground,CentreLeft,"sb\flash.png",509,82 S,0,46212,,0.9 R,0,46212,,1.471128 F,1,46212,47212,1,0
Sprite,Foreground,CentreLeft,"sb\flash.png",349,193 S,0,46901,,0.9 R,0,46901,,0.1366432 F,1,46901,47901,1,0
Sprite,Foreground,CentreLeft,"sb\flash.png",234,268 S,0,48108,,0.9 R,0,48108,,3.00495 F,1,48108,49108,1,0
Sprite,Foreground,CentreLeft,"sb\flash.png",399,359 S,0,49660,,0.9 R,0,49660,,-3.00495 F,1,49660,50660,1,0
Sprite,Foreground,CentreLeft,"sb\flash.png",406,259 S,0,50867,,0.9 R,0,50867,,-0.1366432 F,1,50867,51867,1,0
Sprite,Foreground,CentreLeft,"sb\flash.png",334,224 S,0,52418,,0.9 R,0,52418,,0.1366432 F,1,52418,53418,1,0
Sprite,Foreground,CentreLeft,"sb\flash.png",187,119 S,0,53625,,0.9 R,0,53625,,3.00495 F,1,53625,54625,1,0
Sprite,Foreground,CentreLeft,"sb\flash.png",514,158 S,0,55177,,0.9 R,0,55177,,-1.659173 F,1,55177,56177,1,0
Sprite,Foreground,CentreLeft,"sb\flash.png",376,97 S,0,56556,,0.9 R,0,56556,,-0.1732457 F,1,56556,57556,1,0
Sprite,Foreground,CentreLeft,"sb\flash.png",308,192 S,0,57936,,0.9 R,0,57936,,-2.920888 F,1,57936,58936,1,0
Sprite,Foreground,CentreLeft,"sb\flash.png",94,298 S,0,59315,,0.9 R,0,59315,,-1.690475 F,1,59315,60315,1,0
Sprite,Foreground,CentreLeft,"sb\flash.png",311,209 S,0,60694,,0.9 R,0,60694,,2.607639 F,1,60694,61694,1,0
Sprite,Foreground,CentreLeft,"sb\flash.png",105,86 S,0,62073,,0.9 R,0,62073,,0.5425794 F,1,62073,63073,1,0
Sprite,Foreground,CentreLeft,"sb\flash.png",150,282 S,0,63453,,0.9 R,0,63453,,-0.3099401 F,1,63453,64453,1,0
Sprite,Foreground,CentreLeft,"sb\flash.png",195,113 S,0,64832,,0.9 R,0,64832,,0.125129 F,1,64832,65832,1,0
Sprite,Foreground,CentreLeft,"sb\flash.png",382,274 S,0,66211,,0.9 R,0,66211,,-0.6708575 F,1,66211,67211,1,0
Sprite,Foreground,CentreLeft,"sb\flash.png",459,394 S,0,67591,,0.9 R,0,67591,,0.08727771 F,1,67591,68591,1,0
Sprite,Foreground,CentreLeft,"sb\flash.png",238,211 S,0,68970,,0.9 R,0,68970,,1.121037 F,1,68970,69970,1,0
Sprite,Foreground,CentreLeft,"sb\flash.png",308,356 S,0,70349,,0.9 R,0,70349,,2.927 F,1,70349,71349,1,0
Sprite,Foreground,CentreLeft,"sb\flash.png",449,249 S,0,71729,,0.9 R,0,71729,,0.7678561 F,1,71729,72729,1,0
Sprite,Foreground,CentreLeft,"sb\flash.png",564,140 S,0,73108,,0.9 R,0,73108,,2.365203 F,1,73108,74108,1,0
Sprite,Foreground,CentreLeft,"sb\flash.png",529,348 S,0,74487,,0.9 R,0,74487,,-2.71183 F,1,74487,75487,1,0
Sprite,Foreground,CentreLeft,"sb\flash.png",92,150 S,0,75867,,0.9 R,0,75867,,1.495937 F,1,75867,76867,1,0
Sprite,Foreground,CentreLeft,"sb\flash.png",162,365 S,0,77246,,0.9 R,0,77246,,-0.7678561 F,1,77246,78246,1,0
Sprite,Foreground,CentreLeft,"sb\flash.png",245,279 S,0,80005,,0.9 R,0,80005,,0.2646136 F,1,80005,81005,1,0
Sprite,Foreground,CentreLeft,"sb\flash.png",287,124 S,0,82763,,0.9 R,0,82763,,1.83541 F,1,82763,83763,1,0
Sprite,Foreground,CentreLeft,"sb\flash.png",443,166 S,0,85522,,0.9 R,0,85522,,-2.878598 F,1,85522,86522,1,0
Sprite,Foreground,CentreLeft,"sb\flash.png",344,223 S,0,88280,,0.9 R,0,88280,,1.833791 F,1,88280,89280,1,0
Sprite,Foreground,CentreLeft,"sb\flash.png",411,97 S,0,91039,,0.9 R,0,91039,,0.3276213 F,1,91039,92039,1,0
Sprite,Foreground,CentreLeft,"sb\flash.png",371,290 S,0,93798,,0.9 R,0,93798,,2.014948 F,1,93798,94798,1,0
Sprite,Foreground,CentreLeft,"sb\flash.png",452,176 S,0,96556,,0.9 R,0,96556,,-2.78798 F,1,96556,97556,1,0
Sprite,Foreground,CentreLeft,"sb\flash.png",396,336 S,0,99315,,0.9 R,0,99315,,1.469875 F,1,99315,100315,1,0
Sprite,Foreground,CentreLeft,"sb\flash.png",533,232 S,0,113108,,0.9 R,0,113108,,-1.696709 F,1,113108,114108,1,0
Sprite,Foreground,CentreLeft,"sb\flash.png",306,282 S,0,114487,,0.9 R,0,114487,,0.125129 F,1,114487,115487,1,0
Sprite,Foreground,CentreLeft,"sb\flash.png",306,282 S,0,115867,,0.9 R,0,115867,,-0.7942475 F,1,115867,116867,1,0
Sprite,Foreground,CentreLeft,"sb\flash.png",153,103 S,0,117246,,0.9 R,0,117246,,-0.1418971 F,1,117246,118246,1,0
Sprite,Foreground,CentreLeft,"sb\flash.png",369,329 S,0,118625,,0.9 R,0,118625,,-2.849536 F,1,118625,119625,1,0
Sprite,Foreground,CentreLeft,"sb\flash.png",299,307 S,0,120005,,0.9 R,0,120005,,2.44446 F,1,120005,121005,1,0
Sprite,Foreground,CentreLeft,"sb\flash.png",379,432 S,0,121384,,0.9 R,0,121384,,-3.035079 F,1,121384,122384,1,0
Sprite,Foreground,CentreLeft,"sb\flash.png",112,281 S,0,122764,,0.9 R,0,122764,,1.662207 F,1,122764,123764,1,0
Sprite,Foreground,CentreLeft,"sb\flash.png",123,161 S,0,123109,,0.9 R,0,123109,,1.662207 F,1,123109,124109,1,0
Sprite,Foreground,CentreLeft,"sb\flash.png",131,82 S,0,123454,,0.9 R,0,123454,,1.670465 F,1,123454,124454,1,0
Sprite,Foreground,CentreLeft,"sb\flash.png",291,193 S,0,124143,,0.9 R,0,124143,,3.00495 F,1,124143,125143,1,0
Sprite,Foreground,CentreLeft,"sb\flash.png",406,268 S,0,125350,,0.9 R,0,125350,,0.1366432 F,1,125350,126350,1,0
Sprite,Foreground,CentreLeft,"sb\flash.png",241,359 S,0,126902,,0.9 R,0,126902,,-0.1366432 F,1,126902,127902,1,0
Sprite,Foreground,CentreLeft,"sb\flash.png",234,259 S,0,128109,,0.9 R,0,128109,,-3.00495 F,1,128109,129109,1,0
Sprite,Foreground,CentreLeft,"sb\flash.png",306,224 S,0,129660,,0.9 R,0,129660,,3.00495 F,1,129660,130660,1,0
Sprite,Foreground,CentreLeft,"sb\flash.png",453,119 S,0,130867,,0.9 R,0,130867,,0.1366432 F,1,130867,131867,1,0
Sprite,Foreground,CentreLeft,"sb\flash.png",126,158 S,0,132419,,0.9 R,0,132419,,-1.482419 F,1,132419,133419,1,0
Sprite,Foreground,CentreLeft,"sb\flash.png",264,97 S,0,133798,,0.9 R,0,133798,,-2.968347 F,1,133798,134798,1,0
Sprite,Foreground,CentreLeft,"sb\flash.png",332,192 S,0,135177,,0.9 R,0,135177,,-0.2207042 F,1,135177,136177,1,0
Sprite,Foreground,CentreLeft,"sb\flash.png",380,262 S,0,136556,,0.9 R,0,136556,,0.2267988 F,1,136556,137556,1,0
Sprite,Foreground,CentreLeft,"sb\flash.png",380,262 S,0,137936,,0.9 R,0,137936,,1.433305 F,1,137936,138936,1,0
Sprite,Foreground,CentreLeft,"sb\flash.png",172,244 S,0,139315,,0.9 R,0,139315,,0.4131288 F,1,139315,140315,1,0
Sprite,Foreground,CentreLeft,"sb\flash.png",278,243 S,0,140694,,0.9 R,0,140694,,0.8641821 F,1,140694,141694,1,0
Sprite,Foreground,CentreLeft,"sb\flash.png",183,210 S,0,142073,,0.9 R,0,142073,,1.639438 F,1,142073,143073,1,0
Sprite,Foreground,CentreLeft,"sb\flash.png",183,211 S,0,143453,,0.9 R,0,143453,,-0.317798 F,1,143453,144453,1,0
Sprite,Foreground,CentreLeft,"sb\flash.png",320,368 S,0,144832,,0.9 R,0,144832,,-1.570796 F,1,144832,145832,1,0
Sprite,Foreground,CentreLeft,"sb\flash.png",244,239 S,0,146211,,0.9 R,0,146211,,0.1313154 F,1,146211,147211,1,0
Sprite,Foreground,CentreLeft,"sb\flash.png",464,221 S,0,147591,,0.9 R,0,147591,,1.733892 F,1,147591,148591,1,0
Sprite,Foreground,CentreLeft,"sb\flash.png",209,363 S,0,148970,,0.9 R,0,148970,,-0.1815239 F,1,148970,149970,1,0
Sprite,Foreground,CentreLeft,"sb\flash.png",166,203 S,0,150349,,0.9 R,0,150349,,0.1753942 F,1,150349,151349,1,0
Sprite,Foreground,CentreLeft,"sb\flash.png",354,114 S,0,151729,,0.9 R,0,151729,,1.319794 F,1,151729,152729,1,0
Sprite,Foreground,CentreLeft,"sb\flash.png",331,131 S,0,153108,,0.9 R,0,153108,,0.08727771 F,1,153108,154108,1,0
Sprite,Foreground,CentreLeft,"sb\flash.png",351,270 S,0,154487,,0.9 R,0,154487,,-2.302674 F,1,154487,155487,1,0
Sprite,Foreground,CentreLeft,"sb\flash.png",208,318 S,0,160005,,0.9 R,0,160005,,0.825025 F,1,160005,161005,1,0
Sprite,Foreground,CentreLeft,"sb\flash.png",497,317 S,0,161384,,0.9 R,0,161384,,-2.867615 F,1,161384,162384,1,0
Sprite,Foreground,CentreLeft,"sb\flash.png",247,203 S,0,162763,,0.9 R,0,162763,,-0.2782997 F,1,162763,163763,1,0
Sprite,Foreground,CentreLeft,"sb\flash.png",324,62 S,0,164142,,0.9 R,0,164142,,2.073099 F,1,164142,165142,1,0
Sprite,Foreground,CentreLeft,"sb\flash.png",65,342 S,0,165522,,0.9 R,0,165522,,-0.2878314 F,1,165522,166522,1,0
Sprite,Foreground,CentreLeft,"sb\flash.png",448,227 S,0,166901,,0.9 R,0,166901,,1.645656 F,1,166901,167901,1,0
Sprite,Foreground,CentreLeft,"sb\flash.png",496,216 S,0,168280,,0.9 R,0,168280,,-2.124091 F,1,168280,169280,1,0
Sprite,Foreground,CentreLeft,"sb\flash.png",402,307 S,0,169660,,0.9 R,0,169660,,-0.08727771 F,1,169660,170660,1,0
Sprite,Foreground,CentreLeft,"sb\flash.png",389,217 S,0,171039,,0.9 R,0,171039,,2.616226 F,1,171039,172039,1,0
Sprite,Foreground,CentreLeft,"sb\flash.png",200,350 S,0,172418,,0.9 R,0,172418,,-1.626987 F,1,172418,173418,1,0
Sprite,Foreground,CentreLeft,"sb\flash.png",186,109 S,0,173798,,0.9 R,0,173798,,0.1876398 F,1,173798,174798,1,0
Sprite,Foreground,CentreLeft,"sb\flash.png",475,186 S,0,175177,,0.9 R,0,175177,,2.966198 F,1,175177,176177,1,0
Sprite,Foreground,CentreLeft,"sb\flash.png",172,395 S,0,176556,,0.9 R,0,176556,,-1.084868 F,1,176556,177556,1,0
Sprite,Foreground,CentreLeft,"sb\flash.png",209,324 S,0,177936,,0.9 R,0,177936,,-0.02499479 F,1,177936,178936,1,0
Sprite,Foreground,CentreLeft,"sb\flash.png",232,416 S,0,179315,,0.9 R,0,179315,,3.141593 F,1,179315,180315,1,0
Sprite,Foreground,CentreLeft,"sb\flash.png",441,293 S,0,180694,,0.9 R,0,180694,,0 F,1,180694,181694,1,0
Sprite,Foreground,CentreLeft,"sb\flash.png",232,171 S,0,182073,,0.9 R,0,182073,,3.141593 F,1,182073,183073,1,0
//Storyboard Sound Samples

[TimingPoints]
5,344.827586206897,4,2,1,100,1,0
2505,-100,4,3,1,20,0,0
2591,-100,4,2,1,100,0,0
6901,-200,4,3,0,30,0,0
7591,-100,4,3,0,50,0,0
8280,-100,4,2,1,60,0,0
12591,-100,4,2,1,10,0,0
12763,-100,4,2,1,60,0,0
13798,-100,4,2,1,80,0,0
18970,-100,4,3,2,80,0,0
19315,-100,4,2,1,80,0,0
24487,-100,4,3,2,80,0,0
24832,-100,4,2,1,80,0,0
30005,-100,4,3,2,80,0,0
30349,-100,4,2,1,80,0,0
34401,-100,4,2,1,20,0,0
34487,-100,4,2,1,80,0,0
35522,-100,4,3,2,80,0,0
35867,-100,4,2,1,80,0,0
41039,-100,4,3,2,80,0,0
41384,-100,4,2,1,80,0,0
45436,-100,4,2,1,20,0,0
45522,-100,4,2,1,80,0,0
46556,-100,4,3,2,80,0,0
46901,-100,4,2,1,80,0,0
52073,-100,4,3,2,80,0,0
52418,-100,4,2,1,80,0,0
57591,-100,4,3,2,80,0,0
57936,-100,4,2,1,100,0,1
63108,-100,4,3,2,100,0,1
63453,-100,4,2,1,100,0,1
67591,-100,4,2,1,100,0,0
68625,-100,4,3,2,100,0,0
68970,-100,4,2,1,100,0,1
74142,-100,4,3,2,100,0,1
74487,-100,4,2,1,100,0,1
78625,-100,4,2,1,100,0,0
79660,-100,4,3,2,100,0,0
80005,-100,4,2,1,100,0,1
80349,-100,4,2,1,100,0,0
81384,-100,4,2,1,100,0,0
82763,-100,4,2,1,100,0,0
83108,-100,4,2,1,100,0,0
84142,-100,4,2,1,100,0,0
85177,-100,4,3,2,100,0,0
85522,-100,4,2,1,100,0,0
85867,-100,4,2,1,100,0,0
86901,-100,4,2,1,100,0,0
88280,-100,4,2,1,100,0,0
88625,-100,4,2,1,100,0,0
90694,-100,4,3,2,100,0,0
91039,-100,4,2,1,100,0,0
96211,-100,4,3,2,100,0,0
96556,-100,4,2,1,100,0,0
98625,-100,4,3,1,80,0,0
98711,-100,4,2,1,100,0,0
101556,-100,4,2,1,100,0,0
101901,-100,4,3,1,80,0,0
101987,-100,4,2,1,100,0,0
102073,-100,4,2,1,100,0,0
102591,-100,4,2,1,50,0,0
103453,-100,4,2,1,50,0,0
103970,-100,4,2,1,50,0,0
104832,-100,4,2,1,50,0,0
105349,-100,4,2,1,50,0,0
106211,-100,4,2,1,30,0,0
106901,-100,4,2,1,50,0,0
107591,-100,4,2,1,60,0,0
111729,-200,4,2,1,40,0,0
112418,-200,4,2,1,60,0,0
112763,-200,4,2,1,80,0,0
113108,-100,4,2,1,60,0,0
113453,-100,4,2,1,80,0,0
118280,-100,4,3,2,80,0,0
118625,-100,4,2,1,80,0,0
122677,-100,4,2,1,20,0,0
122763,-100,4,2,1,80,0,0
123798,-100,4,3,2,80,0,0
124142,-100,4,2,1,80,0,0
129315,-100,4,3,2,80,0,0
129660,-100,4,2,1,80,0,0
134832,-100,4,3,2,80,0,0
135177,-100,4,2,1,100,0,1
140349,-100,4,3,2,100,0,1
140694,-100,4,2,1,100,0,1
144832,-100,4,2,1,100,0,0
145867,-100,4,3,2,100,0,0
146211,-100,4,2,1,100,0,1
151384,-100,4,3,2,100,0,1
151729,-100,4,2,1,100,0,1
155867,-100,4,2,1,100,0,0
156901,-100,4,3,2,100,0,0
157246,-100,4,2,1,100,0,1
157332,-100,4,2,1,100,0,0
159660,-100,4,3,2,100,0,0
160005,-100,4,2,1,100,0,1
165177,-100,4,3,2,100,0,1
165522,-100,4,2,1,100,0,1
169660,-100,4,2,1,100,0,0
170694,-100,4,3,2,100,0,0
171039,-100,4,2,1,100,0,1
176211,-100,4,3,2,100,0,1
176556,-100,4,2,1,100,0,1
183453,-666.66666667,4,2,1,100,0,0
183539,-666.66666667,4,3,1,50,0,0
185780,-666.66666667,4,2,1,10,0,0
185867,-125,4,2,1,50,0,0
186125,-125,4,2,1,10,0,0

[Colours]
Combo1 : 224,214,12
Combo2 : 1,67,220
Combo3 : 220,73,31
Combo4 : 0,130,225

[HitObjects]
168,271,2160,6,0,B|342:254|342:254|241:283,1,280,2|6,0:0|1:2,0:0:0:0:
77,226,6901,22,0,L|79:206,3,20
116,174,7246,2,0,L|118:154,3,20
155,122,7591,22,0,L|189:278,1,160
357,196,8280,21,0,1:0:0:0:
155,56,8625,1,2,3:1:0:0:
371,167,9142,21,0,1:0:0:0:
256,126,9314,1,2,3:1:0:0:
155,314,9660,21,0,1:0:0:0:
357,174,10005,1,2,3:1:0:0:
141,285,10522,21,0,1:0:0:0:
256,244,10694,1,2,3:1:0:0:
376,367,11039,21,2,1:1:0:0:
369,287,11211,1,0,1:0:0:0:
363,207,11384,1,2,1:1:0:0:
357,127,11556,1,0,1:0:0:0:
351,47,11729,2,0,L|348:7,3,40,2|0|2|0,1:1|1:0|1:1|1:0,0:0:0:0:
279,39,12073,2,0,L|276:-1,3,40,2|0|2|0,1:1|1:0|1:1|1:0,0:0:0:0:
203,24,12418,22,0,B|184:17|184:17|163:21,2,40,0|0|0,3:0|3:0|1:0,0:0:0:0:
181,95,12763,1,2,1:1:0:0:
182,110,12849,1,0,1:0:0:0:
183,126,12936,1,2,1:1:0:0:
184,142,13022,1,0,1:0:0:0:
185,158,13108,1,2,1:1:0:0:
186,174,13194,1,0,1:0:0:0:
188,190,13280,1,2,1:1:0:0:
189,206,13367,1,0,1:0:0:0:
190,222,13453,2,0,L|196:303,1,80,8|2,1:0|1:0,0:0:0:0:
95,366,13798,22,0,L|252:344,1,160,6|8,1:2|0:0,0:0:0:0:
333,334,14315,1,0,0:0:0:0:
490,311,14487,2,0,L|411:322,1,80,2|0,0:0|1:0,0:0:0:0:
253,344,14832,2,0,L|173:354,1,80,8|0,0:0|0:0,0:0:0:0:
64,373,15177,22,0,L|126:226,1,160,2|8,1:2|0:0,0:0:0:0:
157,152,15694,1,0,0:0:0:0:
219,6,15866,2,0,L|188:80,1,80,2|0,0:0|1:0,0:0:0:0:
157,152,16211,1,8,0:0:0:0:
126,225,16384,1,0,0:0:0:0:
130,229,16470,1,0,0:0:0:0:
134,233,16556,22,0,L|283:284,1,160,2|8,1:2|0:0,0:0:0:0:
361,312,17073,1,0,0:0:0:0:
511,362,17245,2,0,L|432:334,1,80,2|0,0:0|1:0,0:0:0:0:
285,285,17590,2,0,L|205:257,1,80,8|0,0:0|0:0,0:0:0:0:
134,233,17936,22,0,L|281:171,1,160,2|8,1:2|0:0,0:0:0:0:
355,140,18453,1,0,0:0:0:0:
501,78,18625,2,0,L|427:109,1,80,2|0,0:0|1:0,0:0:0:0:
355,140,18970,5,8,0:0:0:0:
353,146,19056,1,0,0:0:0:0:
351,152,19142,1,0,0:0:0:0:
349,158,19229,1,0,0:0:0:0:
347,164,19315,5,6,1:2:0:0:
159,73,19660,2,0,L|177:150,1,80,8|0,0:0|0:0,0:0:0:0:
347,220,20005,21,2,1:2:0:0:
159,311,20350,2,0,L|177:233,1,80,8|0,0:0|0:0,0:0:0:0:
347,164,20694,21,6,1:2:0:0:
159,73,21039,2,0,L|177:150,1,80,8|0,0:0|0:0,0:0:0:0:
253,266,21384,21,2,1:2:0:0:
347,220,21556,1,0,1:0:0:0:
177,233,21729,2,0,L|159:311,1,80,8|0,0:0|0:0,0:0:0:0:
58,384,22073,21,6,1:2:0:0:
138,379,22246,1,0,1:0:0:0:
218,374,22418,1,8,1:0:0:0:
298,369,22591,1,0,1:0:0:0:
484,304,22763,21,4,1:1:0:0:
404,299,22936,1,0,1:0:0:0:
324,294,23108,1,8,1:0:0:0:
244,289,23281,1,0,1:0:0:0:
116,356,23453,22,0,L|111:316,3,40,12|0|0|0,1:2|1:0|1:0|1:0,0:0:0:0:
102,244,23798,2,0,L|97:204,3,40,12|0|0|0,1:1|1:0|1:0|1:0,0:0:0:0:
91,164,24142,1,12,1:1:0:0:
89,148,24228,1,0,1:0:0:0:
87,132,24315,1,0,1:1:0:0:
85,116,24401,1,0,1:0:0:0:
83,100,24487,37,8,1:1:0:0:
89,98,24573,1,0,1:0:0:0:
95,96,24659,1,0,1:1:0:0:
101,94,24746,1,0,1:0:0:0:
107,92,24832,38,0,L|264:66,1,160,6|8,1:2|0:0,0:0:0:0:
107,92,25349,1,0,0:0:0:0:
344,53,25522,2,0,L|423:40,1,80,2|0,0:0|1:0,0:0:0:0:
186,79,25867,2,0,L|107:92,1,80,8|0,0:0|0:0,0:0:0:0:
265,66,26211,22,0,L|241:223,1,160,2|8,1:2|0:0,0:0:0:0:
265,66,26728,1,0,0:0:0:0:
228,303,26901,2,0,L|216:382,1,80,2|0,0:0|1:0,0:0:0:0:
253,145,27246,2,0,L|265:65,1,80,8|0,0:0|0:0,0:0:0:0:
421,33,27591,22,0,L|265:66,1,160,6|8,1:2|0:0,0:0:0:0:
421,33,28108,1,0,0:0:0:0:
186,83,28281,2,0,L|107:100,1,80,2|0,0:0|1:0,0:0:0:0:
343,50,28625,2,0,L|421:33,1,80,8|0,0:0|0:0,0:0:0:0:
301,157,28970,22,0,L|342:311,1,160,2|8,1:2|0:0,0:0:0:0:
301,157,29487,1,0,0:0:0:0:
261,6,29660,2,0,L|282:84,1,80,2|0,0:0|1:0,0:0:0:0:
247,224,30005,37,10,3:2:0:0:
245,230,30091,1,0,0:0:0:0:
243,236,30177,1,0,0:0:0:0:
241,242,30263,1,0,0:0:0:0:
239,248,30349,38,0,L|80:230,1,160,6|8,1:2|0:0,0:0:0:0:
239,248,30867,1,0,0:0:0:0:
1,221,31039,2,0,L|88:231,1,80,2|0,0:0|1:0,0:0:0:0:
239,248,31384,2,0,B|152:238,1,80,8|0,0:0|0:0,0:0:0:0:
289,64,31729,22,0,L|349:212,1,160,2|8,1:2|0:0,0:0:0:0:
289,64,32246,1,0,0:0:0:0:
380,286,32418,2,0,L|349:211,1,80,2|0,0:0|1:0,0:0:0:0:
409,360,32763,1,8,0:0:0:0:
349,212,32936,1,0,0:0:0:0:
142,311,33108,22,0,L|301:294,1,160,2|8,1:2|0:0,0:0:0:0:
142,311,33625,1,0,0:0:0:0:
301,294,33798,2,0,L|388:285,1,80,2|0,0:0|1:0,0:0:0:0:
142,311,34142,2,0,L|20:325,1,120,8|0,0:0|0:0,0:0:0:0:
23,325,34487,22,0,L|34:205,1,120,2|0,1:2|0:0,0:0:0:0:
34,205,34832,2,0,L|45:85,1,120,10|0,0:0|0:0,0:0:0:0:
45,86,35177,2,0,L|53:6,1,80,2|0,0:0|1:0,0:0:0:0:
125,104,35522,37,10,0:2:0:0:
127,110,35608,1,0,0:0:0:0:
129,116,35694,1,0,0:0:0:0:
131,122,35780,1,0,0:0:0:0:
133,128,35867,38,0,L|281:69,1,160,6|8,1:2|0:0,0:0:0:0:
133,128,36384,1,0,0:0:0:0:
356,38,36556,2,0,L|280:69,1,80,2|0,0:0|1:0,0:0:0:0:
133,128,36901,2,0,L|209:98,1,80,8|0,0:0|0:0,0:0:0:0:
356,38,37246,22,0,L|374:196,1,160,2|8,1:2|0:0,0:0:0:0:
356,38,37763,1,0,0:0:0:0:
392,355,37936,2,0,L|383:276,1,80,2|0,0:0|1:0,0:0:0:0:
356,38,38280,2,0,L|365:117,1,80,8|0,0:0|0:0,0:0:0:0:
270,232,38626,22,0,L|157:119,1,160,6|8,1:2|0:0,0:0:0:0:
270,232,39143,1,0,0:0:0:0:
157,119,39315,2,0,L|100:62,1,80,2|0,0:0|1:0,0:0:0:0:
270,232,39660,2,0,L|327:289,1,80,8|0,0:0|0:0,0:0:0:0:
429,216,40005,22,0,L|270:232,1,160,2|8,1:2|0:0,0:0:0:0:
429,216,40522,1,0,0:0:0:0:
190,240,40694,2,0,L|282:231,1,80,2|0,0:0|1:0,0:0:0:0:
378,130,41039,37,10,0:2:0:0:
376,124,41125,1,0,0:0:0:0:
374,118,41211,1,0,0:0:0:0:
372,112,41297,1,0,0:0:0:0:
370,106,41384,38,0,L|211:84,1,160,6|8,1:2|0:0,0:0:0:0:
370,106,41901,1,0,0:0:0:0:
132,73,42073,2,0,L|53:62,1,80,2|0,0:0|1:0,0:0:0:0:
211,84,42418,2,0,L|290:95,1,80,8|0,0:0|0:0,0:0:0:0:
450,120,42763,22,0,L|317:210,1,160,2|8,1:2|0:0,0:0:0:0:
450,120,43280,1,0,0:0:0:0:
251,255,43453,2,0,L|317:210,1,80,2|0,0:0|1:0,0:0:0:0:
186,300,43797,1,8,0:0:0:0:
317,210,43970,1,0,0:0:0:0:
356,359,44142,22,0,L|197:376,1,160,2|8,1:2|0:0,0:0:0:0:
356,359,44659,1,0,0:0:0:0:
197,376,44832,2,0,L|110:385,1,80,2|0,0:0|1:0,0:0:0:0:
356,359,45177,2,0,L|478:345,1,120,8|0,0:0|0:0,0:0:0:0:
475,345,45522,22,0,L|464:225,1,120,2|0,1:2|0:0,0:0:0:0:
464,225,45867,2,0,L|453:105,1,120,10|0,0:0|0:0,0:0:0:0:
453,106,46212,2,0,L|445:26,1,80,2|0,0:0|1:0,0:0:0:0:
373,124,46557,37,10,0:2:0:0:
371,130,46643,1,0,0:0:0:0:
369,136,46729,1,0,0:0:0:0:
367,142,46815,1,0,0:0:0:0:
365,148,46901,37,6,1:2:0:0:
285,137,47073,1,0,1:0:0:0:
205,127,47246,1,8,1:2:0:0:
125,117,47418,1,0,1:0:0:0:
123,123,47505,1,0,1:0:0:0:
121,129,47591,1,12,1:2:0:0:
285,137,47763,1,0,1:0:0:0:
90,223,48108,21,4,1:1:0:0:
170,212,48280,1,4,1:1:0:0:
174,224,48453,1,0,1:0:0:0:
250,202,48625,1,12,1:1:0:0:
254,214,48798,1,0,1:0:0:0:
330,192,48970,1,12,1:1:0:0:
332,198,49056,1,0,1:0:0:0:
334,204,49142,1,0,1:0:0:0:
410,182,49315,1,12,1:1:0:0:
255,292,49660,21,6,1:2:0:0:
335,303,49832,1,0,1:0:0:0:
415,313,50005,1,8,1:2:0:0:
495,323,50177,1,0,1:0:0:0:
497,329,50264,1,0,1:0:0:0:
499,335,50350,1,12,1:2:0:0:
335,303,50522,1,0,1:0:0:0:
422,192,50867,21,4,1:1:0:0:
342,203,51039,1,4,1:1:0:0:
334,191,51212,1,0,1:0:0:0:
262,213,51384,1,12,1:1:0:0:
254,201,51557,1,0,1:0:0:0:
182,223,51729,1,12,1:1:0:0:
180,217,51815,1,0,1:0:0:0:
178,211,51901,1,0,1:0:0:0:
342,203,52073,37,12,1:1:0:0:
344,197,52160,1,0,0:0:0:0:
346,191,52246,1,0,0:0:0:0:
348,185,52332,1,0,0:0:0:0:
350,179,52418,37,6,1:2:0:0:
270,168,52590,1,0,1:0:0:0:
190,158,52763,1,8,1:2:0:0:
110,148,52935,1,0,1:0:0:0:
108,154,53022,1,0,1:0:0:0:
106,160,53108,1,12,1:2:0:0:
270,168,53280,1,0,1:0:0:0:
43,74,53625,21,4,1:1:0:0:
123,63,53797,1,4,1:1:0:0:
127,75,53970,1,0,1:0:0:0:
203,53,54142,1,12,1:1:0:0:
207,65,54315,1,0,1:0:0:0:
283,43,54487,1,12,1:1:0:0:
285,49,54573,1,0,1:0:0:0:
287,55,54659,1,0,1:0:0:0:
363,33,54832,1,12,1:1:0:0:
367,45,55005,1,0,1:1:0:0:
443,23,55177,21,4,1:2:0:0:
450,102,55349,1,0,1:0:0:0:
457,181,55522,1,8,1:0:0:0:
464,260,55694,1,0,1:0:0:0:
458,262,55780,1,0,1:0:0:0:
452,264,55867,21,4,1:1:0:0:
373,271,56039,1,0,1:0:0:0:
366,192,56211,1,8,1:0:0:0:
359,113,56384,1,0,1:0:0:0:
352,34,56556,22,0,L|312:41,3,40,12|0|0|0,1:2|1:0|1:0|1:0,0:0:0:0:
241,53,56901,2,0,L|201:60,3,40,12|0|0|0,1:1|1:0|1:0|1:0,0:0:0:0:
160,66,57246,1,12,1:1:0:0:
144,68,57332,1,0,1:0:0:0:
128,71,57418,1,0,1:0:0:0:
112,74,57504,1,0,1:0:0:0:
96,77,57590,5,8,1:0:0:0:
94,83,57677,1,0,0:0:0:0:
92,89,57763,1,0,0:0:0:0:
90,95,57849,1,0,0:0:0:0:
88,101,57936,6,0,L|244:136,1,160,6|8,1:2|0:0,0:0:0:0:
88,101,58453,1,0,0:0:0:0:
244,136,58625,2,0,L|322:153,1,80,2|0,0:0|1:0,0:0:0:0:
88,101,58970,1,8,0:0:0:0:
165,118,59142,1,0,0:0:0:0:
11,84,59315,22,0,L|30:242,1,160,2|8,1:2|0:0,0:0:0:0:
11,84,59832,1,0,0:0:0:0:
30,243,60005,2,0,L|40:323,1,80,2|0,0:0|1:0,0:0:0:0:
11,84,60349,1,8,0:0:0:0:
21,163,60522,1,0,0:0:0:0:
110,234,60694,21,2,1:2:0:0:
247,153,60867,2,0,L|178:193,2,80,0|8|0,0:0|0:0|0:0,0:0:0:0:
385,71,61384,2,0,L|453:30,1,80,2|0,0:0|1:0,0:0:0:0:
316,113,61729,2,0,L|247:153,1,80,8|0,0:0|0:0,0:0:0:0:
109,71,62073,22,0,L|41:30,1,80,2|0,1:2|0:0,0:0:0:0:
178,113,62418,2,0,L|247:153,1,80,10|0,0:0|0:0,0:0:0:0:
385,233,62763,2,0,L|317:192,1,80,2|0,0:0|1:0,0:0:0:0:
247,153,63108,5,10,0:2:0:0:
245,159,63194,1,0,0:0:0:0:
243,165,63280,1,0,0:0:0:0:
241,171,63367,1,0,0:0:0:0:
239,177,63453,5,2,1:2:0:0:
86,226,63625,2,0,L|162:202,2,80,0|8|0,0:0|0:0|0:0,0:0:0:0:
239,177,64142,2,0,L|315:153,1,80,2|0,0:0|1:0,0:0:0:0:
467,102,64487,1,8,0:0:0:0:
391,127,64660,1,0,0:0:0:0:
290,77,64832,22,0,L|131:57,1,160,2|8,1:2|0:0,0:0:0:0:
290,77,65349,1,0,0:0:0:0:
131,57,65522,2,0,L|51:47,1,80,2|0,0:0|1:0,0:0:0:0:
211,67,65867,2,0,L|291:77,1,80,8|0,0:0|0:0,0:0:0:0:
381,168,66211,21,2,1:2:0:0:
318,218,66384,2,0,L|255:268,2,80,0|8|0,0:0|0:0|0:0,0:0:0:0:
381,168,66901,2,0,L|444:118,1,80,2|0,0:0|1:0,0:0:0:0:
318,218,67246,1,8,0:0:0:0:
381,168,67418,1,0,0:0:0:0:
475,345,67591,22,0,L|395:338,1,80,2|0,1:2|0:0,0:0:0:0:
236,324,67936,2,0,L|315:330,1,80,10|0,0:0|0:0,0:0:0:0:
156,318,68281,2,0,L|77:312,1,80,2|0,0:0|1:0,0:0:0:0:
236,324,68625,5,10,0:2:0:0:
238,318,68711,1,0,0:0:0:0:
240,312,68798,1,0,0:0:0:0:
242,306,68884,1,0,0:0:0:0:
244,300,68970,6,0,L|174:155,1,160,6|8,1:2|0:0,0:0:0:0:
244,300,69487,1,0,0:0:0:0:
140,84,69660,2,0,L|174:156,1,80,2|0,0:0|1:0,0:0:0:0:
244,300,70005,1,8,0:0:0:0:
209,227,70177,1,0,0:0:0:0:
88,334,70349,22,0,L|244:300,1,160,2|8,1:2|0:0,0:0:0:0:
88,334,70867,1,0,0:0:0:0:
323,283,71039,2,0,L|244:300,1,80,2|0,0:0|1:0,0:0:0:0:
401,266,71384,1,8,0:0:0:0:
323,283,71556,1,0,0:0:0:0:
501,305,71729,22,0,L|385:193,1,160,2|8,1:2|0:0,0:0:0:0:
501,305,72246,1,0,0:0:0:0:
386,194,72418,2,0,L|328:138,1,80,2|0,0:0|1:0,0:0:0:0:
444,249,72763,2,0,L|500:304,1,80,8|0,0:0|0:0,0:0:0:0:
444,139,73108,22,0,L|500:84,1,80,2|0,1:2|0:0,0:0:0:0:
386,194,73453,2,0,L|328:250,1,80,10|0,0:0|0:0,0:0:0:0:
213,361,73798,2,0,L|271:305,1,80,2|0,0:0|1:0,0:0:0:0:
329,250,74142,5,10,0:2:0:0:
327,244,74229,1,0,0:0:0:0:
325,238,74315,1,0,0:0:0:0:
323,232,74401,1,0,0:0:0:0:
321,226,74487,5,2,1:2:0:0:
465,292,74660,2,0,L|393:259,2,80,0|8|0,0:0|0:0|0:0,0:0:0:0:
321,226,75177,2,0,L|249:193,1,80,2|0,0:0|1:0,0:0:0:0:
102,127,75522,1,8,0:0:0:0:
175,159,75694,1,0,0:0:0:0:
40,254,75867,22,0,L|28:94,1,160,2|8,1:2|0:0,0:0:0:0:
40,254,76384,1,0,0:0:0:0:
28,95,76556,2,0,L|22:15,1,80,2|0,0:0|1:0,0:0:0:0:
34,174,76901,2,0,L|40:254,1,80,8|0,0:0|0:0,0:0:0:0:
156,253,77246,21,2,1:2:0:0:
98,309,77418,2,0,L|40:365,2,80,0|8|0,0:0|0:0|0:0,0:0:0:0:
156,253,77936,2,0,L|214:197,1,80,2|0,0:0|1:0,0:0:0:0:
327,85,78280,1,8,0:0:0:0:
270,141,78453,1,0,0:0:0:0:
328,241,78625,21,8,1:0:0:0:
256,314,78798,2,0,L|256:354,2,40,0|0|0,1:0|1:0|1:0,0:0:0:0:
184,241,79142,1,8,1:0:0:0:
256,168,79315,2,0,L|256:128,2,40,0|0|0,1:0|1:0|1:0,0:0:0:0:
328,241,79660,5,8,0:0:0:0:
330,247,79746,1,0,0:0:0:0:
332,253,79832,1,0,0:0:0:0:
334,259,79918,1,0,0:0:0:0:
336,265,80005,5,6,1:2:0:0:
181,223,80349,1,8,0:0:0:0:
202,145,80522,1,0,0:0:0:0:
280,166,80694,1,0,0:0:0:0:
259,244,80867,1,0,1:0:0:0:
181,223,81039,1,8,0:0:0:0:
202,145,81211,1,0,0:0:0:0:
160,301,81384,21,0,1:2:0:0:
238,322,81557,1,0,0:0:0:0:
259,244,81729,1,8,0:0:0:0:
181,223,81901,1,0,0:0:0:0:
160,301,82074,1,0,0:0:0:0:
238,322,82246,1,0,1:0:0:0:
259,244,82418,2,0,L|287:140,1,80,8|0,0:0|0:0,0:0:0:0:
181,223,82763,21,0,1:2:0:0:
223,68,83107,1,8,0:0:0:0:
301,89,83280,1,0,0:0:0:0:
280,167,83452,1,0,0:0:0:0:
202,146,83625,1,0,1:0:0:0:
223,68,83797,1,8,0:0:0:0:
301,89,83970,1,0,0:0:0:0:
145,47,84142,21,0,1:2:0:0:
124,125,84315,1,0,0:0:0:0:
202,146,84487,1,8,0:0:0:0:
223,68,84659,1,0,0:0:0:0:
145,47,84832,1,0,0:0:0:0:
124,125,85004,1,0,1:0:0:0:
215,92,85177,5,8,0:0:0:0:
217,86,85263,1,0,0:0:0:0:
219,80,85349,1,0,0:0:0:0:
221,74,85436,1,0,0:0:0:0:
223,68,85522,5,6,1:2:0:0:
379,110,85866,1,8,0:0:0:0:
358,188,86039,1,0,0:0:0:0:
280,167,86211,1,0,0:0:0:0:
301,89,86384,1,0,1:0:0:0:
379,110,86556,1,8,0:0:0:0:
358,188,86728,1,0,0:0:0:0:
280,167,86901,21,0,1:0:0:0:
358,188,87073,1,0,0:0:0:0:
259,245,87246,1,8,0:0:0:0:
337,266,87418,1,0,0:0:0:0:
238,323,87591,1,0,0:0:0:0:
316,344,87763,1,0,1:0:0:0:
259,245,87936,2,0,L|155:217,1,80,8|0,0:0|0:0,0:0:0:0:
238,323,88280,21,6,1:2:0:0:
280,167,88625,1,8,0:0:0:0:
336,262,88798,1,0,1:0:0:0:
340,266,88884,1,0,1:0:0:0:
344,270,88970,2,0,L|385:281,2,40,0|0|0,1:0|1:0|1:0,0:0:0:0:
280,167,89315,1,8,0:0:0:0:
259,245,89487,1,0,1:0:0:0:
238,323,89660,21,0,1:0:0:0:
182,224,89832,1,0,1:0:0:0:
178,220,89918,1,0,1:0:0:0:
174,216,90005,2,0,L|133:205,2,40,8|0|0,0:0|1:0|1:0,0:0:0:0:
280,167,90349,1,8,0:0:0:0:
386,118,90522,1,4,1:0:0:0:
492,69,90694,5,0,0:0:0:0:
494,75,90780,1,0,0:0:0:0:
496,81,90867,1,0,0:0:0:0:
498,87,90953,1,0,0:0:0:0:
500,93,91039,5,6,1:2:0:0:
347,41,91384,1,2,0:0:0:0:
271,15,91556,1,0,1:0:0:0:
271,15,91729,1,10,0:0:0:0:
271,15,91901,1,2,0:0:0:0:
271,15,92073,1,2,0:0:0:0:
271,15,92246,1,2,1:2:0:0:
216,74,92418,22,0,L|205:195,2,120,0|0|0,1:0|1:0|1:0,0:0:0:0:
216,74,93108,2,0,L|201:233,1,160,8|0,0:0|0:0,0:0:0:0:
193,313,93625,1,0,0:0:0:0:
238,379,93798,21,0,1:2:0:0:
307,234,94142,1,0,0:0:0:0:
273,306,94315,1,0,1:0:0:0:
307,234,94487,1,8,0:0:0:0:
273,306,94659,1,0,0:0:0:0:
307,234,94832,1,0,0:0:0:0:
273,306,95004,1,0,1:0:0:0:
200,233,95177,22,0,L|211:113,2,120,0|0|0,1:0|1:0|1:0,0:0:0:0:
200,233,95867,2,0,L|215:74,1,160,8|0,0:0|0:0,0:0:0:0:
221,71,96298,5,0,0:0:0:0:
227,69,96384,1,0,0:0:0:0:
233,67,96470,1,0,0:0:0:0:
239,65,96556,5,6,1:2:0:0:
388,120,96901,1,2,0:0:0:0:
314,93,97073,1,0,1:0:0:0:
314,93,97246,1,10,0:0:0:0:
314,93,97418,1,2,1:2:0:0:
314,93,97590,1,2,0:0:0:0:
314,93,97763,1,2,1:2:0:0:
218,147,97936,22,0,L|226:226,1,80,0|0,1:0|0:0,0:0:0:0:
145,315,98280,2,0,L|120:76,1,240,8|0,0:0|1:0,0:0:0:0:
218,147,98970,2,0,L|226:226,1,80,8|0,0:0|0:0,0:0:0:0:
340,359,99315,22,0,L|332:280,1,80,6|0,1:2|0:0,0:0:0:0:
316,120,99659,1,8,0:0:0:0:
244,208,99832,1,0,1:0:0:0:
240,212,99918,1,0,1:0:0:0:
236,216,100004,2,0,L|197:226,2,40,0|0|0,1:0|1:0|1:0,0:0:0:0:
316,120,100349,1,8,0:0:0:0:
324,200,100522,1,0,1:0:0:0:
332,280,100694,21,0,1:0:0:0:
404,192,100866,1,0,1:0:0:0:
408,188,100952,1,0,1:0:0:0:
412,184,101039,2,0,L|450:173,2,40,8|0|0,1:2|1:0|1:0,0:0:0:0:
316,120,101383,1,8,0:0:0:0:
236,216,101556,22,0,B|82:264|82:264|148:221,1,240,4|6,0:1|1:2,0:0:0:0:
148,221,102763,1,0,1:0:0:0:
148,221,103453,21,0,1:0:0:0:
148,221,104142,1,0,1:0:0:0:
148,221,104832,21,0,1:0:0:0:
148,221,105522,1,0,1:0:0:0:
148,221,106211,22,0,L|152:260,3,40,2|0|0|0,1:0|1:0|1:0|1:0,0:0:0:0:
88,301,106556,2,0,L|92:340,3,40,2|0|0|0,1:0|1:0|1:0|1:0,0:0:0:0:
155,384,106901,21,0,1:0:0:0:
224,291,107246,1,0,1:0:0:0:
155,196,107591,21,0,1:0:0:0:
357,56,107936,1,2,3:1:0:0:
141,167,108453,21,0,1:0:0:0:
256,126,108625,1,2,3:1:0:0:
357,314,108971,21,0,1:0:0:0:
155,174,109316,1,2,3:1:0:0:
371,285,109833,21,0,1:0:0:0:
256,244,110005,1,2,3:1:0:0:
135,368,110350,21,2,1:1:0:0:
142,288,110522,1,0,1:0:0:0:
149,207,110695,1,2,1:1:0:0:
155,127,110867,1,0,1:0:0:0:
161,47,111040,2,0,L|164:7,3,40,2|0|2|0,1:1|1:0|1:1|1:0,0:0:0:0:
233,39,111384,2,0,L|236:-1,3,40,2|0|2|0,1:1|1:0|1:1|1:0,0:0:0:0:
309,24,111729,22,0,B|328:17|328:17|349:21,3,40,0|0|0|0,3:0|3:0|3:0|3:0,0:0:0:0:
371,92,112418,2,0,B|390:95|390:95|409:88,3,40,0|0|0|0,3:0|3:0|3:0|3:0,0:0:0:0:
449,18,113108,22,0,L|469:176,1,160,0|12,1:0|0:1,0:0:0:0:
449,18,113625,1,0,0:0:0:0:
479,256,113798,2,0,L|467:158,1,80,0|0,0:0|1:0,0:0:0:0:
449,18,114142,2,0,L|461:109,1,80,8|0,0:0|0:0,0:0:0:0:
401,246,114487,22,0,L|242:226,1,160,2|8,1:2|0:0,0:0:0:0:
401,246,115005,1,0,0:0:0:0:
242,226,115177,2,0,L|162:216,1,80,2|0,0:0|1:0,0:0:0:0:
401,246,115522,2,0,L|481:256,1,80,8|0,0:0|0:0,0:0:0:0:
354,112,115867,22,0,L|242:226,1,160,2|8,1:2|0:0,0:0:0:0:
354,112,116384,1,0,0:0:0:0:
187,284,116556,2,0,L|243:226,1,80,2|0,0:0|1:0,0:0:0:0:
354,112,116901,2,0,L|298:170,1,80,8|0,0:0|0:0,0:0:0:0:
250,24,117246,22,0,L|89:47,1,160,2|8,1:2|0:0,0:0:0:0:
250,24,117763,1,0,0:0:0:0:
13,58,117936,2,0,L|101:45,1,80,2|0,0:0|1:0,0:0:0:0:
144,203,118280,37,10,0:2:0:0:
146,209,118367,1,0,0:0:0:0:
148,215,118453,1,0,0:0:0:0:
150,221,118539,1,0,0:0:0:0:
152,227,118625,38,0,L|305:273,1,160,6|8,1:2|0:0,0:0:0:0:
152,227,119142,1,0,0:0:0:0:
305,273,119315,2,0,L|381:296,1,80,2|0,0:0|1:0,0:0:0:0:
152,227,119660,2,0,L|76:204,1,80,8|0,0:0|0:0,0:0:0:0:
112,354,120005,22,0,L|235:251,1,160,2|8,1:2|0:0,0:0:0:0:
112,354,120522,1,0,0:0:0:0:
296,199,120694,2,0,L|235:251,1,80,2|0,0:0|1:0,0:0:0:0:
357,147,121039,1,8,0:0:0:0:
235,251,121211,1,0,0:0:0:0:
156,359,121384,22,0,L|315:376,1,160,2|8,1:2|0:0,0:0:0:0:
156,359,121901,1,0,0:0:0:0:
315,376,122074,2,0,L|402:385,1,80,2|0,0:0|1:0,0:0:0:0:
156,359,122419,2,0,L|34:345,1,120,8|0,0:0|0:0,0:0:0:0:
37,345,122764,22,0,L|48:225,1,120,2|0,1:2|0:0,0:0:0:0:
48,225,123109,2,0,L|59:105,1,120,10|0,0:0|0:0,0:0:0:0:
59,106,123454,2,0,L|67:26,1,80,2|0,0:0|1:0,0:0:0:0:
139,124,123799,37,10,0:2:0:0:
141,130,123885,1,0,0:0:0:0:
143,136,123971,1,0,0:0:0:0:
145,142,124057,1,0,0:0:0:0:
147,148,124143,37,6,1:2:0:0:
227,137,124315,1,0,1:0:0:0:
307,127,124488,1,8,1:2:0:0:
387,117,124660,1,0,1:0:0:0:
389,123,124747,1,0,1:0:0:0:
391,129,124833,1,12,1:2:0:0:
227,137,125005,1,0,1:0:0:0:
422,223,125350,21,4,1:1:0:0:
342,212,125522,1,4,1:1:0:0:
338,224,125694,1,0,1:0:0:0:
262,202,125867,1,12,1:1:0:0:
258,214,126040,1,0,1:0:0:0:
182,192,126212,1,12,1:1:0:0:
180,198,126298,1,0,1:0:0:0:
178,204,126384,1,0,1:0:0:0:
102,182,126557,1,12,1:1:0:0:
257,292,126902,21,6,1:2:0:0:
177,303,127074,1,0,1:0:0:0:
97,313,127247,1,8,1:2:0:0:
17,323,127419,1,0,1:0:0:0:
15,329,127506,1,0,1:0:0:0:
13,335,127592,1,12,1:2:0:0:
177,303,127764,1,0,1:0:0:0:
90,192,128109,21,4,1:1:0:0:
170,203,128281,1,4,1:1:0:0:
174,191,128454,1,0,1:0:0:0:
250,213,128626,1,12,1:1:0:0:
254,201,128799,1,0,1:0:0:0:
330,223,128971,1,12,1:1:0:0:
332,217,129057,1,0,1:0:0:0:
334,211,129143,1,0,1:0:0:0:
170,203,129315,37,12,1:1:0:0:
168,197,129402,1,0,0:0:0:0:
166,191,129488,1,0,0:0:0:0:
164,185,129574,1,0,0:0:0:0:
162,179,129660,37,6,1:2:0:0:
242,168,129832,1,0,1:0:0:0:
322,158,130005,1,8,1:2:0:0:
402,148,130177,1,0,1:0:0:0:
404,154,130264,1,0,1:0:0:0:
406,160,130350,1,12,1:2:0:0:
242,168,130522,1,0,1:0:0:0:
469,74,130867,21,4,1:1:0:0:
389,63,131039,1,4,1:1:0:0:
385,75,131212,1,0,1:0:0:0:
309,53,131384,1,12,1:1:0:0:
305,65,131557,1,0,1:0:0:0:
229,43,131729,1,12,1:1:0:0:
227,49,131815,1,0,1:0:0:0:
225,55,131901,1,0,1:0:0:0:
149,33,132074,1,12,1:1:0:0:
145,45,132247,1,0,1:1:0:0:
69,23,132419,21,4,1:2:0:0:
62,102,132591,1,0,1:0:0:0:
55,181,132764,1,8,1:0:0:0:
48,260,132936,1,0,1:0:0:0:
54,262,133022,1,0,1:0:0:0:
60,264,133109,21,4,1:1:0:0:
139,271,133281,1,0,1:0:0:0:
146,192,133453,1,8,1:0:0:0:
153,113,133626,1,0,1:0:0:0:
160,34,133798,22,0,L|200:41,3,40,12|0|0|0,1:2|1:0|1:0|1:0,0:0:0:0:
271,53,134142,2,0,L|311:60,3,40,12|0|0|0,1:1|1:0|1:0|1:0,0:0:0:0:
352,66,134488,1,12,1:1:0:0:
368,68,134574,1,0,1:0:0:0:
384,71,134660,1,0,1:0:0:0:
400,74,134746,1,0,1:0:0:0:
416,77,134832,5,8,1:0:0:0:
418,83,134919,1,0,0:0:0:0:
420,89,135005,1,0,0:0:0:0:
422,95,135091,1,0,0:0:0:0:
424,101,135177,6,0,L|268:136,1,160,6|8,1:2|0:0,0:0:0:0:
424,101,135694,1,0,0:0:0:0:
268,136,135866,2,0,L|190:153,1,80,2|0,0:0|1:0,0:0:0:0:
424,101,136211,1,8,0:0:0:0:
347,118,136383,1,0,0:0:0:0:
472,242,136556,22,0,L|316:206,1,160,2|8,1:2|0:0,0:0:0:0:
472,242,137073,1,0,0:0:0:0:
238,188,137246,2,0,L|316:206,1,80,2|0,0:0|1:0,0:0:0:0:
472,242,137591,1,8,0:0:0:0:
394,224,137763,1,0,0:0:0:0:
338,365,137936,21,2,1:2:0:0:
316,206,138108,2,0,L|305:126,1,80,0|8,0:0|0:0,0:0:0:0:
327,285,138453,1,0,0:0:0:0:
305,126,138625,2,0,L|294:46,1,80,2|0,0:0|1:0,0:0:0:0:
316,206,138970,2,0,L|327:286,1,80,8|0,0:0|0:0,0:0:0:0:
181,220,139315,22,0,L|108:188,1,80,2|0,1:2|0:0,0:0:0:0:
254,253,139660,2,0,L|326:285,1,80,10|0,0:0|0:0,0:0:0:0:
473,350,140005,2,0,L|400:318,1,80,2|0,0:0|1:0,0:0:0:0:
327,286,140349,5,10,0:2:0:0:
325,292,140436,1,0,0:0:0:0:
323,298,140522,1,0,0:0:0:0:
321,304,140608,1,0,0:0:0:0:
319,310,140694,5,2,1:2:0:0:
214,187,140867,2,0,L|266:248,2,80,0|8|0,0:0|0:0|0:0,0:0:0:0:
319,310,141384,2,0,L|371:371,1,80,2|0,0:0|1:0,0:0:0:0:
214,187,141729,1,8,0:0:0:0:
266,248,141901,1,0,0:0:0:0:
108,314,142073,22,0,L|119:154,1,160,2|8,1:2|0:0,0:0:0:0:
108,314,142591,1,0,0:0:0:0:
124,75,142763,2,0,L|119:155,1,80,2|0,0:0|1:0,0:0:0:0:
108,314,143108,2,0,L|113:234,1,80,8|0,0:0|0:0,0:0:0:0:
195,130,143453,21,2,1:2:0:0:
119,155,143625,2,0,L|43:180,2,80,0|8|0,0:0|0:0|0:0,0:0:0:0:
195,130,144142,2,0,L|271:105,1,80,2|0,0:0|1:0,0:0:0:0:
119,155,144487,1,8,0:0:0:0:
195,130,144660,1,0,0:0:0:0:
256,232,144832,21,8,1:0:0:0:
256,312,145005,1,0,1:0:0:0:
256,328,145177,1,0,1:0:0:0:
256,152,145349,1,8,1:0:0:0:
256,71,145522,2,0,L|256:31,2,40,0|0|0,1:0|1:0|1:0,0:0:0:0:
331,180,145867,5,8,0:0:0:0:
333,186,145953,1,0,0:0:0:0:
335,192,146039,1,0,0:0:0:0:
337,198,146125,1,0,0:0:0:0:
339,204,146211,6,0,L|180:183,1,160,6|8,1:2|0:0,0:0:0:0:
339,204,146729,1,0,0:0:0:0:
101,172,146901,2,0,L|187:184,1,80,2|0,0:0|1:0,0:0:0:0:
339,204,147246,1,8,0:0:0:0:
259,193,147418,1,0,0:0:0:0:
374,323,147591,22,0,L|400:165,1,160,2|8,1:2|0:0,0:0:0:0:
374,323,148108,1,0,0:0:0:0:
413,86,148280,2,0,L|400:165,1,80,2|0,0:0|1:0,0:0:0:0:
374,323,148625,1,8,0:0:0:0:
400,165,148798,1,0,0:0:0:0:
303,278,148970,22,0,L|145:307,1,160,2|8,1:2|0:0,0:0:0:0:
303,278,149487,1,0,0:0:0:0:
146,307,149660,2,0,L|67:321,1,80,2|0,0:0|1:0,0:0:0:0:
224,292,150005,2,0,L|303:278,1,80,8|0,0:0|0:0,0:0:0:0:
181,161,150349,22,0,L|102:147,1,80,2|0,1:2|0:0,0:0:0:0:
259,176,150694,2,0,L|338:190,1,80,10|0,0:0|0:0,0:0:0:0:
496,218,151039,2,0,L|417:204,1,80,2|0,0:0|1:0,0:0:0:0:
338,190,151384,5,10,0:2:0:0:
336,196,151470,1,0,0:0:0:0:
334,202,151556,1,0,0:0:0:0:
332,208,151642,1,0,0:0:0:0:
330,214,151729,5,2,1:2:0:0:
290,58,151901,2,0,L|310:136,2,80,0|8|0,0:0|0:0|0:0,0:0:0:0:
329,213,152418,2,0,L|349:291,1,80,2|0,0:0|1:0,0:0:0:0:
310,135,152763,1,8,0:0:0:0:
329,213,152936,1,0,0:0:0:0:
427,89,153108,22,0,L|267:75,1,160,2|8,1:2|0:0,0:0:0:0:
427,89,153625,1,0,0:0:0:0:
188,68,153798,2,0,L|271:75,1,80,2|0,0:0|1:0,0:0:0:0:
427,89,154142,2,0,L|344:82,1,80,8|0,0:0|0:0,0:0:0:0:
234,155,154487,21,2,1:2:0:0:
287,214,154660,2,0,L|339:274,2,80,0|8|0,0:0|0:0|0:0,0:0:0:0:
234,155,155177,2,0,L|182:95,1,80,2|0,0:0|1:0,0:0:0:0:
287,214,155522,1,8,0:0:0:0:
234,155,155694,1,0,0:0:0:0:
184,271,155867,21,8,1:0:0:0:
256,344,156040,2,0,L|256:384,2,40,0|0|0,1:0|1:0|1:0,0:0:0:0:
328,271,156384,1,8,1:0:0:0:
256,198,156557,2,0,L|256:158,2,40,0|0|0,1:0|1:0|1:0,0:0:0:0:
201,368,156901,5,8,1:2:0:0:
193,368,156987,1,0,0:0:0:0:
185,368,157073,1,0,0:0:0:0:
177,368,157160,1,0,0:0:0:0:
169,368,157246,6,0,L|169:328,3,40,6|0|2|0,1:2|0:0|1:2|0:0,0:0:0:0:
236,292,157591,2,0,L|236:252,3,40,10|0|2|0,0:0|0:0|1:2|0:0,0:0:0:0:
170,214,157936,22,0,L|170:174,1,40,2|0,1:2|1:0,0:0:0:0:
248,160,158108,2,0,L|248:120,1,40,0|0,1:0|0:0,0:0:0:0:
207,52,158280,2,0,L|207:12,3,40,10|0|2|0,0:0|0:0|1:2|0:0,0:0:0:0:
305,12,158625,22,0,L|305:52,3,40,2|0|2|0,1:2|0:0|1:2|1:0,0:0:0:0:
264,120,158970,2,0,L|264:160,3,40,10|0|2|0,0:0|1:0|1:2|0:0,0:0:0:0:
342,174,159315,22,0,L|342:214,1,40,2|0,1:2|0:0,0:0:0:0:
276,252,159487,2,0,L|276:292,1,40,4|0,0:1|0:0,0:0:0:0:
343,328,159660,2,0,L|343:368,3,40,4|0|0|0,0:2|0:0|0:0|0:0,0:0:0:0:
253,380,160005,22,0,L|144:262,1,160,6|10,1:2|0:0,0:0:0:0:
253,380,160522,1,0,0:0:0:0:
144,262,160694,2,0,L|90:203,1,80,2|0,0:0|1:0,0:0:0:0:
253,380,161039,1,10,0:0:0:0:
199,321,161211,1,0,0:0:0:0:
280,218,161384,22,0,L|433:261,1,160,2|10,1:2|0:0,0:0:0:0:
280,218,161901,1,0,0:0:0:0:
511,283,162073,2,0,L|434:261,1,80,2|0,0:0|1:0,0:0:0:0:
280,218,162418,1,10,0:0:0:0:
358,240,162591,1,0,0:0:0:0:
337,103,162763,22,0,L|183:147,1,160,6|10,1:2|0:0,0:0:0:0:
337,103,163280,1,0,0:0:0:0:
106,169,163453,2,0,L|183:147,1,80,2|0,0:0|1:0,0:0:0:0:
414,81,163798,2,0,L|337:103,1,80,10|0,0:0|0:0,0:0:0:0:
221,77,164142,22,0,L|260:6,1,80,6|0,1:2|0:0,0:0:0:0:
183,147,164487,2,0,L|145:217,1,80,10|0,0:0|0:0,0:0:0:0:
69,357,164832,2,0,L|107:287,1,80,4|0,0:1|1:0,0:0:0:0:
145,217,165177,5,12,0:1:0:0:
147,223,165263,1,0,0:0:0:0:
149,229,165349,1,0,0:0:0:0:
151,235,165436,1,0,0:0:0:0:
153,241,165522,5,6,1:2:0:0:
1,286,165694,2,0,L|78:263,2,80,0|10|0,0:0|0:0|0:0,0:0:0:0:
155,241,166211,2,0,L|232:218,1,80,2|0,0:0|1:0,0:0:0:0:
384,172,166556,1,10,0:0:0:0:
307,195,166729,1,0,0:0:0:0:
372,331,166901,22,0,L|384:171,1,160,4|10,1:1|0:0,0:0:0:0:
372,331,167418,1,0,0:0:0:0:
390,92,167591,2,0,L|384:172,1,80,2|0,0:0|1:0,0:0:0:0:
372,331,167936,2,0,L|378:251,1,80,10|0,0:0|0:0,0:0:0:0:
390,92,168280,21,6,1:2:0:0:
432,160,168453,2,0,L|474:227,2,80,0|10|0,0:0|0:0|0:0,0:0:0:0:
390,92,168970,2,0,L|348:25,1,80,4|0,0:1|1:0,0:0:0:0:
432,160,169315,1,10,0:0:0:0:
390,92,169487,1,0,0:0:0:0:
418,244,169660,22,0,L|338:251,1,80,6|0,1:2|0:0,0:0:0:0:
179,265,170005,2,0,L|258:259,1,80,10|0,0:0|0:0,0:0:0:0:
99,271,170350,2,0,L|20:277,1,80,4|0,0:1|1:0,0:0:0:0:
179,265,170694,5,12,0:1:0:0:
181,259,170780,1,0,0:0:0:0:
183,253,170867,1,0,0:0:0:0:
185,247,170953,1,0,0:0:0:0:
187,241,171039,6,0,L|325:161,1,160,6|10,1:2|0:0,0:0:0:0:
187,241,171556,1,0,0:0:0:0:
395,121,171729,2,0,L|326:161,1,80,2|0,0:0|1:0,0:0:0:0:
187,241,172073,1,10,0:0:0:0:
256,201,172246,1,0,0:0:0:0:
127,134,172418,22,0,L|136:294,1,160,4|10,1:1|0:0,0:0:0:0:
127,134,172936,1,0,0:0:0:0:
141,374,173108,2,0,L|136:294,1,80,2|0,0:0|1:0,0:0:0:0:
127,134,173453,1,10,0:0:0:0:
131,214,173625,1,0,0:0:0:0:
280,83,173798,22,0,L|122:53,1,160,6|10,1:2|0:0,0:0:0:0:
280,83,174315,1,0,0:0:0:0:
44,38,174487,2,0,L|123:53,1,80,4|0,0:1|1:0,0:0:0:0:
280,83,174832,2,0,L|201:68,1,80,10|0,0:0|0:0,0:0:0:0:
332,144,175177,22,0,L|411:130,1,80,6|0,1:2|0:0,0:0:0:0:
254,159,175522,2,0,L|175:173,1,80,10|0,0:0|0:0,0:0:0:0:
17,201,175867,2,0,L|96:187,1,80,4|0,0:1|1:0,0:0:0:0:
175,173,176211,5,12,0:1:0:0:
177,179,176298,1,0,0:0:0:0:
179,185,176384,1,0,0:0:0:0:
181,191,176470,1,0,0:0:0:0:
183,197,176556,5,6,1:2:0:0:
108,339,176729,2,0,L|145:268,2,80,0|10|0,0:0|0:0|0:0,0:0:0:0:
183,197,177246,2,0,L|220:126,1,80,2|0,0:0|1:0,0:0:0:0:
145,268,177591,1,10,0:0:0:0:
183,197,177763,1,0,0:0:0:0:
305,264,177936,22,0,L|145:268,1,160,4|10,1:1|0:0,0:0:0:0:
305,264,178453,1,0,0:0:0:0:
65,270,178625,2,0,L|146:268,1,80,2|0,0:0|1:0,0:0:0:0:
305,264,178970,2,0,L|224:266,1,80,8|0,0:0|0:0,0:0:0:0:
88,360,179315,21,12,1:2:0:0:
168,360,179487,1,0,1:0:0:0:
170,354,179573,1,0,1:0:0:0:
172,348,179660,1,0,1:0:0:0:
248,360,179832,1,12,1:1:0:0:
328,360,180005,1,0,1:0:0:0:
330,354,180091,1,0,1:0:0:0:
332,348,180177,1,0,1:0:0:0:
408,360,180349,1,12,1:2:0:0:
412,348,180522,1,0,1:0:0:0:
457,237,180694,21,12,1:2:0:0:
377,237,180866,1,0,1:0:0:0:
375,231,180952,1,0,1:0:0:0:
373,225,181039,1,0,1:0:0:0:
297,237,181211,1,12,1:1:0:0:
217,237,181384,1,0,1:0:0:0:
215,231,181470,1,0,1:0:0:0:
213,225,181556,1,0,1:0:0:0:
137,237,181728,1,12,1:2:0:0:
133,225,181901,1,0,1:0:0:0:
88,115,182073,21,12,1:2:0:0:
168,115,182245,1,0,1:0:0:0:
248,115,182418,1,8,1:0:0:0:
328,115,182591,1,0,1:0:0:0:
330,109,182677,1,0,1:0:0:0:
332,103,182763,1,4,1:1:0:0:
408,115,182936,1,8,1:0:0:0:
248,115,183108,1,4,1:1:0:0:
88,115,183280,1,8,1:0:0:0:
199,261,183453,21,6,1:2:0:0:
256,192,183539,12,0,185780,0:0:0:0:
186,357,185867,22,0,L|90:361,1,96,2|0,0:0|0:0,0:0:0:0:
