osu file format v14

[General]
AudioFilename: audio.mp3
AudioLeadIn: 0
PreviewTime: 57591
Countdown: 0
SampleSet: Soft
StackLeniency: 0
Mode: 0
LetterboxInBreaks: 0
WidescreenStoryboard: 1

[Editor]
Bookmarks: 24832,113108,186211
DistanceSpacing: 1.1
BeatDivisor: 4
GridSize: 4
TimelineZoom: 2

[Metadata]
Title:Zetsubou no Fuchi
TitleUnicode:絶望の淵
Artist:senya
ArtistUnicode:senya
Creator:-Mo-
Version:Hard
Source:
Tags:Yuuhei Catharsis 幽閉カタルシス Shoujo Fractal 少女フラクタル Satellite 空母ヲ級 Kantai Collection KanColle 艦隊これくしょん 艦これ 艦隊これくしょん -艦これ- Kamase-tora かませ虎 poplar Mayumi Morinaga 森永真由美 Korekushon Combined Fleet C90
BeatmapID:1403583
BeatmapSetID:605290

[Difficulty]
HPDrainRate:4.2
CircleSize:4
OverallDifficulty:6.2
ApproachRate:8
SliderMultiplier:1.36
SliderTickRate:1

[Events]
//Background and Video events
0,0,"bg.jpg",0,0
//Break Periods
2,3194,6151
2,102418,105461
//Storyboard Layer 0 (Background)
//Storyboard Layer 1 (Fail)
//Storyboard Layer 2 (Pass)
//Storyboard Layer 3 (Foreground)
Sprite,Foreground,CentreLeft,"sb\flash.png",319,136 S,0,13798,,0.9 R,0,13798,,3.038258 F,1,13798,14798,1,0
Sprite,Foreground,CentreLeft,"sb\flash.png",308,228 S,0,15177,,0.9 R,0,15177,,-0.8324838 F,1,15177,16177,1,0
Sprite,Foreground,CentreLeft,"sb\flash.png",339,408 S,0,16556,,0.9 R,0,16556,,2.986141 F,1,16556,17556,1,0
Sprite,Foreground,CentreLeft,"sb\flash.png",338,285 S,0,17936,,0.9 R,0,17936,,0.942 F,1,17936,18936,1,0
Sprite,Foreground,CentreLeft,"sb\flash.png",292,140 S,0,24832,,0.9 R,0,24832,,-0.08070666 F,1,24832,25832,1,0
Sprite,Foreground,CentreLeft,"sb\flash.png",250,264 S,0,26211,,0.9 R,0,26211,,-2.957146 F,1,26211,27211,1,0
Sprite,Foreground,CentreLeft,"sb\flash.png",495,225 S,0,27591,,0.9 R,0,27591,,1.281442 F,1,27591,28591,1,0
Sprite,Foreground,CentreLeft,"sb\flash.png",251,171 S,0,28970,,0.9 R,0,28970,,-0.4441061 F,1,28970,29970,1,0
Sprite,Foreground,CentreLeft,"sb\flash.png",327,268 S,0,30349,,0.9 R,0,30349,,3.052279 F,1,30349,31349,1,0
Sprite,Foreground,CentreLeft,"sb\flash.png",301,176 S,0,31729,,0.9 R,0,31729,,0.6667866 F,1,31729,32729,1,0
Sprite,Foreground,CentreLeft,"sb\flash.png",240,219 S,0,33108,,0.9 R,0,33108,,-2.711266 F,1,33108,34108,1,0
Sprite,Foreground,CentreLeft,"sb\flash.png",458,259 S,0,34487,,0.9 R,0,34487,,1.322309 F,1,34487,35487,1,0
Sprite,Foreground,CentreLeft,"sb\flash.png",349,137 S,0,35867,,0.9 R,0,35867,,-0.266252 F,1,35867,36867,1,0
Sprite,Foreground,CentreLeft,"sb\flash.png",258,91 S,0,37246,,0.9 R,0,37246,,-3.067654 F,1,37246,38246,1,0
Sprite,Foreground,CentreLeft,"sb\flash.png",300,229 S,0,38625,,0.9 R,0,38625,,-1.281442 F,1,38625,39625,1,0
Sprite,Foreground,CentreLeft,"sb\flash.png",345,176 S,0,40005,,0.9 R,0,40005,,2.907177 F,1,40005,41005,1,0
Sprite,Foreground,CentreLeft,"sb\flash.png",407,236 S,0,41384,,0.9 R,0,41384,,0.1098501 F,1,41384,42384,1,0
Sprite,Foreground,CentreLeft,"sb\flash.png",265,103 S,0,42763,,0.9 R,0,42763,,3.038258 F,1,42763,43763,1,0
Sprite,Foreground,CentreLeft,"sb\flash.png",400,219 S,0,44142,,0.9 R,0,44142,,-0.4303266 F,1,44142,45142,1,0
Sprite,Foreground,CentreLeft,"sb\flash.png",182,259 S,0,45522,,0.9 R,0,45522,,1.819284 F,1,45522,46522,1,0
Sprite,Foreground,CentreLeft,"sb\flash.png",116,251 S,0,46901,,0.9 R,0,46901,,-1.735945 F,1,46901,47901,1,0
Sprite,Foreground,CentreLeft,"sb\flash.png",230,247 S,0,48108,,0.9 R,0,48108,,1.327588 F,1,48108,49108,1,0
Sprite,Foreground,CentreLeft,"sb\flash.png",369,221 S,0,49660,,0.9 R,0,49660,,2.976444 F,1,49660,50660,1,0
Sprite,Foreground,CentreLeft,"sb\flash.png",366,106 S,0,50867,,0.9 R,0,50867,,-0.2378359 F,1,50867,51867,1,0
Sprite,Foreground,CentreLeft,"sb\flash.png",333,191 S,0,52418,,0.9 R,0,52418,,-0.1651487 F,1,52418,53418,1,0
Sprite,Foreground,CentreLeft,"sb\flash.png",337,305 S,0,53625,,0.9 R,0,53625,,2.898384 F,1,53625,54625,1,0
Sprite,Foreground,CentreLeft,"sb\flash.png",243,327 S,0,55177,,0.9 R,0,55177,,1.637365 F,1,55177,56177,1,0
Sprite,Foreground,CentreLeft,"sb\flash.png",336,99 S,0,57936,,0.9 R,0,57936,,-0.08800738 F,1,57936,58936,1,0
Sprite,Foreground,CentreLeft,"sb\flash.png",263,259 S,0,59315,,0.9 R,0,59315,,-2.754209 F,1,59315,60315,1,0
Sprite,Foreground,CentreLeft,"sb\flash.png",308,363 S,0,60694,,0.9 R,0,60694,,-1.249046 F,1,60694,61694,1,0
Sprite,Foreground,CentreLeft,"sb\flash.png",250,144 S,0,62073,,0.9 R,0,62073,,0.1315881 F,1,62073,63073,1,0
Sprite,Foreground,CentreLeft,"sb\flash.png",288,92 S,0,63453,,0.9 R,0,63453,,1.113728 F,1,63453,64453,1,0
Sprite,Foreground,CentreLeft,"sb\flash.png",541,206 S,0,64832,,0.9 R,0,64832,,1.629552 F,1,64832,65832,1,0
Sprite,Foreground,CentreLeft,"sb\flash.png",362,128 S,0,66211,,0.9 R,0,66211,,0.7853982 F,1,66211,67211,1,0
Sprite,Foreground,CentreLeft,"sb\flash.png",404,406 S,0,67591,,0.9 R,0,67591,,-0.01492427 F,1,67591,68591,1,0
Sprite,Foreground,CentreLeft,"sb\flash.png",311,188 S,0,68970,,0.9 R,0,68970,,0.7645679 F,1,68970,69970,1,0
Sprite,Foreground,CentreLeft,"sb\flash.png",103,255 S,0,70349,,0.9 R,0,70349,,-1.681454 F,1,70349,71349,1,0
Sprite,Foreground,CentreLeft,"sb\flash.png",322,351 S,0,71729,,0.9 R,0,71729,,-2.971607 F,1,71729,72729,1,0
Sprite,Foreground,CentreLeft,"sb\flash.png",320,212 S,0,73108,,0.9 R,0,73108,,1.453688 F,1,73108,74108,1,0
Sprite,Foreground,CentreLeft,"sb\flash.png",396,276 S,0,74487,,0.9 R,0,74487,,3.082837 F,1,74487,75487,1,0
Sprite,Foreground,CentreLeft,"sb\flash.png",304,170 S,0,75867,,0.9 R,0,75867,,2.826835 F,1,75867,76867,1,0
Sprite,Foreground,CentreLeft,"sb\flash.png",342,244 S,0,77246,,0.9 R,0,77246,,-2.466852 F,1,77246,78246,1,0
Sprite,Foreground,CentreLeft,"sb\flash.png",143,300 S,0,80005,,0.9 R,0,80005,,0.381404 F,1,80005,81005,1,0
Sprite,Foreground,CentreLeft,"sb\flash.png",497,196 S,0,82763,,0.9 R,0,82763,,-3.013972 F,1,82763,83763,1,0
Sprite,Foreground,CentreLeft,"sb\flash.png",497,195 S,0,85522,,0.9 R,0,85522,,2.344147 F,1,85522,86522,1,0
Sprite,Foreground,CentreLeft,"sb\flash.png",436,360 S,0,88280,,0.9 R,0,88280,,-1.25752 F,1,88280,89280,1,0
Sprite,Foreground,CentreLeft,"sb\flash.png",181,372 S,0,91039,,0.9 R,0,91039,,0.4040169 F,1,91039,92039,1,0
Sprite,Foreground,CentreLeft,"sb\flash.png",388,383 S,0,93798,,0.9 R,0,93798,,-0.8017901 F,1,93798,94798,1,0
Sprite,Foreground,CentreLeft,"sb\flash.png",222,266 S,0,96556,,0.9 R,0,96556,,-2.659929 F,1,96556,97556,1,0
Sprite,Foreground,CentreLeft,"sb\flash.png",308,112 S,0,99315,,0.9 R,0,99315,,0.5471534 F,1,99315,100315,1,0
Sprite,Foreground,CentreLeft,"sb\flash.png",541,296 S,0,113108,,0.9 R,0,113108,,1.49009 F,1,113108,114108,1,0
Sprite,Foreground,CentreLeft,"sb\flash.png",318,158 S,0,114487,,0.9 R,0,114487,,-0.08070666 F,1,114487,115487,1,0
Sprite,Foreground,CentreLeft,"sb\flash.png",282,236 S,0,115867,,0.9 R,0,115867,,2.852238 F,1,115867,116867,1,0
Sprite,Foreground,CentreLeft,"sb\flash.png",293,234 S,0,117246,,0.9 R,0,117246,,-1.336381 F,1,117246,118246,1,0
Sprite,Foreground,CentreLeft,"sb\flash.png",435,323 S,0,118625,,0.9 R,0,118625,,2.252402 F,1,118625,119625,1,0
Sprite,Foreground,CentreLeft,"sb\flash.png",374,79 S,0,120005,,0.9 R,0,120005,,-0.1033343 F,1,120005,121005,1,0
Sprite,Foreground,CentreLeft,"sb\flash.png",240,218 S,0,121384,,0.9 R,0,121384,,-2.711266 F,1,121384,122384,1,0
Sprite,Foreground,CentreLeft,"sb\flash.png",458,259 S,0,122763,,0.9 R,0,122763,,1.322309 F,1,122763,123763,1,0
Sprite,Foreground,CentreLeft,"sb\flash.png",524,251 S,0,124142,,0.9 R,0,124142,,-1.405648 F,1,124142,125142,1,0
Sprite,Foreground,CentreLeft,"sb\flash.png",410,247 S,0,125349,,0.9 R,0,125349,,1.814005 F,1,125349,126349,1,0
Sprite,Foreground,CentreLeft,"sb\flash.png",271,221 S,0,126901,,0.9 R,0,126901,,0.1651487 F,1,126901,127901,1,0
Sprite,Foreground,CentreLeft,"sb\flash.png",274,106 S,0,128108,,0.9 R,0,128108,,-2.903757 F,1,128108,129108,1,0
Sprite,Foreground,CentreLeft,"sb\flash.png",307,191 S,0,129659,,0.9 R,0,129659,,-2.976444 F,1,129659,130659,1,0
Sprite,Foreground,CentreLeft,"sb\flash.png",303,305 S,0,130866,,0.9 R,0,130866,,0.2432088 F,1,130866,131866,1,0
Sprite,Foreground,CentreLeft,"sb\flash.png",397,327 S,0,132418,,0.9 R,0,132418,,1.504228 F,1,132418,133418,1,0
Sprite,Foreground,CentreLeft,"sb\flash.png",294,96 S,0,135177,,0.9 R,0,135177,,-3.053585 F,1,135177,136177,1,0
Sprite,Foreground,CentreLeft,"sb\flash.png",383,202 S,0,136556,,0.9 R,0,136556,,-0.08070666 F,1,136556,137556,1,0
Sprite,Foreground,CentreLeft,"sb\flash.png",122,173 S,0,137936,,0.9 R,0,137936,,-1.735945 F,1,137936,138936,1,0
Sprite,Foreground,CentreLeft,"sb\flash.png",164,182 S,0,139315,,0.9 R,0,139315,,0.9186249 F,1,139315,140315,1,0
Sprite,Foreground,CentreLeft,"sb\flash.png",372,439 S,0,140694,,0.9 R,0,140694,,-1.405648 F,1,140694,141694,1,0
Sprite,Foreground,CentreLeft,"sb\flash.png",219,125 S,0,142073,,0.9 R,0,142073,,-0.3147577 F,1,142073,143073,1,0
Sprite,Foreground,CentreLeft,"sb\flash.png",147,331 S,0,143453,,0.9 R,0,143453,,-1.146602 F,1,143453,144453,1,0
Sprite,Foreground,CentreLeft,"sb\flash.png",383,345 S,0,146211,,0.9 R,0,146211,,-0.4934401 F,1,146211,147211,1,0
Sprite,Foreground,CentreLeft,"sb\flash.png",214,234 S,0,147591,,0.9 R,0,147591,,1.925246 F,1,147591,148591,1,0
Sprite,Foreground,CentreLeft,"sb\flash.png",219,221 S,0,148970,,0.9 R,0,148970,,-0.2289942 F,1,148970,149970,1,0
Sprite,Foreground,CentreLeft,"sb\flash.png",307,324 S,0,150349,,0.9 R,0,150349,,-3.024484 F,1,150349,151349,1,0
Sprite,Foreground,CentreLeft,"sb\flash.png",243,384 S,0,151729,,0.9 R,0,151729,,-1.629552 F,1,151729,152729,1,0
Sprite,Foreground,CentreLeft,"sb\flash.png",435,217 S,0,153108,,0.9 R,0,153108,,-2.826835 F,1,153108,154108,1,0
Sprite,Foreground,CentreLeft,"sb\flash.png",495,122 S,0,154487,,0.9 R,0,154487,,1.249046 F,1,154487,155487,1,0
Sprite,Foreground,CentreLeft,"sb\flash.png",226,340 S,0,160005,,0.9 R,0,160005,,0.8163161 F,1,160005,161005,1,0
Sprite,Foreground,CentreLeft,"sb\flash.png",256,140 S,0,161384,,0.9 R,0,161384,,-2.754209 F,1,161384,162384,1,0
Sprite,Foreground,CentreLeft,"sb\flash.png",506,272 S,0,162763,,0.9 R,0,162763,,-1.489494 F,1,162763,163763,1,0
Sprite,Foreground,CentreLeft,"sb\flash.png",294,344 S,0,164142,,0.9 R,0,164142,,-0.2202487 F,1,164142,165142,1,0
Sprite,Foreground,CentreLeft,"sb\flash.png",576,439 S,0,165522,,0.9 R,0,165522,,-1.735945 F,1,165522,166522,1,0
Sprite,Foreground,CentreLeft,"sb\flash.png",286,187 S,0,166901,,0.9 R,0,166901,,0.1315881 F,1,166901,167901,1,0
Sprite,Foreground,CentreLeft,"sb\flash.png",312,56 S,0,168280,,0.9 R,0,168280,,1.481482 F,1,168280,169280,1,0
Sprite,Foreground,CentreLeft,"sb\flash.png",338,438 S,0,169660,,0.9 R,0,169660,,-3.126668 F,1,169660,170660,1,0
Sprite,Foreground,CentreLeft,"sb\flash.png",478,219 S,0,171039,,0.9 R,0,171039,,1.325818 F,1,171039,172039,1,0
Sprite,Foreground,CentreLeft,"sb\flash.png",303,244 S,0,172418,,0.9 R,0,172418,,-1.307802 F,1,172418,173418,1,0
Sprite,Foreground,CentreLeft,"sb\flash.png",160,229 S,0,173798,,0.9 R,0,173798,,1.680646 F,1,173798,174798,1,0
Sprite,Foreground,CentreLeft,"sb\flash.png",337,201 S,0,175177,,0.9 R,0,175177,,3.024484 F,1,175177,176177,1,0
Sprite,Foreground,CentreLeft,"sb\flash.png",118,393 S,0,176556,,0.9 R,0,176556,,-1.146602 F,1,176556,177556,1,0
Sprite,Foreground,CentreLeft,"sb\flash.png",453,247 S,0,177936,,0.9 R,0,177936,,-2.559688 F,1,177936,178936,1,0
Sprite,Foreground,CentreLeft,"sb\flash.png",464,393 S,0,179315,,0.9 R,0,179315,,0 F,1,179315,180315,1,0
Sprite,Foreground,CentreLeft,"sb\flash.png",172,283 S,0,180694,,0.9 R,0,180694,,3.141593 F,1,180694,181694,1,0
Sprite,Foreground,CentreLeft,"sb\flash.png",464,173 S,0,182073,,0.9 R,0,182073,,0 F,1,182073,183073,1,0
//Storyboard Sound Samples

[TimingPoints]
5,344.827586206897,4,2,1,100,1,0
2505,-100,4,3,1,20,0,0
2591,-100,4,2,1,100,0,0
6901,-100,4,3,1,30,0,0
7591,-100,4,3,1,50,0,0
8280,-100,4,2,1,60,0,0
13798,-100,4,2,1,80,0,0
18970,-100,4,3,2,80,0,0
19315,-100,4,2,1,80,0,0
24487,-100,4,3,2,80,0,0
24832,-100,4,2,1,80,0,0
30005,-100,4,3,2,80,0,0
30349,-100,4,2,1,80,0,0
34401,-100,4,2,1,20,0,0
34487,-100,4,2,1,80,0,0
35522,-100,4,3,2,80,0,0
35867,-100,4,2,1,80,0,0
41039,-100,4,3,2,80,0,0
41384,-100,4,2,1,80,0,0
45436,-100,4,2,1,20,0,0
45522,-100,4,2,1,80,0,0
46556,-100,4,3,2,80,0,0
46901,-100,4,2,1,80,0,0
52073,-100,4,3,2,80,0,0
52418,-100,4,2,1,80,0,0
57591,-100,4,3,2,80,0,0
57936,-100,4,2,1,100,0,1
63108,-100,4,3,2,100,0,1
63453,-100,4,2,1,100,0,1
67591,-100,4,2,1,100,0,0
68625,-100,4,3,2,100,0,0
68970,-100,4,2,1,100,0,1
74142,-100,4,3,2,100,0,1
74487,-100,4,2,1,100,0,1
78625,-100,4,2,1,100,0,0
79660,-100,4,3,2,100,0,0
80005,-100,4,2,1,100,0,1
80349,-100,4,2,1,100,0,0
85177,-100,4,3,2,100,0,0
85522,-100,4,2,1,100,0,0
90694,-100,4,3,2,100,0,0
91039,-100,4,2,1,100,0,0
96211,-100,4,3,2,100,0,0
96556,-100,4,2,1,100,0,0
98625,-100,4,3,1,80,0,0
98711,-100,4,2,1,100,0,0
101901,-100,4,3,1,80,0,0
101987,-100,4,2,1,100,0,0
102591,-100,4,2,1,50,0,0
106211,-100,4,2,1,30,0,0
106901,-100,4,2,1,50,0,0
107591,-100,4,2,1,60,0,0
111729,-100,4,2,1,40,0,0
112418,-100,4,2,1,60,0,0
112763,-100,4,2,1,80,0,0
113108,-100,4,2,1,60,0,0
113453,-100,4,2,1,80,0,0
118280,-100,4,3,2,80,0,0
118625,-100,4,2,1,80,0,0
122677,-100,4,2,1,20,0,0
122763,-100,4,2,1,80,0,0
123798,-100,4,3,2,80,0,0
124142,-100,4,2,1,80,0,0
129315,-100,4,3,2,80,0,0
129660,-100,4,2,1,80,0,0
134832,-100,4,3,2,80,0,0
135177,-100,4,2,1,100,0,1
140349,-100,4,3,2,100,0,1
140694,-100,4,2,1,100,0,1
144832,-100,4,2,1,100,0,0
145867,-100,4,3,2,100,0,0
146211,-100,4,2,1,100,0,1
151384,-100,4,3,2,100,0,1
151729,-100,4,2,1,100,0,1
155867,-100,4,2,1,100,0,0
156901,-100,4,3,2,100,0,0
157246,-100,4,2,1,100,0,1
157332,-100,4,2,1,100,0,0
159660,-100,4,3,2,100,0,0
160005,-100,4,2,1,100,0,1
165177,-100,4,3,2,100,0,1
165522,-100,4,2,1,100,0,1
169660,-100,4,2,1,100,0,0
170694,-100,4,3,2,100,0,0
171039,-100,4,2,1,100,0,1
176211,-100,4,3,2,100,0,1
176556,-100,4,2,1,100,0,1
183453,-100,4,2,1,100,0,0
185867,-100,4,2,1,50,0,0
186125,-100,4,2,1,10,0,0

[Colours]
Combo1 : 0,130,225
Combo2 : 1,67,220

[HitObjects]
168,256,2160,6,0,B|348:236|348:236|298:264,1,238,2|6,0:0|1:2,0:0:0:0:
110,243,6901,6,0,L|107:207,3,34
134,182,7246,2,0,L|131:146,3,34
160,124,7591,2,0,L|295:111,1,136
328,256,8280,5,0,1:0:0:0:
181,223,8625,1,2,3:1:0:0:
354,186,9142,5,0,1:0:0:0:
280,200,9314,1,2,3:1:0:0:
180,131,9660,5,0,1:0:0:0:
327,98,10005,1,2,3:1:0:0:
154,61,10522,5,0,1:0:0:0:
228,75,10694,1,2,3:1:0:0:
353,3,11039,6,0,L|355:70,1,68,2|0,1:1|1:0,0:0:0:0:
357,145,11384,2,0,L|359:212,1,68,2|0,1:1|1:0,0:0:0:0:
362,295,11729,2,0,L|363:328,3,34,2|0|2|0,1:1|1:0|1:1|1:0,0:0:0:0:
326,334,12073,2,0,L|327:367,3,34,2|0|2|0,1:1|1:0|1:1|1:0,0:0:0:0:
290,375,12418,5,0,3:0:0:0:
147,327,12763,2,0,L|115:314,3,34,2|0|2|0,1:1|1:0|1:1|1:0,0:0:0:0:
117,280,13108,2,0,L|85:267,3,34,2|0|2|0,1:1|1:0|1:1|1:0,0:0:0:0:
78,229,13453,2,0,L|87:161,1,68,8|2,1:0|1:0,0:0:0:0:
120,94,13798,6,0,L|255:80,1,136,6|8,1:2|0:0,0:0:0:0:
261,79,14315,1,0,0:0:0:0:
267,79,14487,2,0,L|335:72,1,68,2|0,0:0|1:0,0:0:0:0:
409,64,14832,2,0,L|477:57,1,68,8|0,0:0|0:0,0:0:0:0:
335,72,15177,6,0,L|244:172,1,136,2|8,1:2|0:0,0:0:0:0:
240,178,15694,1,0,0:0:0:0:
236,183,15866,2,0,L|185:239,1,68,2|0,0:0|1:0,0:0:0:0:
138,288,16211,1,8,0:0:0:0:
134,293,16384,1,0,0:0:0:0:
141,373,16556,6,0,L|275:352,1,136,2|8,1:2|0:0,0:0:0:0:
281,350,17073,1,0,0:0:0:0:
287,349,17246,2,0,L|354:339,1,68,2|0,0:0|1:0,0:0:0:0:
428,328,17591,2,0,L|496:317,1,68,8|0,0:0|0:0,0:0:0:0:
354,339,17936,6,0,L|274:229,1,136,2|8,1:2|0:0,0:0:0:0:
271,224,18453,1,0,0:0:0:0:
268,219,18625,2,0,L|227:163,1,68,2|0,0:0|1:0,0:0:0:0:
183,103,18970,2,0,L|163:75,3,34,8|0|0|0,0:0|0:0|0:0|0:0,0:0:0:0:
127,64,19315,6,0,L|136:199,1,136,6|8,1:2|0:0,0:0:0:0:
145,334,20005,1,2,1:2:0:0:
279,325,20349,1,8,0:0:0:0:
270,190,20694,6,0,L|261:55,1,136,6|8,1:2|0:0,0:0:0:0:
395,45,21384,1,2,1:2:0:0:
404,179,21729,1,8,0:0:0:0:
315,298,22073,6,0,L|247:306,1,68,6|0,1:2|1:0,0:0:0:0:
172,313,22418,2,0,L|104:321,1,68,8|0,1:2|1:0,0:0:0:0:
118,247,22763,1,4,1:1:0:0:
192,239,22936,1,0,1:0:0:0:
266,231,23108,1,8,1:2:0:0:
340,223,23280,1,0,1:0:0:0:
414,215,23453,6,0,L|409:181,3,34,12|0|0|0,1:2|1:0|1:0|1:0,0:0:0:0:
438,157,23798,2,0,L|433:123,3,34,12|0|0|0,1:1|1:0|1:0|1:0,0:0:0:0:
462,99,24142,2,0,L|457:65,3,34,12|0|0|0,1:1|1:0|1:0|1:0,0:0:0:0:
476,32,24487,2,0,L|410:12,1,68,8|0,0:0|0:0,0:0:0:0:
364,73,24832,6,0,L|228:84,1,136,6|8,1:2|0:0,0:0:0:0:
222,84,25349,1,0,0:0:0:0:
216,84,25522,2,0,L|148:89,1,68,2|0,0:0|1:0,0:0:0:0:
74,94,25867,2,0,L|6:99,1,68,8|0,0:0|0:0,0:0:0:0:
52,183,26211,6,0,L|186:208,1,136,2|8,1:2|0:0,0:0:0:0:
192,209,26729,1,0,0:0:0:0:
198,210,26901,2,0,L|265:222,1,68,2|0,0:0|1:0,0:0:0:0:
339,235,27246,2,0,L|406:247,1,68,8|0,0:0|0:0,0:0:0:0:
470,300,27591,6,0,L|431:169,1,136,6|8,1:2|0:0,0:0:0:0:
429,164,28108,1,0,0:0:0:0:
427,158,28280,2,0,L|405:84,1,68,2|0,0:0|1:0,0:0:0:0:
389,28,28625,2,0,L|410:101,1,68,8|0,0:0|0:0,0:0:0:0:
311,56,28970,6,0,L|187:115,1,136,2|8,1:2|0:0,0:0:0:0:
183,118,29487,1,0,0:0:0:0:
178,121,29660,2,0,L|116:151,1,68,2|0,0:0|1:0,0:0:0:0:
48,181,30005,1,8,0:0:0:0:
43,184,30177,1,0,0:0:0:0:
129,224,30349,6,0,L|263:212,1,136,6|8,1:2|0:0,0:0:0:0:
271,212,30866,1,0,0:0:0:0:
277,211,31039,2,0,L|344:205,1,68,2|0,0:0|1:0,0:0:0:0:
419,198,31384,2,0,L|486:192,1,68,8|0,0:0|0:0,0:0:0:0:
345,205,31729,6,0,L|237:120,1,136,2|8,1:2|0:0,0:0:0:0:
233,117,32246,1,0,0:0:0:0:
228,113,32418,2,0,L|173:70,1,68,2|0,0:0|1:0,0:0:0:0:
114,25,32763,1,8,0:0:0:0:
109,21,32935,1,0,0:0:0:0:
54,107,33108,6,0,L|176:163,1,136,2|8,1:2|0:0,0:0:0:0:
183,166,33625,1,0,0:0:0:0:
188,169,33798,2,0,L|249:197,1,68,2|0,0:0|1:0,0:0:0:0:
318,228,34142,2,0,L|415:272,1,102,8|0,0:0|0:0,0:0:0:0:
411,270,34487,6,0,L|394:203,1,68,2|0,1:2|0:0,0:0:0:0:
358,68,34832,2,0,L|374:132,1,68,10|0,0:0|0:0,0:0:0:0:
461,189,35177,2,0,L|395:204,1,68,2|0,0:0|1:0,0:0:0:0:
309,152,35522,2,0,L|374:134,1,68,10|0,0:2|0:0,0:0:0:0:
417,45,35867,6,0,L|285:81,1,136,6|8,1:2|0:0,0:0:0:0:
280,83,36384,1,0,0:0:0:0:
274,85,36556,2,0,L|209:103,1,68,2|0,0:0|1:0,0:0:0:0:
136,123,36901,2,0,L|71:141,1,68,8|0,0:0|0:0,0:0:0:0:
59,25,37246,6,0,L|194:35,1,136,2|8,1:2|0:0,0:0:0:0:
201,36,37763,1,0,0:0:0:0:
207,37,37936,2,0,L|274:42,1,68,2|0,0:0|1:0,0:0:0:0:
349,47,38281,2,0,L|416:52,1,68,8|0,0:0|0:0,0:0:0:0:
275,42,38625,6,0,L|236:173,1,136,6|8,1:2|0:0,0:0:0:0:
234,179,39142,1,0,0:0:0:0:
232,185,39315,2,0,L|212:251,1,68,2|0,0:0|1:0,0:0:0:0:
193,315,39660,2,0,L|212:249,1,68,8|0,0:0|0:0,0:0:0:0:
147,152,40005,6,0,L|281:120,1,136,2|8,1:2|0:0,0:0:0:0:
285,119,40522,1,0,0:0:0:0:
291,118,40695,2,0,L|363:101,1,68,2|0,0:0|1:0,0:0:0:0:
430,84,41039,1,8,0:0:0:0:
436,83,41212,1,0,0:0:0:0:
479,195,41384,6,0,L|343:180,1,136,6|8,1:2|0:0,0:0:0:0:
338,180,41901,1,0,0:0:0:0:
332,179,42073,2,0,L|264:172,1,68,2|0,0:0|1:0,0:0:0:0:
189,164,42418,2,0,L|121:157,1,68,8|0,0:0|0:0,0:0:0:0:
66,61,42763,6,0,L|201:47,1,136,2|8,1:2|0:0,0:0:0:0:
207,46,43280,1,0,0:0:0:0:
213,46,43453,2,0,L|280:39,1,68,2|0,0:0|1:0,0:0:0:0:
355,31,43798,1,8,0:0:0:0:
361,30,43969,1,0,0:0:0:0:
458,107,44142,6,0,L|336:163,1,136,2|8,1:2|0:0,0:0:0:0:
329,166,44659,1,0,0:0:0:0:
324,169,44832,2,0,L|263:197,1,68,2|0,0:0|1:0,0:0:0:0:
194,228,45177,2,0,L|97:272,1,102,8|0,0:0|0:0,0:0:0:0:
101,270,45522,6,0,L|118:203,1,68,2|0,1:2|0:0,0:0:0:0:
154,68,45867,2,0,L|138:132,1,68,10|0,0:0|0:0,0:0:0:0:
51,189,46212,2,0,L|117:204,1,68,2|0,0:0|1:0,0:0:0:0:
203,152,46557,2,0,L|138:134,1,68,10|0,0:2|0:0,0:0:0:0:
51,189,46901,5,6,1:2:0:0:
52,195,47073,1,0,1:0:0:0:
70,268,47246,1,8,1:0:0:0:
88,341,47418,2,0,L|96:374,2,34,0|0|12,1:0|1:0|1:2,0:0:0:0:
52,195,47763,1,0,1:0:0:0:
199,324,48108,6,0,L|166:191,1,136,4|0,1:1|1:0,0:0:0:0:
147,120,48625,1,12,1:1:0:0:
146,114,48798,1,0,1:0:0:0:
129,42,48970,2,0,L|121:9,2,34,12|0|0,1:1|1:0|1:0,0:0:0:0:
166,192,49315,1,12,1:1:0:0:
299,166,49660,5,6,1:2:0:0:
305,165,49832,1,0,1:0:0:0:
378,147,50005,1,8,1:0:0:0:
451,129,50177,2,0,L|484:121,2,34,0|0|12,1:0|1:0|1:2,0:0:0:0:
305,165,50522,1,0,1:0:0:0:
434,18,50867,6,0,L|302:50,1,136,4|0,1:1|1:0,0:0:0:0:
230,70,51384,1,12,1:1:0:0:
224,71,51557,1,0,1:0:0:0:
152,88,51729,2,0,L|119:96,2,34,12|0|0,1:1|1:0|1:0,0:0:0:0:
302,50,52073,2,0,L|392:29,1,68,12|0,1:1|0:0,0:0:0:0:
275,134,52418,5,6,1:2:0:0:
269,135,52590,1,0,1:0:0:0:
196,153,52763,1,8,1:0:0:0:
123,171,52935,2,0,L|90:179,2,34,0|0|12,1:0|1:0|1:2,0:0:0:0:
269,135,53280,1,0,1:0:0:0:
140,282,53625,6,0,L|273:249,1,136,4|0,1:1|1:0,0:0:0:0:
344,230,54142,1,12,1:1:0:0:
350,229,54315,1,0,1:0:0:0:
422,212,54487,2,0,L|455:204,2,34,12|0|0,1:1|1:0|1:0,0:0:0:0:
272,249,54832,1,12,1:1:0:0:
266,251,55005,1,0,1:0:0:0:
174,346,55177,5,4,1:2:0:0:
179,271,55349,1,0,1:0:0:0:
185,196,55522,1,8,1:0:0:0:
191,121,55694,6,0,L|194:87,2,34,0|0|4,1:0|1:0|1:1,0:0:0:0:
110,191,56039,1,0,1:0:0:0:
185,196,56211,1,8,1:0:0:0:
260,202,56384,1,0,1:0:0:0:
317,249,56556,6,0,L|351:252,3,34,12|0|0|0,1:2|1:0|1:0|1:0,0:0:0:0:
369,218,56901,2,0,L|403:221,3,34,12|0|0|0,1:1|1:0|1:0|1:0,0:0:0:0:
421,187,57246,2,0,L|455:190,3,34,12|0|0|0,1:1|1:0|1:0|1:0,0:0:0:0:
488,173,57591,2,0,L|480:105,1,68,8|0,0:0|0:0,0:0:0:0:
408,31,57936,6,0,L|272:43,1,136,6|8,1:2|0:0,0:0:0:0:
266,44,58453,1,0,0:0:0:0:
260,44,58625,2,0,L|124:56,1,136,2|8,0:0|0:0,0:0:0:0:
118,57,59142,1,0,0:0:0:0:
74,152,59315,6,0,L|199:203,1,136,2|8,1:2|0:0,0:0:0:0:
206,205,59832,1,0,0:0:0:0:
212,207,60005,2,0,L|274:232,1,68,2|0,0:0|1:0,0:0:0:0:
344,260,60349,1,8,0:0:0:0:
350,262,60522,1,0,0:0:0:0:
246,301,60694,5,2,1:2:0:0:
244,307,60867,2,0,L|218:369,2,68,0|8|0,0:0|0:0|0:0,0:0:0:0:
275,232,61384,2,0,L|301:170,1,68,2|0,0:0|1:0,0:0:0:0:
328,107,61729,2,0,L|302:169,1,68,8|0,0:0|0:0,0:0:0:0:
254,97,62073,6,0,L|186:88,1,68,2|0,1:2|0:0,0:0:0:0:
119,79,62418,2,0,L|187:88,1,68,10|0,0:0|0:0,0:0:0:0:
328,107,62763,1,2,0:0:0:0:
254,97,62936,1,0,1:0:0:0:
328,107,63108,2,0,L|396:116,1,68,10|0,0:2|0:0,0:0:0:0:
254,97,63453,6,0,L|224:36,2,68,2|0|8,1:2|0:0|0:0,0:0:0:0:
287,163,63970,1,0,0:0:0:0:
290,168,64142,2,0,L|320:228,1,68,2|0,0:0|1:0,0:0:0:0:
354,296,64487,1,8,0:0:0:0:
357,302,64659,1,0,0:0:0:0:
469,286,64832,6,0,L|477:150,1,136,2|8,1:2|0:0,0:0:0:0:
477,144,65349,1,0,0:0:0:0:
478,138,65522,2,0,L|482:71,1,68,2|0,0:0|1:0,0:0:0:0:
486,2,65867,2,0,L|482:69,1,68,8|0,0:0|0:0,0:0:0:0:
346,120,66211,6,0,L|298:72,2,68,2|0|8,1:2|0:0|0:0,0:0:0:0:
400,172,66728,1,0,0:0:0:0:
404,177,66900,2,0,L|453:225,1,68,2|0,0:0|1:0,0:0:0:0:
507,277,67246,1,8,0:0:0:0:
511,282,67418,1,0,0:0:0:0:
407,349,67591,6,0,L|340:350,1,68,2|0,1:2|0:0,0:0:0:0:
271,351,67936,2,0,L|338:350,1,68,10|0,0:0|0:0,0:0:0:0:
201,351,68280,2,0,L|134:352,1,68,2|0,0:0|1:0,0:0:0:0:
271,351,68625,2,0,L|270:284,1,68,10|0,0:2|0:0,0:0:0:0:
345,226,68970,6,0,L|247:132,1,136,6|8,1:2|0:0,0:0:0:0:
242,128,69487,1,0,0:0:0:0:
238,123,69660,2,0,L|186:74,1,68,2|0,0:0|1:0,0:0:0:0:
133,26,70005,1,8,0:0:0:0:
128,22,70177,1,0,0:0:0:0:
24,64,70349,6,0,L|39:199,1,136,2|8,1:2|0:0,0:0:0:0:
40,205,70867,1,0,0:0:0:0:
41,211,71039,2,0,L|49:279,1,68,2|0,0:0|1:0,0:0:0:0:
57,353,71384,1,8,0:0:0:0:
58,360,71556,1,0,0:0:0:0:
124,272,71729,6,0,L|258:295,1,136,2|8,1:2|0:0,0:0:0:0:
264,296,72246,1,0,0:0:0:0:
270,297,72418,2,0,L|338:309,1,68,2|0,0:0|1:0,0:0:0:0:
404,321,72763,2,0,L|336:309,1,68,8|0,0:0|0:0,0:0:0:0:
264,224,73108,6,0,L|256:156,1,68,2|0,1:2|0:0,0:0:0:0:
249,89,73453,2,0,L|256:156,1,68,10|0,0:0|0:0,0:0:0:0:
272,298,73798,1,2,0:0:0:0:
264,224,73970,1,0,1:0:0:0:
272,298,74142,2,0,L|279:365,1,68,10|0,0:2|0:0,0:0:0:0:
264,224,74487,6,0,L|332:220,2,68,2|0|8,1:2|0:0|0:0,0:0:0:0:
189,227,75005,1,0,0:0:0:0:
183,228,75176,2,0,L|115:231,1,68,2|0,0:0|1:0,0:0:0:0:
40,234,75522,1,8,0:0:0:0:
34,234,75694,1,0,0:0:0:0:
111,156,75867,6,0,L|240:114,1,136,2|8,1:2|0:0,0:0:0:0:
246,112,76384,1,0,0:0:0:0:
252,110,76557,2,0,L|319:88,1,68,2|0,0:0|1:0,0:0:0:0:
381,67,76902,2,0,L|312:90,1,68,8|0,0:0|0:0,0:0:0:0:
273,184,77246,5,2,1:2:0:0:
278,188,77418,2,0,L|335:224,2,68,0|8|0,0:0|0:0|0:0,0:0:0:0:
215,147,77936,2,0,L|157:110,1,68,2|0,0:0|1:0,0:0:0:0:
94,71,78280,1,8,0:0:0:0:
89,68,78453,1,0,0:0:0:0:
121,178,78625,5,8,1:2:0:0:
121,253,78798,2,0,L|121:321,1,68,0|0,1:0|1:0,0:0:0:0:
196,178,79142,1,8,1:2:0:0:
196,253,79315,2,0,L|196:321,1,68,0|0,1:0|1:0,0:0:0:0:
271,246,79660,2,0,L|271:178,1,68,8|0,1:0|1:0,0:0:0:0:
271,321,80005,5,6,1:2:0:0:
79,244,80349,1,8,0:0:0:0:
86,243,80522,1,0,0:0:0:0:
93,243,80694,2,0,L|159:234,1,68,0|0,0:0|1:0,0:0:0:0:
167,233,81039,2,0,L|233:224,1,68,8|0,0:0|0:0,0:0:0:0:
320,324,81384,6,0,L|311:258,1,68,0|0,1:0|0:0,0:0:0:0:
310,250,81729,2,0,L|301:184,1,68,8|0,0:0|0:0,0:0:0:0:
300,176,82073,2,0,L|290:109,1,68,0|0,0:0|1:0,0:0:0:0:
290,102,82418,2,0,L|281:35,1,68,8|0,0:0|0:0,0:0:0:0:
207,111,82763,5,0,1:0:0:0:
433,140,83107,1,8,0:0:0:0:
426,140,83280,1,0,0:0:0:0:
419,141,83452,2,0,L|353:150,1,68,0|0,0:0|1:0,0:0:0:0:
345,151,83797,2,0,L|279:160,1,68,8|0,0:0|0:0,0:0:0:0:
192,60,84142,6,0,L|201:126,1,68,0|0,1:0|0:0,0:0:0:0:
202,134,84487,2,0,L|211:200,1,68,8|0,0:0|0:0,0:0:0:0:
212,208,84832,2,0,L|222:275,1,68,0|0,0:0|1:0,0:0:0:0:
223,282,85176,2,0,L|232:349,1,68,8|0,0:0|0:0,0:0:0:0:
310,265,85522,5,6,1:2:0:0:
433,139,85867,1,8,0:0:0:0:
426,140,86040,1,0,0:0:0:0:
419,141,86212,2,0,L|353:150,1,68,0|0,0:0|1:0,0:0:0:0:
345,151,86557,2,0,L|279:160,1,68,8|0,0:0|0:0,0:0:0:0:
154,102,86902,6,0,L|220:93,1,68,0|0,1:0|0:0,0:0:0:0:
228,92,87246,2,0,L|294:83,1,68,8|0,0:0|0:0,0:0:0:0:
302,82,87591,2,0,L|369:72,1,68,0|0,0:0|1:0,0:0:0:0:
376,71,87936,2,0,L|443:62,1,68,8|0,0:0|0:0,0:0:0:0:
418,162,88280,5,6,1:2:0:0:
372,304,88625,1,8,0:0:0:0:
303,275,88798,1,0,1:0:0:0:
234,246,88970,2,0,L|179:222,2,34,0|0|0,1:0|1:0|1:0,0:0:0:0:
372,304,89315,1,8,0:0:0:0:
134,203,89659,5,0,1:0:0:0:
203,233,89832,2,0,L|240:248,2,34,0|0|8,1:0|1:0|0:0,0:0:0:0:
65,174,90177,1,0,1:0:0:0:
71,176,90349,1,8,0:0:0:0:
203,233,90522,1,4,1:1:0:0:
271,262,90694,2,0,L|333:288,1,68
255,375,91039,5,6,1:2:0:0:
117,316,91384,2,0,L|110:248,1,68,2|0,0:0|1:0,0:0:0:0:
109,234,91729,1,10,0:0:0:0:
108,220,91901,1,2,0:0:0:0:
106,206,92073,1,2,0:0:0:0:
105,192,92246,1,2,1:2:0:0:
147,134,92418,6,0,L|29:138,2,102,0|0|0,1:0|1:0|1:0,0:0:0:0:
154,134,93108,2,0,L|297:130,1,136,8|0,0:0|3:0,0:0:0:0:
364,128,93625,1,0,0:0:0:0:
444,203,93798,5,0,1:0:0:0:
324,327,94142,2,0,L|331:260,1,68,0|0,0:0|1:0,0:0:0:0:
333,246,94487,2,0,L|340:179,1,68,8|0,0:0|0:0,0:0:0:0:
341,165,94832,2,0,L|348:98,1,68
301,45,95177,6,0,L|419:49,2,102,0|0|0,1:0|1:0|1:0,0:0:0:0:
294,45,95867,2,0,L|151:41,1,136,8|0,0:0|3:0,0:0:0:0:
84,39,96384,1,0,0:0:0:0:
26,141,96556,5,6,1:2:0:0:
158,210,96901,2,0,L|165:278,1,68,2|0,0:0|1:0,0:0:0:0:
166,292,97246,1,10,0:0:0:0:
167,306,97418,1,2,1:2:0:0:
169,320,97590,1,2,0:0:0:0:
170,334,97763,1,2,1:2:0:0:
228,376,97936,6,0,L|294:362,1,68,0|0,1:0|0:0,0:0:0:0:
257,333,98280,2,0,L|462:288,1,204,8|0,0:0|1:0,0:0:0:0:
419,261,98970,2,0,L|485:247,1,68,8|0,0:0|0:0,0:0:0:0:
418,162,99315,5,6,1:2:0:0:
244,56,99660,1,8,0:0:0:0:
273,125,99833,1,0,1:0:0:0:
302,194,100005,2,0,L|326:249,2,34,0|0|0,1:0|1:0|1:0,0:0:0:0:
244,56,100350,1,8,0:0:0:0:
344,294,100694,5,0,1:0:0:0:
315,225,100867,2,0,L|300:188,2,34,0|0|8,1:0|1:0|0:0,0:0:0:0:
379,380,101212,1,0,1:0:0:0:
376,374,101385,1,8,0:0:0:0:
344,294,101556,6,0,B|498:328|498:328|454:344,1,204,4|6,1:1|1:2,0:0:0:0:
363,248,106211,6,0,L|366:281,3,34,2|0|0|0,1:0|1:0|1:0|1:0,0:0:0:0:
402,292,106556,2,0,L|405:325,3,34,2|0|0|0,1:0|1:0|1:0|1:0,0:0:0:0:
435,347,106901,5,0,1:0:0:0:
286,365,107246,1,0,1:0:0:0:
184,256,107591,5,0,1:0:0:0:
331,223,107936,1,2,3:1:0:0:
158,186,108453,5,0,1:0:0:0:
232,200,108625,1,2,3:1:0:0:
332,131,108971,5,0,1:0:0:0:
185,98,109316,1,2,3:1:0:0:
358,61,109833,5,0,1:0:0:0:
284,75,110005,1,2,3:1:0:0:
159,3,110350,6,0,L|157:70,1,68,2|0,1:1|1:0,0:0:0:0:
155,145,110695,2,0,L|153:212,1,68,2|0,1:1|1:0,0:0:0:0:
150,295,111040,2,0,L|149:328,3,34,2|0|2|0,1:1|1:0|1:1|1:0,0:0:0:0:
186,334,111384,2,0,L|185:367,3,34,2|0|2|0,1:1|1:0|1:1|1:0,0:0:0:0:
222,375,111729,6,0,L|357:359,3,136,0|0|0|0,3:0|3:0|3:0|3:0,0:0:0:0:
488,376,113108,6,0,L|477:240,1,136,0|12,1:2|0:1,0:0:0:0:
476,234,113625,1,0,0:0:0:0:
476,228,113798,2,0,L|471:160,1,68,0|0,0:0|1:0,0:0:0:0:
466,85,114143,2,0,L|461:17,1,68,8|0,0:0|0:0,0:0:0:0:
390,91,114487,6,0,L|254:102,1,136,2|8,1:2|0:0,0:0:0:0:
248,103,115004,1,0,0:0:0:0:
242,103,115177,2,0,L|174:108,1,68,2|0,0:0|1:0,0:0:0:0:
99,113,115522,2,0,L|31:118,1,68,8|0,0:0|0:0,0:0:0:0:
87,219,115867,6,0,L|218:180,1,136,2|8,1:2|0:0,0:0:0:0:
223,178,116384,1,0,0:0:0:0:
229,176,116556,2,0,L|303:154,1,68,2|0,0:0|1:0,0:0:0:0:
359,138,116901,2,0,L|286:159,1,68,8|0,0:0|0:0,0:0:0:0:
261,44,117246,6,0,L|229:178,1,136,2|8,1:2|0:0,0:0:0:0:
228,182,117763,1,0,0:0:0:0:
227,188,117936,2,0,L|210:260,1,68,2|0,0:0|1:0,0:0:0:0:
193,327,118280,1,8,0:0:0:0:
192,333,118453,1,0,0:0:0:0:
285,373,118625,6,0,L|371:267,1,136,6|8,1:2|0:0,0:0:0:0:
375,263,119142,1,0,0:0:0:0:
379,258,119315,2,0,L|425:202,1,68,2|0,0:0|1:0,0:0:0:0:
470,148,119659,2,0,L|514:94,1,68,8|0,0:0|0:0,0:0:0:0:
445,9,120005,6,0,L|310:23,1,136,2|8,1:2|0:0,0:0:0:0:
304,24,120522,1,0,0:0:0:0:
298,24,120695,2,0,L|231:31,1,68,2|0,0:0|1:0,0:0:0:0:
156,39,121040,1,8,0:0:0:0:
150,40,121211,1,0,0:0:0:0:
54,106,121384,6,0,L|176:162,1,136,2|8,1:2|0:0,0:0:0:0:
183,165,121901,1,0,0:0:0:0:
188,168,122074,2,0,L|249:196,1,68,2|0,0:0|1:0,0:0:0:0:
318,227,122419,2,0,L|415:271,1,102,8|0,0:0|0:0,0:0:0:0:
411,270,122763,6,0,L|394:203,1,68,2|0,1:2|0:0,0:0:0:0:
358,68,123108,2,0,L|374:132,1,68,10|0,0:0|0:0,0:0:0:0:
461,189,123453,2,0,L|395:204,1,68,2|0,0:0|1:0,0:0:0:0:
309,152,123798,2,0,L|374:134,1,68,10|0,0:2|0:0,0:0:0:0:
461,189,124142,5,6,1:2:0:0:
460,195,124314,1,0,1:0:0:0:
442,268,124487,1,8,1:0:0:0:
424,341,124659,2,0,L|416:374,2,34,0|0|12,1:0|1:0|1:2,0:0:0:0:
460,195,125004,1,0,1:0:0:0:
313,324,125349,6,0,L|346:191,1,136,4|0,1:1|1:0,0:0:0:0:
365,120,125866,1,12,1:1:0:0:
366,114,126039,1,0,1:0:0:0:
383,42,126211,2,0,L|391:9,2,34,12|0|0,1:1|1:0|1:0,0:0:0:0:
346,192,126556,1,12,1:1:0:0:
213,166,126901,5,6,1:2:0:0:
207,165,127073,1,0,1:0:0:0:
134,147,127246,1,8,1:0:0:0:
61,129,127418,2,0,L|28:121,2,34,0|0|12,1:0|1:0|1:2,0:0:0:0:
207,165,127763,1,0,1:0:0:0:
78,18,128108,6,0,L|210:50,1,136,4|0,1:1|1:0,0:0:0:0:
282,70,128625,1,12,1:1:0:0:
288,71,128798,1,0,1:0:0:0:
360,88,128970,2,0,L|393:96,2,34,12|0|0,1:1|1:0|1:0,0:0:0:0:
210,50,129314,2,0,L|120:29,1,68,12|0,1:1|0:0,0:0:0:0:
237,134,129659,5,6,1:2:0:0:
243,135,129831,1,0,1:0:0:0:
316,153,130004,1,8,1:0:0:0:
389,171,130176,2,0,L|422:179,2,34,0|0|12,1:0|1:0|1:2,0:0:0:0:
243,135,130521,1,0,1:0:0:0:
372,282,130866,6,0,L|239:249,1,136,4|0,1:1|1:0,0:0:0:0:
168,230,131383,1,12,1:1:0:0:
162,229,131556,1,0,1:0:0:0:
90,212,131728,2,0,L|57:204,2,34,12|0|0,1:1|1:0|1:0,0:0:0:0:
240,249,132073,1,12,1:1:0:0:
246,251,132246,1,0,1:0:0:0:
338,346,132418,5,4,1:2:0:0:
333,271,132590,1,0,1:0:0:0:
327,196,132763,1,8,1:0:0:0:
321,121,132935,6,0,L|318:87,2,34,0|0|4,1:0|1:0|1:1,0:0:0:0:
402,191,133280,1,0,1:0:0:0:
327,196,133452,1,8,1:0:0:0:
252,202,133625,1,0,1:0:0:0:
195,249,133797,6,0,L|161:252,3,34,12|0|0|0,1:2|1:0|1:0|1:0,0:0:0:0:
143,218,134142,2,0,L|109:221,3,34,12|0|0|0,1:1|1:0|1:0|1:0,0:0:0:0:
91,187,134487,2,0,L|57:190,3,34,12|0|0|0,1:1|1:0|1:0|1:0,0:0:0:0:
24,173,134832,2,0,L|32:105,1,68,8|0,0:0|0:0,0:0:0:0:
94,28,135177,6,0,L|230:40,1,136,6|8,1:2|0:0,0:0:0:0:
236,40,135694,1,0,0:0:0:0:
243,41,135866,2,0,L|379:53,1,136,2|8,0:0|0:0,0:0:0:0:
385,54,136383,1,0,0:0:0:0:
455,135,136556,6,0,L|319:146,1,136,2|8,1:2|0:0,0:0:0:0:
313,147,137073,1,0,0:0:0:0:
307,148,137246,2,0,L|238:154,1,68,2|0,0:0|1:0,0:0:0:0:
164,160,137590,1,8,0:0:0:0:
158,161,137763,1,0,0:0:0:0:
57,111,137936,5,2,1:2:0:0:
58,117,138108,2,0,L|65:184,1,68,0|8,0:0|0:0,0:0:0:0:
66,191,138453,1,0,0:0:0:0:
67,197,138625,2,0,L|74:264,1,68,2|0,0:0|1:0,0:0:0:0:
81,332,138970,2,0,L|74:261,1,68,8|0,0:0|0:0,0:0:0:0:
142,181,139315,6,0,L|100:126,1,68,2|0,1:2|0:0,0:0:0:0:
60,73,139660,2,0,L|101:127,1,68,10|0,0:0|0:0,0:0:0:0:
188,240,140005,1,2,0:0:0:0:
142,181,140178,1,0,1:0:0:0:
188,240,140350,2,0,L|229:294,1,68,10|0,0:2|0:0,0:0:0:0:
319,317,140694,6,0,L|308:383,2,68,2|0|8,1:2|0:0|0:0,0:0:0:0:
331,242,141211,1,0,0:0:0:0:
332,236,141384,2,0,L|343:169,1,68,2|0,0:0|1:0,0:0:0:0:
356,95,141728,1,8,0:0:0:0:
357,89,141900,1,0,0:0:0:0:
284,27,142073,6,0,L|155:69,1,136,2|8,1:2|0:0,0:0:0:0:
148,71,142590,1,0,0:0:0:0:
142,73,142763,2,0,L|75:95,1,68,2|0,0:0|1:0,0:0:0:0:
13,116,143108,2,0,L|82:93,1,68,8|0,0:0|0:0,0:0:0:0:
111,213,143453,6,0,L|83:275,2,68,2|0|8,1:2|0:0|0:0,0:0:0:0:
142,146,143969,1,0,0:0:0:0:
145,141,144142,2,0,L|174:79,1,68,2|0,0:0|1:0,0:0:0:0:
206,11,144487,1,8,0:0:0:0:
209,5,144659,1,0,0:0:0:0:
288,82,144832,5,8,1:2:0:0:
288,157,145005,2,0,L|288:225,1,68,0|0,1:0|1:0,0:0:0:0:
363,82,145349,1,8,1:2:0:0:
363,157,145522,2,0,L|363:225,1,68,0|0,1:0|1:0,0:0:0:0:
438,150,145867,2,0,L|438:82,1,68,8|0,1:0|1:0,0:0:0:0:
438,225,146211,6,0,L|319:289,1,136,6|8,1:2|0:0,0:0:0:0:
312,293,146729,1,0,0:0:0:0:
306,296,146901,2,0,L|242:331,1,68,2|0,0:0|1:0,0:0:0:0:
181,365,147246,1,8,0:0:0:0:
175,368,147418,1,0,0:0:0:0:
103,305,147591,6,0,L|150:178,1,136,2|8,1:2|0:0,0:0:0:0:
152,171,148109,1,0,0:0:0:0:
155,165,148281,2,0,L|179:100,1,68,2|0,0:0|1:0,0:0:0:0:
205,31,148626,1,8,0:0:0:0:
207,25,148798,1,0,0:0:0:0:
288,134,148970,6,0,L|155:165,1,136,2|8,1:2|0:0,0:0:0:0:
149,167,149487,1,0,0:0:0:0:
143,169,149660,2,0,L|75:185,1,68,2|0,0:0|1:0,0:0:0:0:
11,200,150005,2,0,L|82:183,1,68,8|0,0:0|0:0,0:0:0:0:
175,260,150349,6,0,L|243:268,1,68,2|0,1:2|0:0,0:0:0:0:
310,275,150694,2,0,L|243:268,1,68,10|0,0:0|0:0,0:0:0:0:
101,252,151039,1,2,0:0:0:0:
175,260,151211,1,0,1:0:0:0:
101,252,151383,2,0,L|34:245,1,68,10|0,0:2|0:0,0:0:0:0:
175,260,151729,6,0,L|179:328,2,68,2|0|8,1:2|0:0|0:0,0:0:0:0:
172,185,152247,1,0,0:0:0:0:
172,178,152418,2,0,L|169:110,1,68,2|0,0:0|1:0,0:0:0:0:
165,35,152764,1,8,0:0:0:0:
165,28,152935,1,0,0:0:0:0:
242,119,153108,6,0,L|371:161,1,136,2|8,1:2|0:0,0:0:0:0:
377,163,153625,1,0,0:0:0:0:
383,165,153798,2,0,L|450:187,1,68,2|0,0:0|1:0,0:0:0:0:
512,208,154143,2,0,L|443:185,1,68,8|0,0:0|0:0,0:0:0:0:
433,72,154487,5,2,1:2:0:0:
431,66,154660,2,0,L|418:2,2,68,0|8|0,0:0|0:0|0:0,0:0:0:0:
445,145,155177,2,0,L|458:214,1,68,2|0,0:0|1:0,0:0:0:0:
472,285,155522,1,8,0:0:0:0:
473,291,155694,1,0,0:0:0:0:
378,324,155867,5,8,1:2:0:0:
378,249,156040,2,0,L|378:181,1,68,0|0,1:0|1:0,0:0:0:0:
303,324,156384,1,8,1:2:0:0:
303,249,156557,2,0,L|303:181,1,68,0|0,1:0|1:0,0:0:0:0:
228,256,156902,2,0,L|228:324,1,68,8|0,1:0|1:0,0:0:0:0:
156,372,157246,6,0,L|156:304,1,68,6|0,1:2|1:0,0:0:0:0:
228,256,157591,2,0,L|228:188,1,68,10|0,0:0|0:0,0:0:0:0:
136,188,157936,1,2,1:2:0:0:
136,113,158108,1,2,1:2:0:0:
212,76,158281,2,0,L|212:8,1,68,10|0,0:0|0:0,0:0:0:0:
300,8,158625,6,0,L|300:76,1,68,2|0,1:2|1:0,0:0:0:0:
364,136,158970,2,0,L|364:204,1,68,10|0,0:0|0:0,0:0:0:0:
282,193,159315,1,2,1:2:0:0:
281,267,159487,1,4,0:1:0:0:
356,304,159660,2,0,L|356:372,1,68,4|0,0:2|0:0,0:0:0:0:
256,384,160005,6,0,L|162:284,1,136,6|10,1:2|0:0,0:0:0:0:
158,280,160522,1,0,0:0:0:0:
153,275,160694,2,0,L|60:175,1,136,2|10,0:0|0:0,0:0:0:0:
8,120,161211,1,0,0:0:0:0:
67,33,161384,6,0,L|192:84,1,136,2|10,1:2|0:0,0:0:0:0:
199,87,161901,1,0,0:0:0:0:
205,89,162074,2,0,L|267:114,1,68,2|0,0:0|1:0,0:0:0:0:
337,142,162418,1,10,0:0:0:0:
343,144,162591,1,0,0:0:0:0:
453,81,162763,6,0,L|442:216,1,136,6|10,1:2|0:0,0:0:0:0:
442,223,163280,1,0,0:0:0:0:
441,229,163453,2,0,L|435:302,1,68,2|0,0:0|1:0,0:0:0:0:
430,365,163798,2,0,L|435:297,1,68,10|0,0:0|0:0,0:0:0:0:
297,273,164142,6,0,L|230:288,1,68,6|0,1:2|0:0,0:0:0:0:
164,303,164487,2,0,L|231:288,1,68,10|0,0:0|0:0,0:0:0:0:
370,257,164832,1,4,0:1:0:0:
297,273,165005,1,0,1:0:0:0:
370,257,165177,2,0,L|440:241,1,68,12|0,0:1|0:0,0:0:0:0:
501,317,165522,6,0,L|512:383,2,68,6|0|10,1:2|0:0|0:0,0:0:0:0:
488,243,166039,1,0,0:0:0:0:
487,237,166211,2,0,L|476:169,1,68,2|0,0:0|1:0,0:0:0:0:
465,96,166556,1,10,0:0:0:0:
464,90,166728,1,0,0:0:0:0:
358,149,166901,6,0,L|222:131,1,136,4|10,1:1|0:0,0:0:0:0:
217,131,167418,1,0,0:0:0:0:
211,130,167591,2,0,L|136:120,1,68,2|0,0:0|1:0,0:0:0:0:
76,112,167936,2,0,L|143:121,1,68,10|0,0:0|0:0,0:0:0:0:
254,67,168280,6,0,L|248:0,2,68,6|0|10,1:2|0:0|0:0,0:0:0:0:
259,141,168797,1,0,0:0:0:0:
259,147,168969,2,0,L|264:215,1,68,4|0,0:1|1:0,0:0:0:0:
270,289,169315,1,10,0:0:0:0:
271,295,169487,1,0,0:0:0:0:
207,381,169660,6,0,L|274:382,1,68,6|0,1:2|0:0,0:0:0:0:
343,383,170005,2,0,L|276:382,1,68,10|0,0:0|0:0,0:0:0:0:
413,383,170349,2,0,L|480:384,1,68,4|0,2:1|1:0,0:0:0:0:
343,383,170694,2,0,L|344:316,1,68,12|0,0:1|0:0,0:0:0:0:
447,295,171039,6,0,L|414:163,1,136,6|10,1:2|0:0,0:0:0:0:
413,157,171556,1,0,0:0:0:0:
411,151,171729,2,0,L|390:69,1,68,2|0,0:0|1:0,0:0:0:0:
376,12,172074,1,10,0:0:0:0:
374,6,172246,1,0,0:0:0:0:
274,58,172418,6,0,L|239:188,1,136,4|10,1:1|0:0,0:0:0:0:
237,195,172936,1,0,0:0:0:0:
235,201,173108,2,0,L|215:275,1,68,2|0,0:0|1:0,0:0:0:0:
198,339,173453,1,10,0:0:0:0:
197,345,173625,1,0,0:0:0:0:
81,309,173798,6,0,L|96:173,1,136,6|10,1:2|0:0,0:0:0:0:
97,168,174315,1,0,0:0:0:0:
98,162,174487,2,0,L|106:91,1,68,4|0,0:1|1:0,0:0:0:0:
113,27,174832,2,0,L|105:99,1,68,10|0,0:0|0:0,0:0:0:0:
205,153,175177,6,0,L|273:145,1,68,6|0,1:2|0:0,0:0:0:0:
340,138,175522,2,0,L|273:145,1,68,10|0,0:0|0:0,0:0:0:0:
131,161,175867,1,4,0:1:0:0:
205,153,176039,1,0,1:0:0:0:
131,161,176211,2,0,L|64:168,1,68,12|0,0:1|0:0,0:0:0:0:
82,275,176556,6,0,L|54:337,2,68,6|0|10,1:2|0:0|0:0,0:0:0:0:
112,206,177073,1,0,0:0:0:0:
115,200,177245,2,0,L|142:138,1,68,2|0,0:0|1:0,0:0:0:0:
172,68,177590,1,10,0:0:0:0:
175,63,177762,1,0,0:0:0:0:
275,116,177936,6,0,L|389:191,1,136,4|10,1:1|0:0,0:0:0:0:
394,194,178453,1,0,0:0:0:0:
399,198,178626,2,0,L|454:234,1,68,2|0,0:0|1:0,0:0:0:0:
512,273,178971,2,0,L|449:231,1,68,10|0,0:0|0:0,0:0:0:0:
475,337,179315,5,12,1:2:0:0:
400,337,179487,2,0,L|400:371,2,34,0|0|0,1:0|1:0|1:0,0:0:0:0:
325,337,179832,1,12,1:1:0:0:
250,337,180004,2,0,L|250:303,2,34,0|0|0,1:0|1:0|1:0,0:0:0:0:
175,337,180349,2,0,L|108:337,1,68,12|0,1:2|1:0,0:0:0:0:
33,227,180694,5,12,1:2:0:0:
108,227,180866,2,0,L|108:261,2,34,0|0|0,1:0|1:0|1:0,0:0:0:0:
183,227,181211,1,12,1:1:0:0:
258,227,181383,2,0,L|258:193,2,34,0|0|0,1:0|1:0|1:0,0:0:0:0:
333,227,181728,2,0,L|401:227,1,68,12|0,1:2|1:0,0:0:0:0:
475,117,182073,5,12,1:2:0:0:
400,117,182246,1,0,1:0:0:0:
325,117,182418,1,8,1:0:0:0:
250,117,182591,2,0,L|250:83,2,34,0|0|4,1:0|1:0|1:1,0:0:0:0:
175,117,182936,1,8,1:0:0:0:
250,117,183107,2,0,L|250:184,1,68,4|8,1:1|1:0,0:0:0:0:
250,308,183453,5,6,1:2:0:0:
256,192,183539,12,2,185867,0:0:0:0:
