osu file format v14

[General]
AudioFilename: audio.mp3
AudioLeadIn: 0
PreviewTime: 60150
Countdown: 0
SampleSet: Soft
StackLeniency: 0.7
Mode: 3
LetterboxInBreaks: 0
SpecialStyle: 0
WidescreenStoryboard: 1

[Editor]
DistanceSpacing: 2
BeatDivisor: 4
GridSize: 4
TimelineZoom: 2.1

[Metadata]
Title:Yureru Koi wa Nami no Gotoku
TitleUnicode:揺れる恋は波の如く
Artist:senya
ArtistUnicode:senya
Creator:atian540
Version:6K Easy
Source:艦隊これくしょん~艦これ~
Tags:Kantai Collection KanColle 艦隊これくしょん~艦これ~ 砲雷撃戦、始め! kancolle c85 Kongou Envory Blaze
BeatmapID:1516378
BeatmapSetID:645133

[Difficulty]
HPDrainRate:6.6
CircleSize:6
OverallDifficulty:6.8
ApproachRate:5
SliderMultiplier:1.4
SliderTickRate:1

[Events]
//Background and Video events
0,0,"KONGOU.jpg",0,0
//Break Periods
//Storyboard Layer 0 (Background)
//Storyboard Layer 1 (Fail)
//Storyboard Layer 2 (Pass)
//Storyboard Layer 3 (Foreground)
//Storyboard Sound Samples

[TimingPoints]
1650,375,4,2,1,60,1,0
61650,-100,4,2,1,60,0,1
72150,-100,4,2,1,60,0,0
73650,-100,4,2,1,60,0,1
84150,-100,4,2,1,60,0,0

[HitObjects]
42,192,1650,5,0,0:0:0:0:
469,192,1650,1,0,0:0:0:0:
213,192,2025,1,0,0:0:0:0:
384,192,2400,1,0,0:0:0:0:
128,192,2775,128,0,3150:0:0:0:0:
384,192,3150,128,0,3525:0:0:0:0:
298,192,3525,128,0,3900:0:0:0:0:
42,192,3900,128,0,4275:0:0:0:0:
469,192,4275,128,0,4650:0:0:0:0:
213,192,4650,1,0,0:0:0:0:
128,192,4650,1,0,0:0:0:0:
298,192,5025,128,0,5400:0:0:0:0:
42,192,5400,1,0,0:0:0:0:
128,192,5400,1,0,0:0:0:0:
213,192,5775,128,0,6150:0:0:0:0:
384,192,6150,1,0,0:0:0:0:
128,192,6525,1,0,0:0:0:0:
298,192,6900,128,0,7650:0:0:0:0:
213,192,7275,1,0,0:0:0:0:
128,192,7650,1,0,0:0:0:0:
384,192,7650,1,0,0:0:0:0:
213,192,8025,1,0,0:0:0:0:
384,192,8400,1,0,0:0:0:0:
42,192,8775,1,0,0:0:0:0:
213,192,9150,1,0,0:0:0:0:
469,192,9525,1,0,0:0:0:0:
128,192,9900,1,0,0:0:0:0:
213,192,10275,1,0,0:0:0:0:
298,192,10650,1,0,0:0:0:0:
469,192,10650,1,0,0:0:0:0:
128,192,11025,1,0,0:0:0:0:
298,192,11400,1,0,0:0:0:0:
213,192,11775,1,0,0:0:0:0:
42,192,12150,128,0,13650:0:0:0:0:
384,192,13087,128,0,13650:0:0:0:0:
213,192,13650,1,0,0:0:0:0:
213,192,14025,1,0,0:0:0:0:
469,192,14400,1,0,0:0:0:0:
469,192,14775,1,0,0:0:0:0:
128,192,15150,1,0,0:0:0:0:
384,192,15525,1,0,0:0:0:0:
213,192,15712,1,0,0:0:0:0:
42,192,15900,1,0,0:0:0:0:
213,192,16275,1,0,0:0:0:0:
298,192,16462,1,0,0:0:0:0:
384,192,16650,1,0,0:0:0:0:
469,192,16650,1,0,0:0:0:0:
213,192,17025,1,0,0:0:0:0:
128,192,17212,1,0,0:0:0:0:
298,192,17400,1,0,0:0:0:0:
384,192,17775,1,0,0:0:0:0:
213,192,17962,1,0,0:0:0:0:
469,192,18150,1,0,0:0:0:0:
128,192,18525,1,0,0:0:0:0:
384,192,18712,1,0,0:0:0:0:
42,192,18900,1,0,0:0:0:0:
298,192,19087,1,0,0:0:0:0:
213,192,19275,1,0,0:0:0:0:
384,192,19462,1,0,0:0:0:0:
128,192,19650,1,0,0:0:0:0:
42,192,19650,1,0,0:0:0:0:
298,192,20025,1,0,0:0:0:0:
213,192,20212,1,0,0:0:0:0:
128,192,20400,1,0,0:0:0:0:
384,192,20775,1,0,0:0:0:0:
298,192,20962,1,0,0:0:0:0:
213,192,21150,1,0,0:0:0:0:
469,192,21525,1,0,0:0:0:0:
128,192,21900,128,0,22650:0:0:0:0:
298,192,22650,1,0,0:0:0:0:
469,192,22650,1,0,0:0:0:0:
42,192,22837,1,0,0:0:0:0:
384,192,23025,1,0,0:0:0:0:
128,192,23212,1,0,0:0:0:0:
469,192,23400,1,0,0:0:0:0:
213,192,23587,1,0,0:0:0:0:
384,192,23775,1,0,0:0:0:0:
128,192,23962,1,0,0:0:0:0:
213,192,24150,128,0,25650:0:0:0:0:
384,192,25650,128,0,26775:0:0:0:0:
128,192,25650,1,0,0:0:0:0:
42,192,26025,1,0,0:0:0:0:
298,192,26400,1,0,0:0:0:0:
213,192,26775,1,0,0:0:0:0:
128,192,27150,128,0,28275:0:0:0:0:
469,192,27525,1,0,0:0:0:0:
298,192,27900,1,0,0:0:0:0:
384,192,28275,1,0,0:0:0:0:
213,192,28650,1,0,0:0:0:0:
469,192,28650,1,0,0:0:0:0:
298,192,29025,128,0,31275:0:0:0:0:
213,192,29400,1,0,0:0:0:0:
42,192,29775,1,0,0:0:0:0:
384,192,30150,1,0,0:0:0:0:
469,192,30525,1,0,0:0:0:0:
128,192,30900,1,0,0:0:0:0:
384,192,31275,1,0,0:0:0:0:
213,192,31650,128,0,32775:0:0:0:0:
128,192,31650,1,0,0:0:0:0:
384,192,32025,1,0,0:0:0:0:
128,192,32400,1,0,0:0:0:0:
469,192,32775,1,0,0:0:0:0:
298,192,33150,128,0,33900:0:0:0:0:
42,192,33525,1,0,0:0:0:0:
128,192,33900,128,0,34650:0:0:0:0:
384,192,34275,1,0,0:0:0:0:
469,192,34650,128,0,36150:0:0:0:0:
298,192,34650,1,0,0:0:0:0:
213,192,35025,1,0,0:0:0:0:
42,192,35400,1,0,0:0:0:0:
298,192,35775,1,0,0:0:0:0:
128,192,36150,1,0,0:0:0:0:
384,192,36431,1,0,0:0:0:0:
213,192,36712,1,0,0:0:0:0:
298,192,36900,128,0,37650:0:0:0:0:
469,192,37650,128,0,38775:0:0:0:0:
128,192,37650,1,0,0:0:0:0:
213,192,38025,1,0,0:0:0:0:
42,192,38400,1,0,0:0:0:0:
128,192,38775,1,0,0:0:0:0:
298,192,39150,128,0,39900:0:0:0:0:
469,192,39525,1,0,0:0:0:0:
128,192,39900,1,0,0:0:0:0:
384,192,40275,1,0,0:0:0:0:
298,192,40650,1,0,0:0:0:0:
42,192,40650,1,0,0:0:0:0:
213,192,41025,128,0,42900:0:0:0:0:
384,192,41400,1,0,0:0:0:0:
128,192,41775,1,0,0:0:0:0:
469,192,42150,1,0,0:0:0:0:
298,192,42525,1,0,0:0:0:0:
384,192,42900,1,0,0:0:0:0:
42,192,43275,1,0,0:0:0:0:
298,192,43650,128,0,44775:0:0:0:0:
128,192,43650,1,0,0:0:0:0:
384,192,44025,1,0,0:0:0:0:
42,192,44400,1,0,0:0:0:0:
128,192,44775,1,0,0:0:0:0:
213,192,45150,128,0,45900:0:0:0:0:
384,192,45525,1,0,0:0:0:0:
298,192,45900,128,0,46650:0:0:0:0:
128,192,46275,1,0,0:0:0:0:
42,192,46650,128,0,48150:0:0:0:0:
469,192,46650,1,0,0:0:0:0:
213,192,47025,1,0,0:0:0:0:
384,192,47400,1,0,0:0:0:0:
298,192,47775,1,0,0:0:0:0:
384,192,48150,1,0,0:0:0:0:
128,192,48431,1,0,0:0:0:0:
298,192,48712,1,0,0:0:0:0:
213,192,48900,1,0,0:0:0:0:
298,192,49181,1,0,0:0:0:0:
128,192,49462,1,0,0:0:0:0:
384,192,49650,128,0,50587:0:0:0:0:
42,192,49650,1,0,0:0:0:0:
128,192,50587,1,0,0:0:0:0:
298,192,50775,1,0,0:0:0:0:
213,192,50962,1,0,0:0:0:0:
298,192,51150,128,0,51900:0:0:0:0:
42,192,51525,1,0,0:0:0:0:
213,192,51900,128,0,52650:0:0:0:0:
469,192,52275,1,0,0:0:0:0:
384,192,52650,128,0,53587:0:0:0:0:
298,192,53587,1,0,0:0:0:0:
128,192,53775,1,0,0:0:0:0:
384,192,53962,1,0,0:0:0:0:
213,192,54150,128,0,55087:0:0:0:0:
384,192,55087,1,0,0:0:0:0:
128,192,55275,1,0,0:0:0:0:
298,192,55462,1,0,0:0:0:0:
42,192,55650,128,0,56587:0:0:0:0:
384,192,55650,1,0,0:0:0:0:
213,192,56025,1,0,0:0:0:0:
384,192,56400,1,0,0:0:0:0:
213,192,56587,1,0,0:0:0:0:
469,192,56775,1,0,0:0:0:0:
128,192,56962,1,0,0:0:0:0:
298,192,57150,128,0,57525:0:0:0:0:
384,192,57525,128,0,57900:0:0:0:0:
213,192,57900,128,0,58275:0:0:0:0:
128,192,58275,128,0,58650:0:0:0:0:
469,192,58650,128,0,60150:0:0:0:0:
42,192,59025,1,0,0:0:0:0:
213,192,59400,1,0,0:0:0:0:
128,192,59775,128,0,60150:0:0:0:0:
384,192,60150,1,0,0:0:0:0:
298,192,60525,1,0,0:0:0:0:
128,192,60900,1,0,0:0:0:0:
42,192,61275,1,0,0:0:0:0:
213,192,61650,128,0,62400:0:0:0:0:
384,192,61650,1,0,0:0:0:0:
298,192,62025,1,0,0:0:0:0:
469,192,62400,128,0,63150:0:0:0:0:
128,192,62775,1,0,0:0:0:0:
298,192,63150,128,0,63525:0:0:0:0:
213,192,63525,1,0,0:0:0:0:
384,192,63712,1,0,0:0:0:0:
128,192,63900,128,0,64275:0:0:0:0:
213,192,64275,1,0,0:0:0:0:
298,192,64462,1,0,0:0:0:0:
469,192,64650,128,0,65400:0:0:0:0:
384,192,64650,1,0,0:0:0:0:
213,192,65025,1,0,0:0:0:0:
128,192,65400,128,0,65775:0:0:0:0:
298,192,65775,128,0,66150:0:0:0:0:
42,192,66150,128,0,66900:0:0:0:0:
384,192,66525,1,0,0:0:0:0:
298,192,66900,1,0,0:0:0:0:
213,192,67275,1,0,0:0:0:0:
128,192,67462,1,0,0:0:0:0:
384,192,67650,128,0,68400:0:0:0:0:
298,192,67650,1,0,0:0:0:0:
42,192,68025,1,0,0:0:0:0:
213,192,68400,128,0,68775:0:0:0:0:
128,192,68775,128,0,69150:0:0:0:0:
298,192,69150,128,0,69525:0:0:0:0:
469,192,69525,1,0,0:0:0:0:
128,192,69712,1,0,0:0:0:0:
213,192,69900,128,0,70275:0:0:0:0:
384,192,70275,128,0,70650:0:0:0:0:
128,192,70650,128,0,71400:0:0:0:0:
213,192,70650,1,0,0:0:0:0:
469,192,71025,1,0,0:0:0:0:
298,192,71400,128,0,71775:0:0:0:0:
213,192,71775,128,0,72150:0:0:0:0:
42,192,72150,128,0,73275:0:0:0:0:
384,192,72337,1,0,0:0:0:0:
213,192,72525,1,0,0:0:0:0:
469,192,72900,1,0,0:0:0:0:
298,192,73181,1,0,0:0:0:0:
128,192,73462,1,0,0:0:0:0:
298,192,73650,128,0,74400:0:0:0:0:
384,192,73650,1,0,0:0:0:0:
42,192,74025,1,0,0:0:0:0:
469,192,74400,128,0,75150:0:0:0:0:
213,192,74775,1,0,0:0:0:0:
128,192,75150,128,0,75525:0:0:0:0:
298,192,75525,1,0,0:0:0:0:
213,192,75712,1,0,0:0:0:0:
384,192,75900,128,0,76275:0:0:0:0:
298,192,76275,1,0,0:0:0:0:
213,192,76462,1,0,0:0:0:0:
128,192,76650,128,0,77400:0:0:0:0:
384,192,76650,1,0,0:0:0:0:
298,192,77025,1,0,0:0:0:0:
384,192,77400,128,0,77775:0:0:0:0:
213,192,77775,128,0,78150:0:0:0:0:
42,192,78150,128,0,78900:0:0:0:0:
384,192,78525,1,0,0:0:0:0:
213,192,78900,1,0,0:0:0:0:
128,192,79275,1,0,0:0:0:0:
298,192,79462,1,0,0:0:0:0:
384,192,79650,128,0,80400:0:0:0:0:
213,192,79650,1,0,0:0:0:0:
128,192,80025,1,0,0:0:0:0:
213,192,80400,128,0,80775:0:0:0:0:
469,192,80775,128,0,81150:0:0:0:0:
128,192,81150,128,0,81525:0:0:0:0:
384,192,81525,128,0,81900:0:0:0:0:
42,192,81900,128,0,82275:0:0:0:0:
298,192,82275,128,0,82650:0:0:0:0:
128,192,82650,128,0,83025:0:0:0:0:
469,192,82650,1,0,0:0:0:0:
384,192,83025,128,0,83400:0:0:0:0:
213,192,83400,128,0,83775:0:0:0:0:
469,192,83775,128,0,84150:0:0:0:0:
42,192,84150,128,0,86775:0:0:0:0:
298,192,84150,1,0,0:0:0:0:
