osu file format v14

[General]
AudioFilename: audio.mp3
AudioLeadIn: 0
PreviewTime: 59952
Countdown: 0
SampleSet: Soft
StackLeniency: 0.7
Mode: 0
LetterboxInBreaks: 0
WidescreenStoryboard: 1

[Editor]
DistanceSpacing: 1
BeatDivisor: 4
GridSize: 4
TimelineZoom: 1.7

[Metadata]
Title:Yureru Koi wa Nami no Gotoku (Short Ver.)
TitleUnicode:揺れる恋は波の如く (Short Ver.)
Artist:senya
ArtistUnicode:senya
Creator:Hinae
Version:Normal
Source:艦隊これくしょん -艦これ-
Tags:kantai collection kancolle 砲雷撃戦、始め! 幽閉サテライト Satellite Swaying love is like a wave 宇佐美宏 hiroshi usami 大越香里 kaori ohkoshi hizumi かませ虎 Kamase Tora Mayumi Morinaga 森永真由美 c85 yuuhei catharsis japanese pop j-pop jpop video game
BeatmapID:3310384
BeatmapSetID:1621390

[Difficulty]
HPDrainRate:3
CircleSize:3.5
OverallDifficulty:4.5
ApproachRate:5
SliderMultiplier:1
SliderTickRate:1

[Events]
//Background and Video events
0,0,"kancolle.jpg",0,0
//Break Periods
2,49840,54440
//Storyboard Layer 0 (Background)
//Storyboard Layer 1 (Fail)
//Storyboard Layer 2 (Pass)
//Storyboard Layer 3 (Foreground)
//Storyboard Layer 4 (Overlay)
//Storyboard Sound Samples

[TimingPoints]
1640,375,4,2,1,40,1,0
1640,-133.333333333333,4,2,1,40,0,0
7265,-100,4,2,1,45,0,0
7640,-100,4,2,1,65,0,0
13640,-100,4,2,1,75,0,0
49640,-100,4,2,1,40,0,0
55640,-100,4,2,1,50,0,0
58640,-100,4,2,1,60,0,0
59390,-100,4,2,1,70,0,0
60140,-100,4,2,1,50,0,0
60890,-100,4,2,1,60,0,0
61640,-90.9090909090909,4,2,1,80,0,1
84140,-100,4,2,1,80,0,0
86765,-100,4,2,1,20,0,0

[Colours]
Combo1 : 255,179,179
Combo2 : 128,128,192
Combo3 : 74,74,255
Combo4 : 150,230,255

[HitObjects]
322,139,1640,6,0,B|352:157|397:133|382:111|421:82|457:97,2,150.000005722046,4|2|2,1:1|0:0|0:0,0:0:0:0:
250,73,3515,2,0,L|174:80,1,75.0000028610231,2|2,0:0|0:0,0:0:0:0:
82,48,4265,1,2,0:0:0:0:
30,131,4640,6,0,L|36:217,1,75.0000028610231,4|0,1:1|0:0,0:0:0:0:
123,249,5390,2,0,L|120:159,1,75.0000028610231,4|0,1:1|0:0,0:0:0:0:
197,114,6140,2,0,L|194:64,2,37.5000014305115,0|0|0,1:2|1:2|1:2,0:0:0:0:
274,173,6890,1,2,1:2:0:0:
350,106,7265,2,0,L|412:114,1,50,2|2,1:2|1:2,0:0:0:0:
434,148,7640,6,0,L|429:249,1,100,4|8,1:1|0:0,0:0:0:0:
370,328,8390,1,2,1:2:0:0:
286,272,8765,1,10,0:0:0:0:
205,331,9140,2,0,L|88:324,1,100,2|10,1:2|0:0,0:0:0:0:
66,301,9702,1,2,0:0:0:0:
66,301,9890,2,0,P|50:263|73:208,1,100,2|10,1:2|0:0,0:0:0:0:
124,126,10640,6,0,L|231:137,1,100,4|10,1:1|0:0,0:0:0:0:
253,97,11202,1,2,0:0:0:0:
253,97,11390,2,0,L|358:107,1,100,2|10,1:2|0:0,0:0:0:0:
445,68,12140,2,0,P|466:111|445:167,1,100,4|0,1:1|1:0,0:0:0:0:
420,197,12702,1,2,1:2:0:0:
379,290,13077,1,2,1:2:0:0:
379,290,13265,2,0,L|322:287,1,50,2|2,1:2|1:2,0:0:0:0:
292,252,13640,6,0,L|183:259,1,100,6|8,1:1|0:0,0:0:0:0:
147,348,14390,2,0,L|44:341,1,100,2|10,1:2|0:0,0:0:0:0:
0,253,15140,1,2,1:2:0:0:
61,174,15515,2,0,L|56:115,1,50,10|2,0:0|0:0,0:0:0:0:
56,74,15890,2,0,P|92:52|161:79,1,100,2|10,1:2|0:0,0:0:0:0:
224,126,16640,6,0,L|290:122,1,50,4|0,1:1|0:0,0:0:0:0:
307,86,17015,1,8,0:0:0:0:
399,122,17390,2,0,L|396:183,1,50,2|0,1:2|0:0,0:0:0:0:
361,208,17765,2,0,L|368:268,1,50,8|0,0:0|0:0,0:0:0:0:
337,298,18140,2,0,L|222:295,1,100,2|10,1:2|0:0,0:0:0:0:
166,224,18890,2,0,L|110:228,1,50,2|2,1:3|0:3,0:0:0:0:
73,201,19265,2,0,L|16:208,1,50,10|10,0:3|0:3,0:0:0:0:
4,253,19640,5,4,1:1:0:0:
63,333,20015,2,0,L|133:329,1,50,10|2,0:0|0:0,0:0:0:0:
159,348,20390,1,2,1:2:0:0:
235,283,20765,2,0,L|230:211,1,50,10|2,0:0|0:0,0:0:0:0:
249,186,21140,1,2,1:2:0:0:
164,133,21515,1,10,0:0:0:0:
98,208,21890,2,0,L|-12:195,1,100,2|8,1:2|0:0,0:0:0:0:
5,96,22640,6,0,P|-3:54|36:-4,1,100,4|10,1:1|0:0,0:0:0:0:
75,18,23202,1,2,0:0:0:0:
75,18,23390,2,0,L|137:24,1,50,2|2,1:2|0:0,0:0:0:0:
166,51,23765,2,0,L|224:48,1,50,10|2,0:0|0:0,0:0:0:0:
294,109,24327,2,0,L|357:103,1,50,8|8,0:0|0:0,0:0:0:0:
397,112,24702,1,0,1:0:0:0:
397,112,24890,2,0,L|404:180,1,50,2|2,1:2|1:2,0:0:0:0:
441,192,25265,2,0,L|436:254,1,50,2|2,1:2|1:2,0:0:0:0:
401,276,25640,6,0,L|409:390,2,100,6|8|0,1:1|0:0|1:2,0:0:0:0:
441,192,26765,1,10,0:0:0:0:
358,134,27140,2,0,L|253:144,2,100,2|8|0,1:2|0:0|1:2,0:0:0:0:
430,67,28265,1,10,0:0:0:0:
505,132,28640,5,4,1:1:0:0:
438,206,29015,2,0,L|448:318,1,100,10|0,0:0|1:2,0:0:0:0:
371,372,29765,1,10,0:0:0:0:
294,307,30140,2,0,P|252:289|190:314,1,100,2|10,1:2|0:0,0:0:0:0:
118,359,30890,1,0,1:2:0:0:
45,290,31265,2,0,L|49:224,1,50,8|8,0:0|0:0,0:0:0:0:
88,209,31640,6,0,L|84:97,2,100,4|8|0,1:1|0:0|1:2,0:0:0:0:
45,290,32765,1,10,0:0:0:0:
119,356,33140,2,0,L|239:343,1,100,2|8,1:2|0:2,0:0:0:0:
280,266,33890,2,0,L|383:270,1,100,2|8,1:2|0:2,0:0:0:0:
467,317,34640,6,0,P|490:273|459:216,2,100,4|8|0,1:1|0:2|1:2,0:0:0:0:
389,377,35765,1,8,0:0:0:0:
327,298,36140,6,0,B|292:304|292:304|284:309|284:309|250:315,2,75,10|10|10,0:0|0:0|0:0,0:0:0:0:
360,260,36890,1,4,1:1:0:0:
401,168,37265,1,2,0:0:0:0:
317,112,37640,6,0,L|212:120,2,100,6|8|0,1:1|0:0|1:2,0:0:0:0:
401,168,38765,1,10,0:0:0:0:
321,228,39140,2,0,L|211:239,2,100,2|8|0,1:2|0:0|1:2,0:0:0:0:
393,296,40265,1,10,0:0:0:0:
335,377,40640,5,4,1:1:0:0:
247,328,41015,2,0,L|142:335,1,100,10|0,0:0|1:2,0:0:0:0:
55,375,41765,1,10,0:0:0:0:
8,286,42140,2,0,L|18:164,1,100,2|10,1:2|0:0,0:0:0:0:
78,108,42890,1,2,1:2:0:0:
155,171,43265,2,0,L|220:164,1,50,8|8,0:0|0:0,0:0:0:0:
241,131,43640,6,0,P|283:113|345:135,2,100,4|8|0,1:1|0:0|1:2,0:0:0:0:
155,170,44765,1,10,0:0:0:0:
210,253,45140,2,0,L|319:244,1,100,2|8,1:2|0:2,0:0:0:0:
387,182,45890,2,0,L|501:193,1,100,2|8,1:2|0:2,0:0:0:0:
503,92,46640,6,0,P|522:51|491:-10,2,100,4|8|0,1:1|0:2|1:2,0:0:0:0:
453,178,47765,1,8,0:0:0:0:
359,141,48140,6,0,B|342:101|342:101|367:54,2,75,12|10|10,1:1|0:0|0:0,0:0:0:0:
330,182,48890,2,0,L|209:173,1,100,2|8,1:2|0:0,0:0:0:0:
192,206,49452,1,8,0:0:0:0:
192,206,49640,5,4,1:2:0:0:
68,76,55640,6,0,P|106:65|174:93,1,100,6|8,1:1|0:0,0:0:0:0:
221,163,56390,1,0,1:2:0:0:
148,231,56765,2,0,L|150:291,1,50,10|2,0:0|0:0,0:0:0:0:
174,324,57140,2,0,L|295:317,1,100,6|10,1:1|0:0,0:0:0:0:
334,238,57890,1,2,1:2:0:0:
405,308,58265,2,0,L|467:306,1,50,10|0,0:0|0:0,0:0:0:0:
493,274,58640,6,0,P|514:244|486:175,1,100,6|8,1:1|0:0,0:0:0:0:
406,148,59390,2,0,L|336:155,1,50,6|0,1:1|1:2,0:0:0:0:
318,186,59765,2,0,L|267:184,1,50,8|0,0:0|1:2,0:0:0:0:
231,218,60140,1,4,1:1:0:0:
364,248,61640,6,0,L|434:244,1,55.0000016784668,6|0,1:1|0:0,0:0:0:0:
473,241,62015,1,8,0:0:0:0:
465,129,62390,2,0,L|388:132,1,55.0000016784668,2|0,1:2|0:0,0:0:0:0:
355,136,62765,1,8,0:0:0:0:
277,59,63140,1,2,1:1:0:0:
178,107,63515,2,0,L|185:177,1,55.0000016784668,10|2,0:0|0:0,0:0:0:0:
193,215,63890,1,2,1:2:0:0:
275,287,64265,2,0,L|270:348,1,55.0000016784668,10|2,0:3|0:3,0:0:0:0:
229,378,64640,6,0,L|110:375,1,110.000003356934,6|8,1:1|0:0,0:0:0:0:
21,324,65390,1,2,1:2:0:0:
52,218,65765,1,10,0:0:0:0:
157,250,66140,2,0,L|226:251,1,55.0000016784668,2|0,1:1|0:0,0:0:0:0:
267,249,66515,1,10,0:1:0:0:
340,166,66890,1,2,1:1:0:0:
437,216,67265,2,0,L|496:213,1,55.0000016784668,10|10,0:0|0:0,0:0:0:0:
505,267,67640,6,0,P|485:317|508:374,1,110.000003356934,4|8,1:1|0:0,0:0:0:0:
393,383,68390,1,2,1:2:0:0:
320,300,68765,1,10,0:0:0:0:
214,329,69140,2,0,L|100:320,1,110.000003356934,2|10,1:2|0:3,0:0:0:0:
68,289,69702,1,2,0:3:0:0:
68,289,69890,1,2,1:2:0:0:
18,191,70265,2,0,L|26:122,1,55.0000016784668,10|0,0:0|0:0,0:0:0:0:
66,101,70640,6,0,L|193:110,1,110.000003356934,4|8,1:1|0:0,0:0:0:0:
271,53,71390,1,2,1:2:0:0:
370,100,71765,2,0,P|420:85|479:107,1,110.000003356934,10|0,0:0|0:0,0:0:0:0:
509,151,72327,1,10,0:0:0:0:
509,151,72515,1,10,0:0:0:0:
441,237,72890,6,0,B|454:252|478:256|478:256|489:278|506:283,2,82.5000025177003,10|10|10,1:1|1:1|1:1,0:0:0:0:
396,269,73640,6,0,P|364:276|317:284,1,55.0000016784668,6|0,1:1|0:0,0:0:0:0:
291,301,74015,1,8,0:0:0:0:
192,252,74390,2,0,P|159:250|114:247,1,55.0000016784668,2|0,1:2|0:0,0:0:0:0:
82,243,74765,1,8,0:0:0:0:
8,160,75140,1,2,1:1:0:0:
85,82,75515,2,0,L|151:80,1,55.0000016784668,10|2,0:0|0:0,0:0:0:0:
180,117,75890,1,2,1:2:0:0:
266,48,76265,2,0,L|335:47,1,55.0000016784668,10|2,0:3|0:3,0:0:0:0:
365,79,76640,6,0,P|383:125|357:191,1,110.000003356934,6|8,1:1|0:0,0:0:0:0:
406,283,77390,1,2,1:2:0:0:
327,359,77765,1,10,0:0:0:0:
238,293,78140,2,0,L|164:304,1,55.0000016784668,2|0,1:1|0:1,0:0:0:0:
129,312,78515,1,10,0:1:0:0:
66,221,78890,1,2,1:1:0:0:
134,135,79265,2,0,L|196:137,1,55.0000016784668,10|10,0:0|0:0,0:0:0:0:
244,136,79640,6,0,P|226:100|252:29,1,110.000003356934,4|8,1:1|0:0,0:0:0:0:
349,2,80390,1,2,1:2:0:0:
425,81,80765,1,10,0:0:0:0:
358,168,81140,2,0,L|240:158,1,110.000003356934,2|10,1:2|0:3,0:0:0:0:
197,155,81702,1,2,0:3:0:0:
197,155,81890,1,2,1:2:0:0:
129,241,82265,1,10,0:0:0:0:
195,328,82640,5,4,1:1:0:0:
301,299,83015,2,0,L|379:303,1,55.0000016784668,10|2,0:3|0:3,0:0:0:0:
410,305,83390,1,2,1:2:0:0:
488,228,83765,1,10,0:0:0:0:
443,138,84140,5,6,1:1:0:0:
256,192,84327,12,0,86765,0:0:0:0:
