osu file format v14

[General]
AudioFilename: audio.mp3
AudioLeadIn: 0
PreviewTime: 59952
Countdown: 0
SampleSet: Soft
StackLeniency: 0.4
Mode: 0
LetterboxInBreaks: 0
WidescreenStoryboard: 1

[Editor]
DistanceSpacing: 1.3
BeatDivisor: 4
GridSize: 4
TimelineZoom: 1.7

[Metadata]
Title:Yureru Koi wa Nami no Gotoku (Short Ver.)
TitleUnicode:揺れる恋は波の如く (Short Ver.)
Artist:senya
ArtistUnicode:senya
Creator:Hinae
Version:Hard
Source:艦隊これくしょん -艦これ-
Tags:kantai collection kancolle 砲雷撃戦、始め! 幽閉サテライト Satellite Swaying love is like a wave 宇佐美宏 hiroshi usami 大越香里 kaori ohkoshi hizumi かませ虎 Kamase Tora Mayumi Morinaga 森永真由美 c85 yuuhei catharsis japanese pop j-pop jpop video game
BeatmapID:3310383
BeatmapSetID:1621390

[Difficulty]
HPDrainRate:4
CircleSize:4.2
OverallDifficulty:6.5
ApproachRate:8
SliderMultiplier:1.4
SliderTickRate:1

[Events]
//Background and Video events
0,0,"kancolle.jpg",0,0
//Break Periods
2,49840,54890
//Storyboard Layer 0 (Background)
//Storyboard Layer 1 (Fail)
//Storyboard Layer 2 (Pass)
//Storyboard Layer 3 (Foreground)
//Storyboard Layer 4 (Overlay)
//Storyboard Sound Samples

[TimingPoints]
1640,375,4,2,1,40,1,0
1640,-133.333333333333,4,2,1,40,0,0
7265,-133.333333333333,4,2,1,45,0,0
7640,-117.647058823529,4,2,1,65,0,0
13640,-100,4,2,1,75,0,0
25640,-111.111111111111,4,2,1,60,0,0
49640,-117.647058823529,4,2,1,40,0,0
55640,-117.647058823529,4,2,1,50,0,0
58640,-117.647058823529,4,2,1,60,0,0
59390,-117.647058823529,4,2,1,70,0,0
60140,-117.647058823529,4,2,1,50,0,0
60890,-117.647058823529,4,2,1,60,0,0
61640,-90.9090909090909,4,2,1,80,0,1
84140,-100,4,2,1,80,0,0
86765,-100,4,2,1,20,0,0

[Colours]
Combo1 : 255,179,179
Combo2 : 128,128,192
Combo3 : 74,74,255
Combo4 : 150,230,255

[HitObjects]
44,77,1640,6,0,P|83:48|154:58,1,105.000004005432,4|0,1:1|0:0,0:0:0:0:
244,115,2390,2,0,P|300:103|363:89,1,105.000004005432,2|0,0:0|0:0,0:0:0:0:
457,151,3140,2,0,P|461:189|425:251,1,105.000004005432,2|2,0:0|0:0,0:0:0:0:
390,321,3702,1,2,0:0:0:0:
390,321,3890,2,0,P|352:315|272:303,1,105.000004005432,2|2,0:0|0:0,0:0:0:0:
216,352,4452,1,2,0:0:0:0:
156,291,4640,5,4,1:1:0:0:
352,157,5390,1,4,1:1:0:0:
135,64,6140,2,0,P|140:100|143:128,1,52.5000020027161,0|0,1:2|1:2,0:0:0:0:
64,148,6515,2,0,P|59:112|56:84,1,52.5000020027161,0|0,1:2|1:2,0:0:0:0:
145,198,6890,2,0,L|143:234,3,26.2500010013581,2|2|2|2,1:2|1:2|1:2|1:2,0:0:0:0:
114,254,7265,2,0,L|119:303,3,26.2500010013581,2|2|2|2,1:2|1:2|1:2|1:2,0:0:0:0:
144,320,7640,6,0,P|202:313|289:300,1,119.000002269745,4|8,1:1|0:0,0:0:0:0:
330,352,8202,1,0,0:0:0:0:
383,287,8390,2,0,P|396:253|389:214,1,59.5000011348725,2|0,1:2|0:0,0:0:0:0:
325,184,8765,2,0,P|310:159|314:113,1,59.5000011348725,10|0,0:0|0:0,0:0:0:0:
357,61,9140,2,0,P|404:66|492:74,1,119.000002269745,2|10,1:2|0:0,0:0:0:0:
501,156,9702,1,2,0:0:0:0:
501,156,9890,2,0,P|496:193|490:233,1,59.5000011348725,2|0,1:2|0:0,0:0:0:0:
423,261,10265,2,0,P|426:296|430:337,1,59.5000011348725,10|0,0:0|0:0,0:0:0:0:
361,370,10640,6,0,B|328:346|284:354|284:354|270:376|233:388,1,119.000002269745,4|10,1:1|0:0,0:0:0:0:
212,307,11202,1,2,0:0:0:0:
267,245,11390,2,0,P|271:215|276:171,1,59.5000011348725,2|0,1:2|0:0,0:0:0:0:
215,127,11765,2,0,P|180:138|139:150,1,59.5000011348725,10|0,0:0|0:0,0:0:0:0:
97,203,12140,5,4,1:1:0:0:
97,203,12327,1,0,1:0:0:0:
127,280,12515,1,0,1:0:0:0:
27,258,12702,2,0,P|12:214|36:136,1,119.000002269745,2|2,1:2|1:2,0:0:0:0:
47,118,13171,1,2,1:2:0:0:
63,110,13265,2,0,L|110:115,3,29.7500005674362,2|2|2|2,1:2|1:2|1:2|1:2,0:0:0:0:
124,90,13640,6,0,P|162:100|199:82,1,70,6|0,1:1|0:0,0:0:0:0:
247,28,14015,2,0,P|286:25|326:52,1,70,8|0,0:0|0:0,0:0:0:0:
384,82,14390,2,0,P|378:141|367:229,1,140,2|10,1:2|0:0,0:0:0:0:
398,299,14952,1,0,0:0:0:0:
318,327,15140,6,0,B|244:310|244:370|157:351,1,140,2|10,1:2|0:0,0:0:0:0:
133,288,15702,1,2,0:0:0:0:
174,214,15890,2,0,P|188:179|179:133,1,70,2|0,1:2|0:0,0:0:0:0:
132,82,16265,1,10,0:0:0:0:
199,12,16452,1,2,0:3:0:0:
203,25,16546,1,2,0:3:0:0:
207,38,16640,6,0,P|250:31|296:24,1,70,4|0,1:1|0:0,0:0:0:0:
352,73,17015,1,8,0:0:0:0:
352,73,17202,1,0,0:0:0:0:
295,135,17390,2,0,P|302:182|308:223,1,70,2|0,1:2|0:0,0:0:0:0:
372,262,17765,1,8,0:0:0:0:
372,262,17952,1,0,0:0:0:0:
332,336,18140,6,0,P|295:333|242:329,1,70,2|2,1:2|0:0,0:0:0:0:
197,276,18515,1,10,0:0:0:0:
129,325,18702,1,2,0:0:0:0:
70,263,18890,2,0,P|77:228|79:179,1,70,2|2,1:3|0:3,0:0:0:0:
130,127,19265,1,10,0:3:0:0:
200,172,19452,1,10,0:3:0:0:
215,173,19546,1,10,0:3:0:0:
229,175,19640,6,0,P|261:180|314:188,1,70,4|0,1:1|0:0,0:0:0:0:
358,117,20015,1,10,0:0:0:0:
285,62,20202,1,2,0:0:0:0:
203,103,20390,2,0,P|195:149|212:194,1,70,2|2,1:2|0:0,0:0:0:0:
122,220,20765,1,10,0:0:0:0:
166,304,20952,1,2,0:0:0:0:
166,304,21140,6,0,P|204:309|239:315,1,70,2|0,1:2|0:0,0:0:0:0:
301,377,21515,2,0,P|338:373|401:364,1,70,10|0,0:0|0:0,0:0:0:0:
373,277,21890,2,0,P|421:281|521:290,1,140,2|8,1:2|0:0,0:0:0:0:
509,124,22640,6,0,P|475:114|432:145,1,70,4|2,1:1|0:0,0:0:0:0:
379,180,23015,1,10,0:0:0:0:
379,180,23202,1,2,0:0:0:0:
311,119,23390,2,0,P|315:76|319:32,1,70,2|2,1:2|0:0,0:0:0:0:
248,0,23765,1,10,0:0:0:0:
192,62,23952,1,2,0:0:0:0:
192,62,24327,5,8,0:0:0:0:
114,29,24515,1,8,0:0:0:0:
56,89,24702,1,0,1:0:0:0:
102,159,24890,2,0,L|95:213,3,35,2|2|2|2,1:2|1:2|1:2|1:2,0:0:0:0:
70,225,25265,2,0,L|75:276,3,35,2|2|2|2,1:2|1:2|1:2|1:2,0:0:0:0:
99,295,25640,6,0,P|156:287|239:275,2,125.999996154785,6|8|0,1:1|0:0|1:2,0:0:0:0:
33,243,26577,1,0,0:0:0:0:
33,243,26765,2,0,P|19:215|45:166,1,62.9999980773926,10|0,0:0|0:0,0:0:0:0:
77,113,27140,2,0,P|129:119|223:132,1,125.999996154785,2|8,1:2|0:0,0:0:0:0:
252,207,27702,1,0,0:0:0:0:
252,207,27890,2,0,P|295:204|333:200,1,62.9999980773926,0|0,1:2|0:0,0:0:0:0:
362,127,28265,1,10,0:0:0:0:
493,244,28640,6,0,P|494:277|469:318,1,62.9999980773926,4|0,1:1|0:0,0:0:0:0:
412,358,29015,2,0,P|381:337|281:344,1,125.999996154785,10|0,0:0|1:2,0:0:0:0:
217,378,29577,1,0,0:0:0:0:
217,378,29765,2,0,P|178:374|139:370,1,62.9999980773926,10|0,0:0|0:0,0:0:0:0:
113,293,30140,5,2,1:2:0:0:
124,279,30233,2,0,P|135:246|123:204,1,62.9999980773926,2|2,0:0|0:0,0:0:0:0:
104,190,30515,2,0,P|78:153|95:76,1,125.999996154785,10|0,0:0|1:2,0:0:0:0:
171,37,31077,2,0,L|165:-11,2,31.4999990386963,2|2|8,0:0|0:0|0:0,0:0:0:0:
236,96,31452,1,8,0:0:0:0:
235,116,31546,1,8,0:0:0:0:
245,130,31640,6,0,P|291:125|381:114,2,125.999996154785,4|8|0,1:1|0:0|1:2,0:0:0:0:
187,197,32577,1,0,0:0:0:0:
187,197,32765,2,0,P|177:237|192:269,1,62.9999980773926,10|0,0:0|0:0,0:0:0:0:
120,318,33140,2,0,P|93:304|-11:321,1,125.999996154785,2|8,1:2|0:2,0:0:0:0:
3,228,33702,1,0,0:0:0:0:
3,228,33890,2,0,P|9:186|20:86,1,125.999996154785,2|8,1:2|0:2,0:0:0:0:
33,15,34452,1,0,0:0:0:0:
107,64,34640,6,0,P|150:41|230:58,1,125.999996154785,4|8,1:1|0:2,0:0:0:0:
167,121,35202,1,0,0:0:0:0:
117,187,35390,1,0,1:2:0:0:
177,250,35577,2,0,L|175:289,2,31.4999990386963,2|2|8,0:0|0:0|0:0,0:0:0:0:
234,182,35952,1,2,0:0:0:0:
309,227,36140,6,0,P|349:220|422:206,2,94.499997116089,10|10|10,0:0|0:0|0:0,0:0:0:0:
276,309,36890,2,0,P|243:306|196:302,1,62.9999980773926,4|0,1:1|0:0,0:0:0:0:
141,251,37265,2,0,L|93:256,3,31.4999990386963,2|2|2|2,0:0|0:0|0:0|0:0,0:0:0:0:
90,293,37640,6,0,P|48:288|-1:224,2,125.999996154785,6|8|0,1:1|0:0|1:2,0:0:0:0:
169,251,38577,1,0,0:0:0:0:
169,251,38765,2,0,P|165:220|159:175,1,62.9999980773926,10|0,0:0|0:0,0:0:0:0:
86,140,39140,2,0,P|95:86|108:-5,1,125.999996154785,2|8,1:2|0:0,0:0:0:0:
195,6,39702,1,0,0:0:0:0:
195,6,39890,2,0,P|237:5|262:28,1,62.9999980773926,0|0,1:2|0:0,0:0:0:0:
318,75,40265,1,10,0:0:0:0:
486,22,40640,6,0,P|482:56|474:103,1,62.9999980773926,4|0,1:1|0:0,0:0:0:0:
409,141,41015,2,0,P|414:188|421:285,1,125.999996154785,10|0,0:0|1:2,0:0:0:0:
491,325,41577,1,0,0:0:0:0:
491,325,41765,2,0,P|487:364|462:396,1,62.9999980773926,10|0,0:0|0:0,0:0:0:0:
411,321,42140,5,2,1:2:0:0:
403,337,42233,2,0,P|363:337|310:335,1,62.9999980773926,2|2,0:0|0:0,0:0:0:0:
318,302,42515,2,0,P|280:306|183:318,1,125.999996154785,10|2,0:0|1:2,0:0:0:0:
126,375,43077,1,2,0:0:0:0:
64,311,43265,1,10,0:0:0:0:
126,249,43452,1,8,0:0:0:0:
135,233,43546,1,8,0:0:0:0:
132,215,43640,6,0,P|139:156|148:66,2,125.999996154785,4|8|0,1:1|0:0|1:2,0:0:0:0:
188,289,44577,1,0,0:0:0:0:
188,289,44765,2,0,P|229:285|279:278,1,62.9999980773926,10|0,0:0|0:0,0:0:0:0:
300,209,45140,2,0,P|349:214|451:220,1,125.999996154785,2|8,1:2|0:2,0:0:0:0:
491,285,45702,1,0,0:0:0:0:
491,285,45890,2,0,P|511:232|498:161,1,125.999996154785,2|8,1:2|0:2,0:0:0:0:
439,100,46452,1,0,0:0:0:0:
368,152,46640,6,0,P|320:147|233:136,1,125.999996154785,4|8,1:1|0:2,0:0:0:0:
182,73,47202,1,0,0:0:0:0:
123,139,47390,1,0,1:2:0:0:
167,214,47577,2,0,L|208:209,2,31.4999990386963,2|2|8,0:0|0:0|0:0,0:0:0:0:
116,286,47952,1,2,0:0:0:0:
181,345,48140,6,0,P|231:340|296:331,2,94.499997116089,12|8|10,1:1|0:0|0:0,0:0:0:0:
116,286,48890,2,0,P|98:246|118:181,1,94.499997116089,2|0,1:2|1:0,0:0:0:0:
130,160,49265,1,8,0:0:0:0:
191,103,49452,1,8,0:0:0:0:
267,137,49640,5,4,1:2:0:0:
437,22,55640,6,0,P|406:26|363:31,1,59.5000011348725,6|0,1:1|0:0,0:0:0:0:
323,92,56015,2,0,P|271:85|178:75,1,119.000002269745,8|0,0:0|1:2,0:0:0:0:
138,128,56577,1,2,0:0:0:0:
138,128,56765,2,0,P|140:167|156:193,1,59.5000011348725,10|2,0:0|0:0,0:0:0:0:
203,248,57140,6,0,P|241:255|277:244,1,59.5000011348725,6|0,1:1|0:0,0:0:0:0:
312,185,57515,2,0,P|353:190|448:200,1,119.000002269745,10|2,0:0|1:2,0:0:0:0:
490,264,58077,1,0,0:0:0:0:
490,264,58265,2,0,P|494:303|470:335,1,59.5000011348725,10|0,0:0|0:0,0:0:0:0:
414,374,58640,6,0,P|379:371|334:366,1,59.5000011348725,6|0,1:1|1:2,0:0:0:0:
287,309,59015,2,0,P|296:268|306:224,1,59.5000011348725,8|0,0:0|1:2,0:0:0:0:
242,182,59390,2,0,P|203:188|169:195,1,59.5000011348725,6|0,1:1|1:2,0:0:0:0:
111,149,59765,1,8,0:0:0:0:
50,205,59952,1,0,1:2:0:0:
85,280,60140,5,4,1:1:0:0:
85,280,60890,6,0,L|127:275,3,29.7500005674362,2|2|2|2,0:0|0:0|0:0|0:0,0:0:0:0:
147,250,61265,2,0,L|189:251,3,29.7500005674362,2|2|2|2,0:0|0:0|0:0|0:0,0:0:0:0:
214,277,61640,6,0,P|216:312|188:368,1,77.0000023498536,6|0,1:1|0:0,0:0:0:0:
290,382,62015,2,0,P|351:375|469:363,1,154.000004699707,8|2,0:0|1:2,0:0:0:0:
494,289,62577,1,2,0:3:0:0:
483,277,62671,1,2,0:3:0:0:
477,260,62765,2,0,P|483:216|490:166,1,77.0000023498536,8|0,0:0|0:0,0:0:0:0:
460,95,63140,6,0,P|424:72|331:129,1,154.000004699707,2|10,1:1|0:0,0:0:0:0:
272,185,63702,1,2,0:0:0:0:
201,124,63890,2,0,P|207:79|213:30,1,77.0000023498536,2|0,1:2|0:0,0:0:0:0:
127,0,64265,1,10,0:3:0:0:
48,48,64452,1,2,0:3:0:0:
93,128,64640,6,0,P|99:178|114:293,1,154.000004699707,6|8,1:1|0:0,0:0:0:0:
94,371,65202,1,0,0:0:0:0:
179,335,65390,2,0,P|221:326|259:365,1,77.0000023498536,2|2,1:2|0:3,0:0:0:0:
258,354,65671,1,2,0:3:0:0:
271,369,65765,2,0,P|309:387|356:372,1,77.0000023498536,10|0,0:0|0:0,0:0:0:0:
396,284,66140,6,0,B|377:254|377:254|389:238|395:214,1,77.0000023498536,2|0,1:1|0:0,0:0:0:0:
344,138,66515,2,0,B|314:159|314:159|295:146|260:141,1,77.0000023498536,10|0,0:1|0:0,0:0:0:0:
209,208,66890,2,0,B|237:234|237:234|226:252|224:286,1,77.0000023498536,2|2,1:1|0:0,0:0:0:0:
170,345,67265,1,10,0:0:0:0:
103,280,67452,1,10,0:0:0:0:
94,266,67546,1,10,0:0:0:0:
99,249,67640,6,0,P|95:197|86:83,1,154.000004699707,4|8,1:1|0:0,0:0:0:0:
145,23,68202,1,0,0:0:0:0:
208,90,68390,2,0,P|268:106|355:43,1,154.000004699707,2|10,1:2|0:0,0:0:0:0:
417,5,68952,1,0,0:0:0:0:
491,60,69140,6,0,P|485:100|475:155,1,77.0000023498536,2|0,1:2|0:0,0:0:0:0:
512,223,69515,1,10,0:3:0:0:
435,274,69702,1,2,0:3:0:0:
361,217,69890,2,0,P|318:223|262:232,1,77.0000023498536,2|0,1:2|0:0,0:0:0:0:
233,305,70265,2,0,P|180:299|137:293,1,77.0000023498536,10|0,0:0|0:0,0:0:0:0:
71,331,70640,6,0,P|58:288|130:207,1,154.000004699707,4|8,1:1|0:0,0:0:0:0:
197,160,71202,1,2,0:0:0:0:
189,146,71296,1,2,0:0:0:0:
181,132,71390,2,0,P|186:84|193:21,1,77.0000023498536,2|2,1:2|0:0,0:0:0:0:
105,14,71765,2,0,L|51:27,2,38.5000011749268,10|0|2,0:0|0:0|0:0,0:0:0:0:
105,14,72327,5,10,0:0:0:0:
189,55,72515,1,10,0:0:0:0:
189,55,72890,6,0,P|184:103|172:187,2,115.50000352478,10|10|10,1:1|1:1|1:1,0:0:0:0:
261,0,73640,6,0,P|301:-6|337:19,1,77.0000023498536,6|0,1:1|0:0,0:0:0:0:
348,102,74015,2,0,P|410:112|499:64,1,154.000004699707,8|2,0:0|1:2,0:0:0:0:
500,165,74577,1,2,0:3:0:0:
489,176,74671,1,2,0:3:0:0:
479,187,74765,2,0,P|485:227|493:277,1,77.0000023498536,8|0,0:0|0:0,0:0:0:0:
415,317,75140,6,0,B|331:337|354:362|265:385,1,154.000004699707,2|10,1:1|0:0,0:0:0:0:
207,319,75702,1,2,0:0:0:0:
137,380,75890,2,0,P|96:387|54:339,1,77.0000023498536,2|0,1:2|0:0,0:0:0:0:
7,298,76265,1,10,0:3:0:0:
64,226,76452,1,2,0:3:0:0:
5,153,76640,6,0,P|16:65|77:34,1,154.000004699707,6|8,1:1|0:0,0:0:0:0:
120,110,77202,1,0,0:0:0:0:
190,50,77390,2,0,P|230:52|292:55,1,77.0000023498536,2|2,1:2|0:3,0:0:0:0:
278,46,77671,1,2,0:3:0:0:
290,36,77765,2,0,P|336:39|386:45,1,77.0000023498536,10|0,0:0|0:0,0:0:0:0:
443,117,78140,6,0,B|445:134|437:153|437:153|441:169|441:169|435:180|433:199,1,77.0000023498536,2|0,1:1|0:0,0:0:0:0:
371,256,78515,2,0,B|356:246|347:228|347:228|332:221|332:221|327:209|314:195,1,77.0000023498536,10|0,0:1|0:0,0:0:0:0:
255,119,78890,2,0,B|269:109|289:108|289:108|302:97|302:97|314:97|332:90,1,77.0000023498536,2|2,1:1|0:0,0:0:0:0:
408,50,79265,1,10,0:0:0:0:
474,113,79452,1,10,0:0:0:0:
467,126,79546,1,10,0:0:0:0:
475,139,79640,6,0,P|467:196|446:308,1,154.000004699707,4|8,1:1|0:0,0:0:0:0:
393,362,80202,1,0,0:0:0:0:
331,292,80390,2,0,B|245:311|272:333|179:351,1,154.000004699707,2|10,1:2|0:0,0:0:0:0:
115,292,80952,1,0,0:0:0:0:
172,219,81140,6,0,P|187:186|170:128,1,77.0000023498536,2|0,1:2|0:0,0:0:0:0:
104,95,81515,1,10,0:3:0:0:
173,34,81702,1,2,0:3:0:0:
248,87,81890,2,0,P|295:88|349:90,1,77.0000023498536,2|0,1:2|0:0,0:0:0:0:
382,16,82265,2,0,P|432:12|487:9,1,77.0000023498536,10|0,0:0|0:0,0:0:0:0:
501,92,82640,6,0,P|497:134|492:188,1,77.0000023498536,4|0,1:1|0:0,0:0:0:0:
512,259,83015,1,10,0:3:0:0:
446,324,83202,1,2,0:3:0:0:
375,263,83390,2,0,P|345:260|284:295,1,77.0000023498536,2|0,1:2|0:0,0:0:0:0:
230,335,83765,2,0,P|202:343|150:312,1,77.0000023498536,10|0,0:0|0:0,0:0:0:0:
103,244,84140,5,6,1:1:0:0:
256,192,84233,12,0,86765,0:0:0:0:
