osu file format v14

[General]
AudioFilename: audio.mp3
AudioLeadIn: 0
PreviewTime: 59952
Countdown: 0
SampleSet: Soft
StackLeniency: 0.7
Mode: 0
LetterboxInBreaks: 0
WidescreenStoryboard: 0

[Editor]
DistanceSpacing: 1
BeatDivisor: 4
GridSize: 4
TimelineZoom: 1.7

[Metadata]
Title:Yureru Koi wa Nami no Gotoku (Short Ver.)
TitleUnicode:揺れる恋は波の如く (Short Ver.)
Artist:senya
ArtistUnicode:senya
Creator:Hinae
Version:Fate
Source:艦隊これくしょん -艦これ-
Tags:kantai collection kancolle 砲雷撃戦、始め! 幽閉サテライト Satellite Swaying love is like a wave 宇佐美宏 hiroshi usami 大越香里 kaori ohkoshi hizumi かませ虎 Kamase Tora Mayumi Morinaga 森永真由美 c85 yuuhei catharsis japanese pop j-pop jpop video game
BeatmapID:3310382
BeatmapSetID:1621390

[Difficulty]
HPDrainRate:5
CircleSize:4
OverallDifficulty:8
ApproachRate:9
SliderMultiplier:1.8
SliderTickRate:1

[Events]
//Background and Video events
0,0,"kancolle.jpg",0,0
//Break Periods
//Storyboard Layer 0 (Background)
//Storyboard Layer 1 (Fail)
//Storyboard Layer 2 (Pass)
//Storyboard Layer 3 (Foreground)
//Storyboard Layer 4 (Overlay)
//Storyboard Sound Samples

[TimingPoints]
1640,375,4,2,1,40,1,0
1640,-166.666666666667,4,2,1,40,0,0
6890,-133.333333333333,4,2,1,40,0,0
7265,-133.333333333333,4,2,1,45,0,0
7640,-117.647058823529,4,2,1,65,0,0
13640,-100,4,2,1,75,0,0
14390,-86.9565217391304,4,2,1,60,0,0
15140,-100,4,2,1,60,0,0
18890,-100,4,2,1,60,0,0
18983,-100,4,2,1,5,0,0
19077,-100,4,2,1,60,0,0
19171,-100,4,2,1,5,0,0
19265,-100,4,2,1,60,0,0
19358,-100,4,2,1,5,0,0
19452,-100,4,2,1,60,0,0
19546,-100,4,2,1,5,0,0
19640,-100,4,2,1,60,0,0
25640,-117.647058823529,4,2,1,60,0,0
49640,-153.846153846154,4,2,1,40,0,0
55640,-117.647058823529,4,2,1,50,0,0
58640,-117.647058823529,4,2,1,60,0,0
59390,-117.647058823529,4,2,1,70,0,0
60140,-117.647058823529,4,2,1,50,0,0
60890,-117.647058823529,4,2,1,60,0,0
61640,-86.9565217391304,4,2,1,80,0,1
64265,-86.9565217391304,4,2,1,80,0,1
64358,-86.9565217391304,4,2,1,5,0,1
64452,-86.9565217391304,4,2,1,80,0,1
64546,-86.9565217391304,4,2,1,5,0,1
64640,-86.9565217391304,4,2,1,80,0,1
66140,-117.647058823529,4,2,1,80,0,1
66515,-86.9565217391304,4,2,1,80,0,1
69515,-86.9565217391304,4,2,1,80,0,1
69608,-86.9565217391304,4,2,1,5,0,1
69702,-86.9565217391304,4,2,1,80,0,1
69796,-86.9565217391304,4,2,1,5,0,1
69890,-86.9565217391304,4,2,1,80,0,1
72890,-76.9230769230769,4,2,1,80,0,1
73452,-66.6666666666667,4,2,1,80,0,1
73640,-86.9565217391304,4,2,1,80,0,1
76265,-86.9565217391304,4,2,1,80,0,1
76358,-86.9565217391304,4,2,1,5,0,1
76452,-86.9565217391304,4,2,1,80,0,1
76546,-86.9565217391304,4,2,1,5,0,1
76640,-86.9565217391304,4,2,1,80,0,1
78140,-117.647058823529,4,2,1,80,0,1
78515,-86.9565217391304,4,2,1,80,0,1
81515,-86.9565217391304,4,2,1,80,0,1
81608,-86.9565217391304,4,2,1,5,0,1
81702,-86.9565217391304,4,2,1,80,0,1
81796,-86.9565217391304,4,2,1,5,0,1
81890,-86.9565217391304,4,2,1,80,0,1
83015,-86.9565217391304,4,2,1,80,0,1
83108,-86.9565217391304,4,2,1,5,0,1
83202,-86.9565217391304,4,2,1,80,0,1
83296,-86.9565217391304,4,2,1,5,0,1
83390,-86.9565217391304,4,2,1,80,0,1
84140,-100,4,2,1,80,0,0
86765,-100,4,2,1,20,0,0

[Colours]
Combo1 : 255,179,179
Combo2 : 128,128,192
Combo3 : 74,74,255
Combo4 : 150,230,255

[HitObjects]
265,126,1640,6,0,P|301:85|416:109,1,161.999995056153,4|0,1:1|0:0,0:0:0:0:
273,218,2390,2,0,P|231:214|179:155,1,107.999996704102,2|0,0:0|0:0,0:0:0:0:
445,209,3140,6,0,P|442:246|434:330,1,107.999996704102,2|2,0:0|0:0,0:0:0:0:
332,366,3702,1,2,0:0:0:0:
332,366,3890,2,0,P|337:315|344:234,1,107.999996704102,2|2,0:0|0:0,0:0:0:0:
435,316,4452,1,2,0:0:0:0:
512,146,4640,6,0,P|458:155|328:175,1,161.999995056153,4|0,1:1|0:0,0:0:0:0:
185,8,5390,2,0,P|239:17|369:37,1,161.999995056153,4|0,1:1|0:0,0:0:0:0:
158,199,6140,5,0,1:2:0:0:
192,132,6327,1,0,1:2:0:0:
132,85,6515,1,0,1:2:0:0:
69,128,6702,1,0,1:2:0:0:
83,275,6890,6,0,L|145:270,1,33.7500012874604,2|2,1:2|1:2,0:0:0:0:
213,366,7077,2,0,L|151:371,1,33.7500012874604,2|2,1:2|1:2,0:0:0:0:
291,290,7265,1,2,1:2:0:0:
310,316,7358,1,2,1:2:0:0:
345,335,7452,1,2,1:2:0:0:
388,329,7546,1,2,1:2:0:0:
424,289,7640,6,0,P|415:209|404:105,1,153.000002918243,4|8,1:1|0:0,0:0:0:0:
459,50,8202,1,0,0:0:0:0:
308,151,8390,2,0,P|274:133|170:155,1,114.750002188683,2|0,1:2|0:0,0:0:0:0:
174,173,8765,2,0,P|132:170|79:167,1,76.5000014591217,10|0,0:0|0:0,0:0:0:0:
18,309,9140,6,0,B|105:328|80:357|164:375,1,153.000002918243,2|10,1:2|0:0,0:0:0:0:
222,314,9702,1,2,0:0:0:0:
365,379,9890,1,2,1:2:0:0:
428,312,10077,1,0,0:0:0:0:
312,197,10265,2,0,P|319:240|326:281,1,76.5000014591217,10|0,0:0|0:0,0:0:0:0:
481,102,10640,6,0,P|464:58|396:23,1,114.750002188683,4|0,1:1|0:0,0:0:0:0:
342,85,11015,2,0,P|306:97|247:112,1,76.5000014591217,10|2,0:0|0:0,0:0:0:0:
116,38,11390,2,0,P|122:85|129:136,1,76.5000014591217,2|0,1:2|0:0,0:0:0:0:
32,177,11765,2,0,P|26:130|19:79,1,76.5000014591217,10|0,0:0|0:0,0:0:0:0:
166,221,12140,5,4,1:1:0:0:
204,295,12327,1,0,1:0:0:0:
151,360,12515,1,0,1:0:0:0:
18,290,12702,2,0,P|24:237|35:145,1,114.750002188683,2|0,1:2|0:0,0:0:0:0:
17,56,13077,5,2,1:2:0:0:
43,88,13171,1,2,1:2:0:0:
84,97,13265,2,0,L|152:84,1,38.2500007295609,2|2,1:2|1:2,0:0:0:0:
195,238,13452,2,0,L|148:247,1,38.2500007295609,2|2,1:2|1:2,0:0:0:0:
292,121,13640,6,0,P|357:133|450:152,1,135,6|0,1:1|0:0,0:0:0:0:
486,205,14015,2,0,P|512:171|501:111,1,90,8|0,0:0|0:0,0:0:0:0:
315,38,14390,6,0,P|323:97|339:210,1,155.250002961159,2|0,1:2|0:0,0:0:0:0:
402,251,14765,2,0,P|396:297|386:364,1,103.500001974106,10|0,0:0|0:0,0:0:0:0:
228,349,15140,6,0,B|184:309|184:309|216:227,1,135,2|0,1:2|0:0,0:0:0:0:
228,199,15515,1,10,0:0:0:0:
142,47,15702,1,2,0:0:0:0:
93,123,15890,2,0,P|138:132|234:74,1,135,2|0,1:2|0:0,0:0:0:0:
284,148,16265,2,0,P|277:199|268:259,1,90,10|2,0:0|0:3,0:0:0:0:
266,263,16546,1,2,0:3:0:0:
261,289,16640,5,4,1:1:0:0:
426,249,16827,1,0,0:0:0:0:
378,373,17015,1,8,0:0:0:0:
378,373,17202,1,0,0:0:0:0:
284,148,17390,5,2,1:2:0:0:
490,113,17577,1,0,0:0:0:0:
334,25,17765,1,8,0:0:0:0:
490,113,17952,1,0,0:0:0:0:
274,270,18140,5,2,1:2:0:0:
393,131,18327,1,2,0:0:0:0:
464,338,18515,1,10,0:0:0:0:
328,196,18702,1,2,0:0:0:0:
210,340,18890,6,0,L|152:335,1,45,2|0,1:3|0:0,0:0:0:0:
53,208,19077,2,0,L|120:195,1,45,2|0,0:3|0:0,0:0:0:0:
76,355,19265,6,0,L|63:288,1,45,10|0,0:3|0:0,0:0:0:0:
209,183,19452,2,0,L|206:265,1,45,2|0,0:3|0:0,0:0:0:0:
28,87,19640,6,0,P|80:79|149:69,1,90,4|0,1:1|0:0,0:0:0:0:
264,35,20015,1,10,0:0:0:0:
310,117,20202,1,2,0:0:0:0:
178,263,20390,2,0,P|182:222|234:166,1,90,2|0,1:2|0:0,0:0:0:0:
272,341,20765,1,10,0:0:0:0:
272,341,20952,1,2,0:2:0:0:
73,371,21140,6,0,P|69:314|65:199,1,135,2|0,1:2|0:0,0:0:0:0:
0,186,21515,2,0,P|27:225|80:235,1,90,10|0,0:0|0:0,0:0:0:0:
259,87,21890,2,0,B|226:101|189:103|189:103|160:132|160:132|118:130|80:153,1,180,2|8,1:2|0:0,0:0:0:0:
253,258,22452,1,2,0:3:0:0:
265,224,22546,1,2,0:3:0:0:
252,190,22640,5,4,1:1:0:0:
158,281,22827,1,2,0:0:0:0:
294,342,23015,1,10,0:0:0:0:
158,281,23202,1,2,0:0:0:0:
383,93,23390,5,2,1:2:0:0:
253,258,23577,1,2,0:0:0:0:
248,56,23765,1,10,0:0:0:0:
248,56,23952,1,2,0:0:0:0:
382,242,24140,5,2,0:0:0:0:
382,242,24327,2,0,L|370:304,1,45,8|0,0:0|0:0,0:0:0:0:
210,350,24515,2,0,P|217:297|278:275,1,90,8|0,0:0|1:0,0:0:0:0:
339,373,24890,5,2,1:2:0:0:
382,384,24983,1,2,1:2:0:0:
424,372,25077,1,2,1:2:0:0:
456,340,25171,1,2,1:2:0:0:
467,297,25265,2,0,L|462:248,1,45,2|2,1:2|1:2,0:0:0:0:
301,186,25452,2,0,L|308:250,1,45,2|2,1:2|1:2,0:0:0:0:
399,64,25640,6,0,P|345:74|232:96,2,153.000002918243,6|8|0,1:1|0:0|1:2,0:0:0:0:
479,17,26577,1,0,0:0:0:0:
512,166,26765,2,0,P|513:212|487:254,1,76.5000014591217,10|0,0:0|0:0,0:0:0:0:
345,329,27140,2,0,P|352:278|367:153,1,153.000002918243,2|8,1:2|0:0,0:0:0:0:
456,94,27702,1,0,0:0:0:0:
318,27,27890,2,0,P|270:35|226:42,1,76.5000014591217,0|0,1:2|0:0,0:0:0:0:
178,159,28265,2,0,P|226:151|312:135,1,114.750002188683,10|0,0:0|0:0,0:0:0:0:
369,102,28640,6,0,P|373:146|350:199,1,76.5000014591217,4|0,1:1|0:0,0:0:0:0:
227,377,29015,2,0,P|276:340|381:337,1,153.000002918243,10|0,0:0|1:2,0:0:0:0:
439,381,29577,1,0,0:0:0:0:
512,293,29765,2,0,P|507:251|502:190,1,76.5000014591217,10|0,0:0|0:0,0:0:0:0:
479,100,30140,5,2,1:2:0:0:
469,113,30233,2,0,P|429:110|357:104,1,76.5000014591217,2|2,0:0|0:0,0:0:0:0:
364,68,30515,2,0,P|324:74|271:81,1,76.5000014591217,10|0,0:0|0:0,0:0:0:0:
199,191,30890,5,0,1:2:0:0:
108,117,31077,1,2,0:0:0:0:
113,94,31171,1,2,0:0:0:0:
117,71,31265,1,8,0:0:0:0:
24,181,31452,1,8,0:0:0:0:
13,213,31546,1,8,0:0:0:0:
28,243,31640,6,0,P|88:255|211:280,2,153.000002918243,4|8|0,1:1|0:0|1:2,0:0:0:0:
0,325,32577,1,0,0:0:0:0:
122,384,32765,2,0,P|166:376|218:365,1,76.5000014591217,10|0,0:0|0:0,0:0:0:0:
301,270,33140,6,0,P|299:226|216:146,1,153.000002918243,2|8,1:2|0:2,0:0:0:0:
98,60,33702,1,0,0:0:0:0:
98,60,33890,2,0,P|106:118|120:222,1,153.000002918243,2|8,1:2|0:2,0:0:0:0:
55,288,34452,1,0,0:0:0:0:
193,142,34640,6,0,B|276:156|256:183|348:198,1,153.000002918243,4|8,1:1|0:2,0:0:0:0:
417,124,35202,1,0,0:0:0:0:
502,203,35390,1,0,1:2:0:0:
437,308,35577,1,2,0:0:0:0:
414,304,35671,1,2,0:0:0:0:
391,300,35765,2,0,P|347:312|293:328,1,76.5000014591217,8|2,0:0|0:0,0:0:0:0:
202,226,36140,5,10,0:0:0:0:
328,74,36421,5,10,0:0:0:0:
491,193,36702,5,10,0:0:0:0:
423,261,36890,6,0,P|374:273|255:305,1,153.000002918243,4|2,1:1|0:0,0:0:0:0:
201,373,37358,1,2,0:0:0:0:
167,381,37452,1,2,0:0:0:0:
144,355,37546,1,2,0:0:0:0:
155,322,37640,6,0,P|158:269|78:178,2,153.000002918243,6|8|0,1:1|0:0|1:2,0:0:0:0:
76,373,38577,1,0,0:0:0:0:
0,254,38765,2,0,P|5:207|13:149,1,76.5000014591217,10|0,0:0|0:0,0:0:0:0:
0,19,39140,2,0,P|37:54|153:58,1,153.000002918243,2|8,1:2|0:0,0:0:0:0:
220,17,39702,1,0,0:0:0:0:
256,173,39890,2,0,P|292:167|343:158,1,76.5000014591217,0|0,1:2|0:0,0:0:0:0:
182,127,40265,2,0,P|164:166|198:239,1,114.750002188683,10|0,0:0|0:0,0:0:0:0:
264,257,40640,6,0,P|259:296|251:350,1,76.5000014591217,4|0,1:1|0:0,0:0:0:0:
365,384,41015,2,0,P|374:313|385:207,1,153.000002918243,10|0,0:0|1:2,0:0:0:0:
436,164,41577,1,0,0:0:0:0:
293,104,41765,2,0,P|290:143|311:185,1,76.5000014591217,10|0,0:0|0:0,0:0:0:0:
464,43,42140,5,2,1:2:0:0:
454,26,42233,2,0,P|412:32|360:41,1,76.5000014591217,2|2,0:0|0:0,0:0:0:0:
338,11,42515,2,0,P|298:15|245:20,1,76.5000014591217,10|0,0:0|0:0,0:0:0:0:
174,123,42890,5,2,1:2:0:0:
123,21,43077,1,2,0:0:0:0:
145,18,43171,1,2,0:0:0:0:
167,15,43265,1,8,0:0:0:0:
310,120,43452,1,8,0:0:0:0:
305,152,43546,1,8,0:0:0:0:
290,183,43640,6,0,P|299:248|315:350,2,153.000002918243,4|8|0,1:1|0:0|1:2,0:0:0:0:
174,146,44577,1,0,0:0:0:0:
124,297,44765,2,0,P|166:289|220:281,1,76.5000014591217,10|0,0:0|0:0,0:0:0:0:
247,105,45140,6,0,P|196:68|104:89,1,153.000002918243,2|8,1:2|0:2,0:0:0:0:
5,77,45702,1,0,0:0:0:0:
5,77,45890,2,0,P|10:125|24:244,1,153.000002918243,2|8,1:2|0:2,0:0:0:0:
111,82,46452,1,0,0:0:0:0:
224,215,46640,6,0,P|220:267|211:385,1,153.000002918243,4|8,1:1|0:2,0:0:0:0:
106,222,47202,1,0,0:0:0:0:
173,137,47390,1,0,1:2:0:0:
312,270,47577,1,2,0:0:0:0:
334,265,47671,1,2,0:0:0:0:
356,260,47765,2,0,P|403:269|446:278,1,76.5000014591217,8|2,0:0|0:0,0:0:0:0:
492,110,48140,5,12,1:1:0:0:
473,91,48233,2,0,P|444:99|426:104,1,38.2500007295609,2|0,1:2|0:0,0:0:0:0:
370,157,48421,5,8,1:1:0:0:
351,176,48514,2,0,P|322:168|304:163,1,38.2500007295609,2|0,1:2|0:0,0:0:0:0:
180,116,48702,5,10,0:0:0:0:
180,116,48796,1,10,0:0:0:0:
180,116,48890,2,0,P|210:150|206:248,1,114.750002188683,2|0,1:2|0:0,0:0:0:0:
74,337,49265,1,8,0:0:0:0:
79,299,49358,1,8,0:0:0:0:
86,261,49452,1,8,0:0:0:0:
92,223,49546,1,8,0:0:0:0:
96,185,49640,6,0,B|137:179|221:212|169:264|250:310|313:277,1,233.999989288331,4|0,1:2|0:0,0:0:0:0:
361,225,50577,2,0,P|391:220|439:213,2,58.4999973220826,2|2|2,0:0|0:0|0:0,0:0:0:0:
266,177,51140,6,0,P|269:128|317:62,2,116.999994644165,2|2|2,0:0|0:0|0:0,0:0:0:0:
187,293,52265,1,2,0:0:0:0:
114,179,52640,6,0,B|89:126|31:103|-15:130|-15:130|13:166|-3:211,1,233.999989288331,2|0,0:0|0:0,0:0:0:0:
62,313,53577,2,0,P|93:309|134:304,2,58.4999973220826,2|2|2,0:0|0:0|0:0,0:0:0:0:
114,179,54140,6,0,P|196:191|354:212,1,233.999989288331,2|0,0:0|0:0,0:0:0:0:
420,145,55077,2,0,P|420:112|390:80,2,58.4999973220826,2|2|2,0:0|0:0|0:0,0:0:0:0:
278,240,55640,6,0,P|287:278|300:337,1,76.5000014591217,6|0,1:1|0:0,0:0:0:0:
170,384,56015,2,0,P|161:333|141:201,1,153.000002918243,8|0,0:0|1:2,0:0:0:0:
43,119,56577,1,2,0:0:0:0:
0,188,56765,1,10,0:0:0:0:
53,252,56952,1,2,0:0:0:0:
97,54,57140,6,0,P|142:58|193:61,1,76.5000014591217,6|0,1:1|0:0,0:0:0:0:
242,170,57515,2,0,P|198:169|146:168,1,76.5000014591217,10|0,0:0|0:0,0:0:0:0:
32,265,57890,2,0,B|81:282|81:282|99:299|99:299|165:319,1,114.750002188683,2|0,1:2|0:0,0:0:0:0:
204,369,58265,2,0,P|230:334|216:280,1,76.5000014591217,10|0,0:0|0:0,0:0:0:0:
193,126,58640,5,6,1:1:0:0:
106,174,58827,1,0,1:2:0:0:
193,222,59015,1,8,0:0:0:0:
193,126,59202,1,0,1:2:0:0:
72,309,59390,5,6,1:1:0:0:
288,330,59577,1,0,1:2:0:0:
311,108,59765,1,8,0:0:0:0:
105,86,59952,1,0,1:2:0:0:
193,222,60140,5,4,1:1:0:0:
193,222,60890,5,2,0:0:0:0:
223,225,60983,1,2,0:0:0:0:
246,205,61077,2,0,P|257:185|261:156,1,38.2500007295609,2|2,0:0|0:0,0:0:0:0:
157,48,61265,5,2,0:0:0:0:
142,74,61358,1,2,0:0:0:0:
153,102,61452,2,0,P|168:122|191:136,1,38.2500007295609,2|2,0:0|0:0,0:0:0:0:
288,25,61640,6,0,P|345:16|450:-2,1,155.250002961159,6|0,1:1|0:0,0:0:0:0:
503,57,62015,2,0,P|524:99|499:168,1,103.500001974106,8|0,0:0|0:0,0:0:0:0:
353,320,62390,2,0,P|360:269|370:197,1,103.500001974106,2|2,1:2|0:3,0:0:0:0:
295,52,62671,1,2,0:3:0:0:
308,78,62765,2,0,B|225:106|247:139|160:164,1,155.250002961159,8|0,0:0|0:0,0:0:0:0:
69,119,63140,6,0,P|49:97|87:28,1,103.500001974106,2|0,1:1|0:0,0:0:0:0:
134,258,63515,1,10,0:0:0:0:
215,91,63702,1,2,0:0:0:0:
16,208,63890,2,0,P|19:256|22:322,1,103.500001974106,2|0,1:2|0:0,0:0:0:0:
188,360,64265,2,0,L|248:349,1,51.7500009870529,10|0,0:3|0:0,0:0:0:0:
294,218,64452,2,0,L|220:211,1,51.7500009870529,2|0,0:3|0:0,0:0:0:0:
172,384,64640,6,0,P|243:375|341:361,1,155.250002961159,6|0,1:1|0:0,0:0:0:0:
417,384,65015,2,0,P|449:348|423:287,1,103.500001974106,8|0,0:0|0:0,0:0:0:0:
281,115,65390,2,0,P|288:176|296:234,1,103.500001974106,2|2,1:2|0:3,0:0:0:0:
372,25,65671,1,2,0:3:0:0:
359,55,65765,2,0,P|310:24|208:42,1,155.250002961159,10|0,0:0|0:0,0:0:0:0:
155,110,66140,6,0,P|108:101|17:82,1,114.750002188683,2|0,1:1|0:0,0:0:0:0:
0,245,66515,2,0,P|60:237|162:224,1,155.250002961159,10|0,0:1|0:0,0:0:0:0:
262,292,66890,6,0,P|259:323|232:347,1,51.7500009870529,2|2,1:1|0:0,0:0:0:0:
338,214,67077,2,0,P|358:198|403:189,1,51.7500009870529,2|2,0:0|0:0,0:0:0:0:
237,181,67265,2,0,P|213:171|197:142,1,51.7500009870529,10|2,0:0|0:0,0:0:0:0:
300,0,67452,1,10,0:0:0:0:
320,42,67546,1,10,0:0:0:0:
287,82,67640,6,0,P|286:146|286:259,1,155.250002961159,4|0,1:1|0:0,0:0:0:0:
245,310,68015,2,0,P|295:322|349:290,1,103.500001974106,8|0,0:0|0:0,0:0:0:0:
168,140,68390,2,0,B|129:128|90:95|90:95|79:169|46:209,1,207.000003948212,2|10,1:2|0:0,0:0:0:0:
174,46,68952,1,0,0:0:0:0:
237,232,69140,6,0,P|295:242|400:261,1,155.250002961159,2|0,1:2|0:0,0:0:0:0:
480,191,69515,2,0,P|494:175|498:131,1,51.7500009870529,10|0,0:3|0:0,0:0:0:0:
389,259,69702,2,0,P|388:286|401:322,1,51.7500009870529,2|0,0:3|0:0,0:0:0:0:
336,106,69890,2,0,B|305:117|273:116|273:116|244:137|244:137|208:136|170:147,1,155.250002961159,2|0,1:2|0:0,0:0:0:0:
115,86,70265,2,0,P|110:50|173:-4,1,103.500001974106,10|0,0:0|0:0,0:0:0:0:
1,180,70640,6,0,P|11:246|38:432,1,207.000003948212,4|8,1:1|0:0,0:0:0:0:
203,267,71202,1,2,0:0:0:0:
223,225,71296,1,2,0:0:0:0:
196,186,71390,2,0,L|133:200,1,51.7500009870529,2|2,1:2|0:0,0:0:0:0:
42,40,71577,2,0,L|98:33,1,51.7500009870529,2|2,0:0|0:0,0:0:0:0:
0,233,71765,5,10,0:0:0:0:
7,283,71858,1,2,0:0:0:0:
45,309,71952,1,2,0:0:0:0:
91,303,72046,1,2,0:0:0:0:
116,264,72140,1,2,0:0:0:0:
219,92,72327,6,0,L|208:32,1,51.7500009870529,10|0,0:0|0:0,0:0:0:0:
58,140,72515,2,0,L|69:200,1,51.7500009870529,10|0,0:0|0:0,0:0:0:0:
345,259,72890,6,0,B|328:238|330:205|330:205|317:234|274:256,1,116.999994644165,10|0,1:1|0:0,0:0:0:0:
371,366,73171,2,0,B|398:366|422:389|422:389|408:360|418:313,1,116.999994644165,10|0,1:1|0:0,0:0:0:0:
216,348,73452,2,0,B|224:362|226:381|226:381|234:367|267:359,1,67.5000025749208,10|0,1:1|0:0,0:0:0:0:
361,149,73640,6,0,P|301:157|187:177,1,155.250002961159,6|0,1:1|0:0,0:0:0:0:
164,250,74015,2,0,P|207:220|189:152,1,103.500001974106,8|0,0:0|0:0,0:0:0:0:
37,3,74390,2,0,P|46:50|61:135,1,103.500001974106,2|2,1:2|0:3,0:0:0:0:
14,236,74671,1,2,0:3:0:0:
30,207,74765,2,0,P|88:197|170:266,1,155.250002961159,8|0,0:0|0:0,0:0:0:0:
253,254,75140,6,0,P|245:310|236:376,1,103.500001974106,2|0,1:1|0:0,0:0:0:0:
371,205,75515,1,10,0:0:0:0:
282,127,75702,1,2,0:0:0:0:
375,325,75890,2,0,P|426:319|486:314,1,103.500001974106,2|0,1:2|0:0,0:0:0:0:
505,50,76265,2,0,L|442:45,1,51.7500009870529,10|0,0:3|0:0,0:0:0:0:
371,205,76452,2,0,L|434:199,1,51.7500009870529,2|0,0:3|0:0,0:0:0:0:
328,55,76640,6,0,B|249:72|265:111|182:124,1,155.250002961159,6|0,1:1|0:0,0:0:0:0:
126,61,77015,2,0,P|93:38|24:45,1,103.500001974106,8|0,0:0|0:0,0:0:0:0:
20,246,77390,2,0,P|68:236|145:218,1,103.500001974106,2|2,1:2|0:3,0:0:0:0:
261,210,77671,1,2,0:3:0:0:
244,193,77765,2,0,P|201:239|221:339,1,155.250002961159,10|0,0:0|0:0,0:0:0:0:
363,298,78140,6,0,P|359:253|351:167,1,114.750002188683,2|0,1:1|0:0,0:0:0:0:
251,364,78515,2,0,P|255:319|261:195,1,155.250002961159,10|0,0:1|0:0,0:0:0:0:
177,83,78890,6,0,P|148:88|109:94,1,51.7500009870529,2|2,1:1|0:0,0:0:0:0:
69,201,79077,2,0,P|98:196|137:190,1,51.7500009870529,2|2,0:0|0:0,0:0:0:0:
215,281,79265,2,0,P|186:286|147:292,1,51.7500009870529,10|2,0:0|0:0,0:0:0:0:
3,366,79452,1,10,0:0:0:0:
13,320,79546,1,10,0:0:0:0:
22,274,79640,6,0,P|36:214|43:87,1,155.250002961159,4|0,1:1|0:0,0:0:0:0:
36,34,80015,2,0,P|90:41|157:47,1,103.500001974106,8|0,0:0|0:0,0:0:0:0:
277,184,80390,2,0,B|165:220|197:249|91:283,1,207.000003948212,2|10,1:2|0:0,0:0:0:0:
261,299,80952,1,0,0:0:0:0:
102,181,81140,6,0,P|109:141|119:74,1,103.500001974106,2|0,1:2|0:0,0:0:0:0:
308,23,81515,2,0,P|312:53|324:92,1,51.7500009870529,10|0,0:3|0:0,0:0:0:0:
420,152,81702,2,0,P|428:128|434:91,1,51.7500009870529,2|0,0:3|0:0,0:0:0:0:
326,252,81890,2,0,P|270:262|170:280,1,155.250002961159,2|0,1:2|0:0,0:0:0:0:
109,340,82265,2,0,P|83:304|98:235,1,103.500001974106,10|0,0:0|0:0,0:0:0:0:
22,18,82640,6,0,P|75:70|184:52,1,155.250002961159,4|0,1:1|0:0,0:0:0:0:
226,23,83015,2,0,L|282:30,1,51.7500009870529,10|0,0:3|0:0,0:0:0:0:
281,196,83202,2,0,L|225:189,1,51.7500009870529,2|0,0:3|0:0,0:0:0:0:
429,21,83390,2,0,P|424:76|414:203,1,155.250002961159,2|0,1:2|0:0,0:0:0:0:
500,314,83765,2,0,P|510:280|441:234,1,103.500001974106,10|0,0:0|0:0,0:0:0:0:
255,371,84140,5,6,1:1:0:0:
256,192,84233,12,0,86765,0:0:0:0:
