osu file format v14

[General]
AudioFilename: audio.mp3
AudioLeadIn: 0
PreviewTime: 97537
Countdown: 0
SampleSet: None
StackLeniency: 0.7
Mode: 3
LetterboxInBreaks: 0
SpecialStyle: 0
WidescreenStoryboard: 1

[Editor]
Bookmarks: 90881,95381,133631,139631,141131,142631,145631,151631,156131,157631,162131,169631
DistanceSpacing: 0.8
BeatDivisor: 4
GridSize: 32
TimelineZoom: 3.299998

[Metadata]
Title:Youyoumu no Gotoku (Autobahn Remix)
TitleUnicode:漸う夢の如く (Autobahn Remix)
Artist:senya
ArtistUnicode:senya
Creator:Xyzeria-sama
Version:Youyoumu no LN Burst
Source:東方Project
Tags:
BeatmapID:1895272
BeatmapSetID:908207

[Difficulty]
HPDrainRate:8
CircleSize:4
OverallDifficulty:5
ApproachRate:5
SliderMultiplier:1.4
SliderTickRate:1

[Events]
//Background and Video events
0,0,"BG.jpg",0,0
//Break Periods
//Storyboard Layer 0 (Background)
//Storyboard Layer 1 (Fail)
//Storyboard Layer 2 (Pass)
//Storyboard Layer 3 (Foreground)
//Storyboard Sound Samples

[TimingPoints]
881,375,4,1,0,0,1,0
36881,-100,4,1,0,0,0,1
72881,-100,4,1,0,0,0,0
96787,-10000,4,1,0,0,0,0
96834,-10,4,1,0,0,0,0
97068,-10000,4,1,0,0,0,0
97115,-10,4,1,0,0,0,0
97256,-10000,4,1,0,0,0,0
97302,-10,4,1,0,0,0,0
97443,-10000,4,1,0,0,0,0
97490,-100,4,1,0,0,0,0
97631,-100,4,1,0,0,0,1
133644,-100,4,1,0,0,0,0

[HitObjects]
64,192,881,128,0,1256:0:0:0:0:
192,192,881,128,0,1068:0:0:0:0:
320,192,1068,128,0,1256:0:0:0:0:
448,192,1256,128,0,1631:0:0:0:0:
192,192,1256,128,0,1443:0:0:0:0:
320,192,1443,128,0,1631:0:0:0:0:
64,192,1631,128,0,2006:0:0:0:0:
192,192,1631,128,0,1818:0:0:0:0:
448,192,1818,128,0,2006:0:0:0:0:
320,192,2006,128,0,2381:0:0:0:0:
192,192,2006,128,0,2193:0:0:0:0:
448,192,2193,128,0,2381:0:0:0:0:
64,192,2381,128,0,3131:0:0:0:0:
192,192,2381,128,0,2568:0:0:0:0:
320,192,2568,128,0,2756:0:0:0:0:
448,192,2756,128,0,2943:0:0:0:0:
192,192,2943,128,0,3131:0:0:0:0:
320,192,3131,128,0,3318:0:0:0:0:
448,192,3318,128,0,3506:0:0:0:0:
192,192,3506,128,0,3693:0:0:0:0:
64,192,3693,128,0,3881:0:0:0:0:
320,192,3881,128,0,4256:0:0:0:0:
192,192,3881,128,0,4068:0:0:0:0:
448,192,4068,128,0,4256:0:0:0:0:
64,192,4256,128,0,4631:0:0:0:0:
192,192,4256,128,0,4443:0:0:0:0:
320,192,4443,128,0,4631:0:0:0:0:
448,192,4631,128,0,5006:0:0:0:0:
192,192,4631,128,0,4818:0:0:0:0:
64,192,4818,128,0,5006:0:0:0:0:
320,192,5006,128,0,5381:0:0:0:0:
192,192,5006,128,0,5193:0:0:0:0:
448,192,5193,128,0,5381:0:0:0:0:
64,192,5381,128,0,6506:0:0:0:0:
192,192,5381,128,0,5568:0:0:0:0:
448,192,5568,128,0,5756:0:0:0:0:
320,192,5756,128,0,5943:0:0:0:0:
192,192,5943,128,0,6131:0:0:0:0:
320,192,6131,128,0,6318:0:0:0:0:
448,192,6318,128,0,6506:0:0:0:0:
192,192,6506,128,0,6693:0:0:0:0:
320,192,6693,128,0,6881:0:0:0:0:
192,192,6881,128,0,7631:0:0:0:0:
64,192,6881,128,0,7068:0:0:0:0:
448,192,7068,128,0,7256:0:0:0:0:
320,192,7256,128,0,7443:0:0:0:0:
64,192,7443,128,0,7631:0:0:0:0:
448,192,7631,128,0,8381:0:0:0:0:
320,192,7631,128,0,7818:0:0:0:0:
64,192,7818,128,0,8006:0:0:0:0:
192,192,8006,128,0,8193:0:0:0:0:
320,192,8193,128,0,8381:0:0:0:0:
64,192,8381,128,0,8756:0:0:0:0:
192,192,8381,128,0,8568:0:0:0:0:
448,192,8568,128,0,8756:0:0:0:0:
320,192,8756,128,0,9131:0:0:0:0:
192,192,8756,128,0,8943:0:0:0:0:
64,192,8943,128,0,9131:0:0:0:0:
192,192,9131,128,0,9318:0:0:0:0:
320,192,9318,128,0,9506:0:0:0:0:
448,192,9506,128,0,9693:0:0:0:0:
192,192,9693,128,0,9881:0:0:0:0:
64,192,9881,128,0,10256:0:0:0:0:
448,192,9881,128,0,10068:0:0:0:0:
192,192,10068,128,0,10256:0:0:0:0:
320,192,10256,128,0,10631:0:0:0:0:
448,192,10256,128,0,10443:0:0:0:0:
192,192,10443,128,0,10631:0:0:0:0:
64,192,10631,128,0,11006:0:0:0:0:
448,192,10631,128,0,10818:0:0:0:0:
192,192,10818,128,0,11006:0:0:0:0:
320,192,11006,128,0,11381:0:0:0:0:
448,192,11006,128,0,11193:0:0:0:0:
64,192,11193,128,0,11381:0:0:0:0:
192,192,11381,128,0,12506:0:0:0:0:
448,192,11381,128,0,11568:0:0:0:0:
320,192,11568,128,0,11756:0:0:0:0:
64,192,11756,128,0,11943:0:0:0:0:
320,192,11943,128,0,12131:0:0:0:0:
64,192,12131,128,0,12318:0:0:0:0:
448,192,12318,128,0,12506:0:0:0:0:
320,192,12506,1,0,0:0:0:0:
64,192,12693,1,0,0:0:0:0:
320,192,12881,1,0,0:0:0:0:
448,192,12881,1,0,0:0:0:0:
192,192,13068,1,0,0:0:0:0:
64,192,13256,1,0,0:0:0:0:
448,192,13256,1,0,0:0:0:0:
320,192,13443,1,0,0:0:0:0:
192,192,13631,1,0,0:0:0:0:
64,192,13631,1,0,0:0:0:0:
320,192,13818,1,0,0:0:0:0:
64,192,14006,1,0,0:0:0:0:
448,192,14006,1,0,0:0:0:0:
320,192,14193,1,0,0:0:0:0:
320,192,14381,128,0,14568:0:0:0:0:
448,192,14381,128,0,14568:0:0:0:0:
192,192,14568,1,0,0:0:0:0:
64,192,14568,1,0,0:0:0:0:
64,192,14756,128,0,14943:0:0:0:0:
192,192,14756,128,0,14943:0:0:0:0:
320,192,14943,1,0,0:0:0:0:
448,192,14943,1,0,0:0:0:0:
320,192,15131,128,0,15318:0:0:0:0:
448,192,15131,128,0,15318:0:0:0:0:
64,192,15318,1,0,0:0:0:0:
192,192,15318,1,0,0:0:0:0:
64,192,15506,128,0,15693:0:0:0:0:
192,192,15506,128,0,15693:0:0:0:0:
320,192,15693,1,0,0:0:0:0:
448,192,15693,1,0,0:0:0:0:
64,192,15881,1,0,0:0:0:0:
192,192,15881,1,0,0:0:0:0:
320,192,16068,1,0,0:0:0:0:
192,192,16256,1,0,0:0:0:0:
448,192,16256,1,0,0:0:0:0:
320,192,16443,1,0,0:0:0:0:
64,192,16631,1,0,0:0:0:0:
448,192,16631,1,0,0:0:0:0:
192,192,16818,1,0,0:0:0:0:
320,192,17006,1,0,0:0:0:0:
448,192,17006,1,0,0:0:0:0:
192,192,17193,1,0,0:0:0:0:
320,192,17381,128,0,17568:0:0:0:0:
448,192,17381,128,0,17568:0:0:0:0:
192,192,17568,1,0,0:0:0:0:
64,192,17568,1,0,0:0:0:0:
64,192,17756,128,0,17943:0:0:0:0:
192,192,17756,128,0,17943:0:0:0:0:
320,192,17943,1,0,0:0:0:0:
448,192,17943,1,0,0:0:0:0:
320,192,18131,128,0,18318:0:0:0:0:
448,192,18131,128,0,18318:0:0:0:0:
64,192,18318,1,0,0:0:0:0:
192,192,18318,1,0,0:0:0:0:
64,192,18506,128,0,18693:0:0:0:0:
192,192,18506,128,0,18693:0:0:0:0:
320,192,18693,1,0,0:0:0:0:
448,192,18693,1,0,0:0:0:0:
64,192,18881,1,0,0:0:0:0:
192,192,18881,1,0,0:0:0:0:
448,192,18881,128,0,19443:0:0:0:0:
320,192,19068,1,0,0:0:0:0:
64,192,19256,1,0,0:0:0:0:
192,192,19443,1,0,0:0:0:0:
320,192,19537,1,0,0:0:0:0:
448,192,19631,1,0,0:0:0:0:
64,192,19631,128,0,20193:0:0:0:0:
192,192,19818,1,0,0:0:0:0:
320,192,20006,1,0,0:0:0:0:
192,192,20193,1,0,0:0:0:0:
448,192,20287,1,0,0:0:0:0:
320,192,20381,128,0,20756:0:0:0:0:
64,192,20381,1,0,0:0:0:0:
192,192,20381,1,0,0:0:0:0:
448,192,20568,1,0,0:0:0:0:
64,192,20662,1,0,0:0:0:0:
192,192,20756,128,0,21131:0:0:0:0:
448,192,20756,1,0,0:0:0:0:
64,192,20943,1,0,0:0:0:0:
448,192,21037,1,0,0:0:0:0:
64,192,21131,128,0,21506:0:0:0:0:
320,192,21131,1,0,0:0:0:0:
192,192,21318,1,0,0:0:0:0:
320,192,21506,1,0,0:0:0:0:
192,192,21693,1,0,0:0:0:0:
320,192,21787,1,0,0:0:0:0:
448,192,21881,1,0,0:0:0:0:
64,192,21881,1,0,0:0:0:0:
192,192,21881,1,0,0:0:0:0:
320,192,21974,1,0,0:0:0:0:
64,192,22068,1,0,0:0:0:0:
448,192,22068,1,0,0:0:0:0:
192,192,22162,1,0,0:0:0:0:
320,192,22256,1,0,0:0:0:0:
448,192,22256,1,0,0:0:0:0:
192,192,22349,1,0,0:0:0:0:
64,192,22443,1,0,0:0:0:0:
320,192,22443,1,0,0:0:0:0:
192,192,22537,1,0,0:0:0:0:
448,192,22631,1,0,0:0:0:0:
64,192,22631,1,0,0:0:0:0:
320,192,22631,1,0,0:0:0:0:
192,192,22724,1,0,0:0:0:0:
320,192,22818,1,0,0:0:0:0:
64,192,22818,1,0,0:0:0:0:
192,192,22912,1,0,0:0:0:0:
320,192,23006,1,0,0:0:0:0:
448,192,23006,1,0,0:0:0:0:
192,192,23099,1,0,0:0:0:0:
64,192,23193,1,0,0:0:0:0:
448,192,23193,1,0,0:0:0:0:
320,192,23287,1,0,0:0:0:0:
192,192,23381,1,0,0:0:0:0:
64,192,23381,1,0,0:0:0:0:
448,192,23381,1,0,0:0:0:0:
192,192,23568,1,0,0:0:0:0:
320,192,23568,1,0,0:0:0:0:
320,192,23756,1,0,0:0:0:0:
448,192,23756,1,0,0:0:0:0:
192,192,23943,1,0,0:0:0:0:
64,192,24037,1,0,0:0:0:0:
320,192,24131,1,0,0:0:0:0:
448,192,24131,1,0,0:0:0:0:
192,192,24224,1,0,0:0:0:0:
64,192,24318,1,0,0:0:0:0:
448,192,24318,1,0,0:0:0:0:
320,192,24412,1,0,0:0:0:0:
192,192,24506,1,0,0:0:0:0:
64,192,24506,1,0,0:0:0:0:
320,192,24599,1,0,0:0:0:0:
192,192,24693,1,0,0:0:0:0:
448,192,24693,1,0,0:0:0:0:
320,192,24787,1,0,0:0:0:0:
448,192,24881,128,0,25256:0:0:0:0:
192,192,24881,1,0,0:0:0:0:
64,192,24974,1,0,0:0:0:0:
192,192,25068,128,0,25256:0:0:0:0:
320,192,25068,1,0,0:0:0:0:
64,192,25162,1,0,0:0:0:0:
64,192,25256,128,0,25443:0:0:0:0:
320,192,25256,128,0,25349:0:0:0:0:
448,192,25349,128,0,25443:0:0:0:0:
192,192,25443,128,0,25631:0:0:0:0:
320,192,25443,1,0,0:0:0:0:
448,192,25537,1,0,0:0:0:0:
64,192,25631,128,0,25818:0:0:0:0:
320,192,25631,128,0,25724:0:0:0:0:
448,192,25724,128,0,25818:0:0:0:0:
192,192,25818,128,0,26006:0:0:0:0:
320,192,25818,1,0,0:0:0:0:
64,192,25912,1,0,0:0:0:0:
448,192,26006,128,0,26381:0:0:0:0:
320,192,26006,1,0,0:0:0:0:
192,192,26099,1,0,0:0:0:0:
320,192,26193,128,0,26381:0:0:0:0:
64,192,26193,1,0,0:0:0:0:
192,192,26381,128,0,26568:0:0:0:0:
64,192,26381,1,0,0:0:0:0:
320,192,26474,128,0,26568:0:0:0:0:
448,192,26568,128,0,26756:0:0:0:0:
64,192,26568,128,0,26662:0:0:0:0:
192,192,26662,128,0,26756:0:0:0:0:
64,192,26756,128,0,27131:0:0:0:0:
320,192,26756,128,0,26849:0:0:0:0:
192,192,26849,128,0,26943:0:0:0:0:
448,192,26943,128,0,27037:0:0:0:0:
320,192,26943,1,0,0:0:0:0:
192,192,27037,128,0,27131:0:0:0:0:
448,192,27131,128,0,27506:0:0:0:0:
320,192,27224,1,0,0:0:0:0:
192,192,27318,128,0,27412:0:0:0:0:
64,192,27412,128,0,27506:0:0:0:0:
192,192,27506,128,0,27599:0:0:0:0:
320,192,27506,1,0,0:0:0:0:
320,192,27599,128,0,27693:0:0:0:0:
448,192,27693,128,0,27881:0:0:0:0:
64,192,27693,1,0,0:0:0:0:
320,192,27787,1,0,0:0:0:0:
64,192,27881,128,0,28256:0:0:0:0:
192,192,27881,1,0,0:0:0:0:
320,192,27974,1,0,0:0:0:0:
192,192,28068,128,0,28443:0:0:0:0:
448,192,28068,1,0,0:0:0:0:
320,192,28162,128,0,28256:0:0:0:0:
448,192,28256,128,0,28349:0:0:0:0:
320,192,28349,128,0,28443:0:0:0:0:
448,192,28443,128,0,28818:0:0:0:0:
64,192,28443,128,0,28537:0:0:0:0:
192,192,28537,128,0,28631:0:0:0:0:
320,192,28631,1,0,0:0:0:0:
64,192,28631,128,0,29006:0:0:0:0:
192,192,28724,1,0,0:0:0:0:
320,192,28818,1,0,0:0:0:0:
192,192,28912,1,0,0:0:0:0:
448,192,29006,128,0,29193:0:0:0:0:
320,192,29006,1,0,0:0:0:0:
192,192,29099,1,0,0:0:0:0:
64,192,29193,128,0,29381:0:0:0:0:
320,192,29193,1,0,0:0:0:0:
192,192,29287,128,0,29381:0:0:0:0:
448,192,29381,128,0,29756:0:0:0:0:
320,192,29381,128,0,29568:0:0:0:0:
64,192,29474,1,0,0:0:0:0:
192,192,29568,128,0,29662:0:0:0:0:
64,192,29568,128,0,29662:0:0:0:0:
320,192,29662,128,0,29756:0:0:0:0:
192,192,29756,128,0,29943:0:0:0:0:
64,192,29756,128,0,29849:0:0:0:0:
448,192,29849,128,0,29943:0:0:0:0:
64,192,29943,128,0,30131:0:0:0:0:
320,192,29943,128,0,29990:0:0:0:0:
192,192,30037,1,0,0:0:0:0:
320,192,30131,1,0,0:0:0:0:
448,192,30131,128,0,30318:0:0:0:0:
192,192,30224,1,0,0:0:0:0:
64,192,30318,1,0,0:0:0:0:
320,192,30318,1,0,0:0:0:0:
448,192,30506,128,0,30552:0:0:0:0:
320,192,30506,128,0,30576:0:0:0:0:
192,192,30506,128,0,30599:0:0:0:0:
64,192,30506,128,0,30623:0:0:0:0:
448,192,30693,128,0,30740:0:0:0:0:
320,192,30693,128,0,30763:0:0:0:0:
192,192,30693,128,0,30787:0:0:0:0:
64,192,30693,128,0,30810:0:0:0:0:
448,192,30881,128,0,31256:0:0:0:0:
192,192,30881,1,0,0:0:0:0:
320,192,30974,128,0,31068:0:0:0:0:
192,192,31068,128,0,31162:0:0:0:0:
64,192,31068,128,0,31162:0:0:0:0:
320,192,31162,128,0,31256:0:0:0:0:
64,192,31256,128,0,31443:0:0:0:0:
192,192,31256,1,0,0:0:0:0:
320,192,31349,1,0,0:0:0:0:
192,192,31443,1,0,0:0:0:0:
448,192,31443,128,0,31818:0:0:0:0:
320,192,31537,1,0,0:0:0:0:
64,192,31631,1,0,0:0:0:0:
192,192,31631,1,0,0:0:0:0:
320,192,31724,128,0,31818:0:0:0:0:
64,192,31818,128,0,32006:0:0:0:0:
192,192,31818,128,0,31912:0:0:0:0:
448,192,31912,1,0,0:0:0:0:
320,192,32006,128,0,32381:0:0:0:0:
192,192,32006,1,0,0:0:0:0:
448,192,32099,128,0,32193:0:0:0:0:
192,192,32193,1,0,0:0:0:0:
64,192,32287,1,0,0:0:0:0:
192,192,32381,1,0,0:0:0:0:
448,192,32381,128,0,32568:0:0:0:0:
64,192,32474,1,0,0:0:0:0:
320,192,32568,1,0,0:0:0:0:
192,192,32568,128,0,32756:0:0:0:0:
64,192,32662,128,0,32756:0:0:0:0:
448,192,32756,128,0,32943:0:0:0:0:
320,192,32756,128,0,32849:0:0:0:0:
192,192,32849,1,0,0:0:0:0:
64,192,32943,128,0,33131:0:0:0:0:
320,192,32943,1,0,0:0:0:0:
192,192,33037,128,0,33131:0:0:0:0:
448,192,33037,1,0,0:0:0:0:
320,192,33131,1,0,0:0:0:0:
448,192,33131,1,0,0:0:0:0:
192,192,33224,1,0,0:0:0:0:
320,192,33318,1,0,0:0:0:0:
64,192,33318,1,0,0:0:0:0:
192,192,33412,1,0,0:0:0:0:
64,192,33506,1,0,0:0:0:0:
448,192,33506,128,0,33881:0:0:0:0:
320,192,33506,128,0,33599:0:0:0:0:
192,192,33693,1,0,0:0:0:0:
64,192,33693,128,0,33787:0:0:0:0:
320,192,33787,128,0,33881:0:0:0:0:
192,192,33881,1,0,0:0:0:0:
64,192,33881,1,0,0:0:0:0:
320,192,33974,1,0,0:0:0:0:
64,192,34068,1,0,0:0:0:0:
448,192,34068,1,0,0:0:0:0:
192,192,34162,1,0,0:0:0:0:
448,192,34256,1,0,0:0:0:0:
320,192,34256,1,0,0:0:0:0:
192,192,34349,1,0,0:0:0:0:
64,192,34443,1,0,0:0:0:0:
320,192,34443,1,0,0:0:0:0:
192,192,34537,1,0,0:0:0:0:
448,192,34631,1,0,0:0:0:0:
64,192,34631,1,0,0:0:0:0:
320,192,34724,1,0,0:0:0:0:
192,192,34818,1,0,0:0:0:0:
64,192,34818,1,0,0:0:0:0:
320,192,34912,1,0,0:0:0:0:
64,192,35006,1,0,0:0:0:0:
448,192,35006,1,0,0:0:0:0:
192,192,35099,1,0,0:0:0:0:
320,192,35193,1,0,0:0:0:0:
448,192,35193,1,0,0:0:0:0:
192,192,35287,1,0,0:0:0:0:
448,192,35381,128,0,35451:0:0:0:0:
320,192,35404,128,0,35474:0:0:0:0:
192,192,35427,128,0,35498:0:0:0:0:
64,192,35451,128,0,35521:0:0:0:0:
448,192,35498,128,0,35568:0:0:0:0:
320,192,35521,128,0,35591:0:0:0:0:
192,192,35545,128,0,35615:0:0:0:0:
64,192,35568,128,0,35638:0:0:0:0:
448,192,35615,128,0,35685:0:0:0:0:
320,192,35638,128,0,35709:0:0:0:0:
192,192,35662,128,0,35732:0:0:0:0:
64,192,35685,128,0,35756:0:0:0:0:
448,192,35732,128,0,35802:0:0:0:0:
320,192,35756,128,0,35826:0:0:0:0:
192,192,35779,128,0,35849:0:0:0:0:
64,192,35802,128,0,35873:0:0:0:0:
448,192,35849,128,0,35920:0:0:0:0:
320,192,35873,128,0,35943:0:0:0:0:
192,192,35896,128,0,35966:0:0:0:0:
64,192,35920,128,0,35990:0:0:0:0:
448,192,35966,128,0,36037:0:0:0:0:
320,192,35990,128,0,36060:0:0:0:0:
192,192,36013,128,0,36084:0:0:0:0:
64,192,36037,128,0,36107:0:0:0:0:
448,192,36084,128,0,36154:0:0:0:0:
320,192,36107,128,0,36177:0:0:0:0:
192,192,36131,128,0,36201:0:0:0:0:
64,192,36154,128,0,36224:0:0:0:0:
448,192,36201,128,0,36271:0:0:0:0:
320,192,36224,128,0,36295:0:0:0:0:
192,192,36248,128,0,36318:0:0:0:0:
64,192,36271,128,0,36341:0:0:0:0:
448,192,36318,128,0,36388:0:0:0:0:
320,192,36341,128,0,36412:0:0:0:0:
192,192,36365,128,0,36435:0:0:0:0:
64,192,36388,128,0,36459:0:0:0:0:
320,192,36506,1,0,0:0:0:0:
448,192,36506,1,0,0:0:0:0:
320,192,36693,1,0,0:0:0:0:
448,192,36693,1,0,0:0:0:0:
448,192,36881,128,0,37068:0:0:0:0:
320,192,36881,1,0,0:0:0:0:
192,192,36881,1,0,0:0:0:0:
64,192,36974,1,0,0:0:0:0:
320,192,37068,128,0,37256:0:0:0:0:
192,192,37068,1,0,0:0:0:0:
64,192,37162,128,0,37256:0:0:0:0:
192,192,37256,128,0,37443:0:0:0:0:
448,192,37256,1,0,0:0:0:0:
64,192,37349,1,0,0:0:0:0:
64,192,37443,128,0,37537:0:0:0:0:
320,192,37443,1,0,0:0:0:0:
192,192,37537,128,0,37631:0:0:0:0:
448,192,37537,1,0,0:0:0:0:
320,192,37631,128,0,37818:0:0:0:0:
64,192,37631,1,0,0:0:0:0:
192,192,37724,1,0,0:0:0:0:
448,192,37818,1,0,0:0:0:0:
64,192,37818,1,0,0:0:0:0:
192,192,37912,1,0,0:0:0:0:
448,192,38006,1,0,0:0:0:0:
64,192,38006,128,0,38193:0:0:0:0:
320,192,38006,1,0,0:0:0:0:
192,192,38099,128,0,38193:0:0:0:0:
448,192,38193,128,0,38381:0:0:0:0:
320,192,38193,1,0,0:0:0:0:
64,192,38287,1,0,0:0:0:0:
320,192,38381,128,0,38568:0:0:0:0:
192,192,38381,1,0,0:0:0:0:
64,192,38474,1,0,0:0:0:0:
448,192,38568,1,0,0:0:0:0:
192,192,38568,128,0,38756:0:0:0:0:
320,192,38662,1,0,0:0:0:0:
64,192,38756,128,0,38943:0:0:0:0:
320,192,38756,128,0,38849:0:0:0:0:
448,192,38849,128,0,38943:0:0:0:0:
320,192,38943,1,0,0:0:0:0:
192,192,38943,128,0,39037:0:0:0:0:
64,192,39037,128,0,39131:0:0:0:0:
448,192,39037,1,0,0:0:0:0:
320,192,39131,128,0,39318:0:0:0:0:
192,192,39131,128,0,39224:0:0:0:0:
64,192,39224,1,0,0:0:0:0:
64,192,39318,128,0,39506:0:0:0:0:
192,192,39318,128,0,39412:0:0:0:0:
448,192,39318,1,0,0:0:0:0:
320,192,39412,1,0,0:0:0:0:
448,192,39506,128,0,39693:0:0:0:0:
320,192,39506,128,0,39599:0:0:0:0:
192,192,39506,1,0,0:0:0:0:
64,192,39599,1,0,0:0:0:0:
64,192,39693,128,0,39881:0:0:0:0:
192,192,39693,128,0,39787:0:0:0:0:
320,192,39693,1,0,0:0:0:0:
448,192,39787,1,0,0:0:0:0:
320,192,39881,128,0,40068:0:0:0:0:
448,192,39881,128,0,39974:0:0:0:0:
192,192,39881,1,0,0:0:0:0:
64,192,39974,128,0,40068:0:0:0:0:
192,192,40068,128,0,40256:0:0:0:0:
448,192,40068,1,0,0:0:0:0:
320,192,40162,1,0,0:0:0:0:
64,192,40256,1,0,0:0:0:0:
448,192,40256,128,0,40443:0:0:0:0:
320,192,40349,1,0,0:0:0:0:
192,192,40443,1,0,0:0:0:0:
64,192,40443,1,0,0:0:0:0:
320,192,40537,1,0,0:0:0:0:
192,192,40631,128,0,40818:0:0:0:0:
448,192,40631,1,0,0:0:0:0:
64,192,40631,1,0,0:0:0:0:
320,192,40724,1,0,0:0:0:0:
64,192,40818,128,0,41006:0:0:0:0:
448,192,40818,128,0,40912:0:0:0:0:
192,192,40912,128,0,41006:0:0:0:0:
320,192,41006,128,0,41099:0:0:0:0:
448,192,41006,128,0,41193:0:0:0:0:
192,192,41099,1,0,0:0:0:0:
320,192,41193,1,0,0:0:0:0:
64,192,41193,128,0,41381:0:0:0:0:
192,192,41287,1,0,0:0:0:0:
192,192,41381,128,0,41568:0:0:0:0:
448,192,41381,1,0,0:0:0:0:
320,192,41381,1,0,0:0:0:0:
64,192,41474,1,0,0:0:0:0:
448,192,41568,128,0,41662:0:0:0:0:
320,192,41568,1,0,0:0:0:0:
64,192,41662,128,0,41756:0:0:0:0:
320,192,41756,128,0,41943:0:0:0:0:
192,192,41756,1,0,0:0:0:0:
448,192,41756,1,0,0:0:0:0:
64,192,41849,1,0,0:0:0:0:
192,192,41943,128,0,42131:0:0:0:0:
448,192,41943,1,0,0:0:0:0:
320,192,42037,1,0,0:0:0:0:
448,192,42131,128,0,42693:0:0:0:0:
64,192,42131,1,0,0:0:0:0:
320,192,42131,128,0,42224:0:0:0:0:
192,192,42224,1,0,0:0:0:0:
64,192,42318,1,0,0:0:0:0:
192,192,42412,1,0,0:0:0:0:
320,192,42506,1,0,0:0:0:0:
64,192,42506,1,0,0:0:0:0:
192,192,42599,1,0,0:0:0:0:
320,192,42693,1,0,0:0:0:0:
192,192,42787,1,0,0:0:0:0:
192,192,42881,128,0,43068:0:0:0:0:
64,192,42881,1,0,0:0:0:0:
448,192,42881,1,0,0:0:0:0:
320,192,42974,1,0,0:0:0:0:
448,192,43068,128,0,43162:0:0:0:0:
64,192,43068,1,0,0:0:0:0:
320,192,43162,128,0,43256:0:0:0:0:
64,192,43256,128,0,43443:0:0:0:0:
192,192,43256,128,0,43349:0:0:0:0:
448,192,43349,1,0,0:0:0:0:
192,192,43443,1,0,0:0:0:0:
320,192,43443,128,0,43631:0:0:0:0:
64,192,43537,1,0,0:0:0:0:
192,192,43631,1,0,0:0:0:0:
448,192,43631,128,0,43818:0:0:0:0:
320,192,43724,1,0,0:0:0:0:
64,192,43818,1,0,0:0:0:0:
192,192,43912,1,0,0:0:0:0:
320,192,44006,1,0,0:0:0:0:
448,192,44006,128,0,44193:0:0:0:0:
64,192,44006,1,0,0:0:0:0:
192,192,44099,128,0,44193:0:0:0:0:
64,192,44193,128,0,44381:0:0:0:0:
320,192,44193,128,0,44287:0:0:0:0:
192,192,44287,128,0,44381:0:0:0:0:
448,192,44381,128,0,44568:0:0:0:0:
320,192,44381,128,0,44474:0:0:0:0:
64,192,44474,1,0,0:0:0:0:
192,192,44568,1,0,0:0:0:0:
320,192,44662,1,0,0:0:0:0:
448,192,44756,1,0,0:0:0:0:
64,192,44756,128,0,44943:0:0:0:0:
320,192,44849,1,0,0:0:0:0:
192,192,44943,1,0,0:0:0:0:
448,192,44943,128,0,45131:0:0:0:0:
320,192,45037,128,0,45131:0:0:0:0:
192,192,45131,128,0,45318:0:0:0:0:
64,192,45131,128,0,45318:0:0:0:0:
448,192,45318,1,0,0:0:0:0:
320,192,45318,128,0,45506:0:0:0:0:
64,192,45506,128,0,45693:0:0:0:0:
192,192,45506,128,0,45693:0:0:0:0:
448,192,45693,1,0,0:0:0:0:
320,192,45693,128,0,45881:0:0:0:0:
64,192,45881,128,0,46068:0:0:0:0:
192,192,45881,1,0,0:0:0:0:
448,192,45974,128,0,46068:0:0:0:0:
192,192,46068,128,0,46256:0:0:0:0:
320,192,46068,1,0,0:0:0:0:
64,192,46162,1,0,0:0:0:0:
448,192,46256,1,0,0:0:0:0:
320,192,46256,128,0,46443:0:0:0:0:
64,192,46349,128,0,46443:0:0:0:0:
448,192,46443,128,0,46631:0:0:0:0:
192,192,46443,1,0,0:0:0:0:
320,192,46537,1,0,0:0:0:0:
64,192,46631,1,0,0:0:0:0:
192,192,46631,1,0,0:0:0:0:
320,192,46724,1,0,0:0:0:0:
448,192,46818,128,0,47006:0:0:0:0:
64,192,46818,1,0,0:0:0:0:
192,192,46912,1,0,0:0:0:0:
320,192,47006,1,0,0:0:0:0:
64,192,47006,128,0,47193:0:0:0:0:
192,192,47099,128,0,47193:0:0:0:0:
320,192,47193,128,0,47287:0:0:0:0:
448,192,47287,1,0,0:0:0:0:
192,192,47381,1,0,0:0:0:0:
64,192,47381,1,0,0:0:0:0:
320,192,47474,1,0,0:0:0:0:
64,192,47568,1,0,0:0:0:0:
192,192,47662,1,0,0:0:0:0:
320,192,47756,1,0,0:0:0:0:
448,192,47756,1,0,0:0:0:0:
192,192,47849,1,0,0:0:0:0:
64,192,47943,1,0,0:0:0:0:
320,192,48037,1,0,0:0:0:0:
64,192,48131,1,0,0:0:0:0:
448,192,48131,1,0,0:0:0:0:
192,192,48224,1,0,0:0:0:0:
320,192,48318,1,0,0:0:0:0:
448,192,48412,1,0,0:0:0:0:
320,192,48506,1,0,0:0:0:0:
192,192,48506,1,0,0:0:0:0:
64,192,48693,1,0,0:0:0:0:
448,192,48693,1,0,0:0:0:0:
448,192,48881,128,0,49068:0:0:0:0:
192,192,48881,1,0,0:0:0:0:
64,192,48881,1,0,0:0:0:0:
320,192,48974,128,0,49068:0:0:0:0:
64,192,49068,128,0,49443:0:0:0:0:
192,192,49068,128,0,49162:0:0:0:0:
320,192,49162,128,0,49256:0:0:0:0:
192,192,49256,1,0,0:0:0:0:
448,192,49256,128,0,49349:0:0:0:0:
320,192,49349,128,0,49443:0:0:0:0:
192,192,49443,128,0,49631:0:0:0:0:
448,192,49443,1,0,0:0:0:0:
320,192,49537,128,0,49631:0:0:0:0:
64,192,49631,1,0,0:0:0:0:
448,192,49631,128,0,49818:0:0:0:0:
320,192,49724,1,0,0:0:0:0:
64,192,49818,128,0,50006:0:0:0:0:
192,192,49818,1,0,0:0:0:0:
320,192,49912,128,0,50006:0:0:0:0:
448,192,50006,128,0,50193:0:0:0:0:
192,192,50006,1,0,0:0:0:0:
320,192,50099,1,0,0:0:0:0:
64,192,50193,128,0,50381:0:0:0:0:
192,192,50193,128,0,50287:0:0:0:0:
320,192,50287,1,0,0:0:0:0:
448,192,50381,1,0,0:0:0:0:
320,192,50381,128,0,50756:0:0:0:0:
192,192,50474,1,0,0:0:0:0:
64,192,50568,1,0,0:0:0:0:
448,192,50568,128,0,50662:0:0:0:0:
192,192,50662,128,0,50756:0:0:0:0:
64,192,50756,128,0,50943:0:0:0:0:
448,192,50756,128,0,50849:0:0:0:0:
320,192,50849,128,0,50943:0:0:0:0:
192,192,50943,128,0,51131:0:0:0:0:
64,192,51037,1,0,0:0:0:0:
448,192,51131,128,0,51318:0:0:0:0:
320,192,51131,128,0,51318:0:0:0:0:
192,192,51318,1,0,0:0:0:0:
64,192,51318,1,0,0:0:0:0:
192,192,51506,128,0,51693:0:0:0:0:
64,192,51506,128,0,51693:0:0:0:0:
320,192,51693,1,0,0:0:0:0:
448,192,51693,1,0,0:0:0:0:
64,192,51881,128,0,52068:0:0:0:0:
448,192,51881,1,0,0:0:0:0:
320,192,51881,1,0,0:0:0:0:
192,192,51974,1,0,0:0:0:0:
320,192,52068,1,0,0:0:0:0:
448,192,52068,128,0,52443:0:0:0:0:
192,192,52162,128,0,52256:0:0:0:0:
64,192,52256,1,0,0:0:0:0:
320,192,52256,128,0,52349:0:0:0:0:
192,192,52349,1,0,0:0:0:0:
64,192,52443,128,0,52631:0:0:0:0:
192,192,52443,128,0,52537:0:0:0:0:
320,192,52537,1,0,0:0:0:0:
448,192,52631,1,0,0:0:0:0:
192,192,52631,128,0,52724:0:0:0:0:
320,192,52724,128,0,52818:0:0:0:0:
448,192,52818,128,0,53006:0:0:0:0:
64,192,52818,1,0,0:0:0:0:
192,192,52912,1,0,0:0:0:0:
192,192,53006,128,0,53193:0:0:0:0:
320,192,53006,1,0,0:0:0:0:
64,192,53099,1,0,0:0:0:0:
448,192,53193,128,0,53287:0:0:0:0:
320,192,53287,128,0,53381:0:0:0:0:
64,192,53381,128,0,53568:0:0:0:0:
192,192,53381,128,0,53474:0:0:0:0:
448,192,53568,1,0,0:0:0:0:
320,192,53568,128,0,53756:0:0:0:0:
192,192,53662,128,0,53756:0:0:0:0:
64,192,53756,1,0,0:0:0:0:
448,192,53756,128,0,53943:0:0:0:0:
192,192,53849,1,0,0:0:0:0:
64,192,53943,128,0,54131:0:0:0:0:
320,192,53943,1,0,0:0:0:0:
192,192,54037,128,0,54224:0:0:0:0:
320,192,54131,128,0,54318:0:0:0:0:
448,192,54131,128,0,54224:0:0:0:0:
64,192,54224,128,0,54412:0:0:0:0:
192,192,54318,128,0,54412:0:0:0:0:
448,192,54318,128,0,54506:0:0:0:0:
320,192,54412,128,0,54599:0:0:0:0:
192,192,54506,128,0,54599:0:0:0:0:
64,192,54506,128,0,54693:0:0:0:0:
448,192,54599,128,0,54787:0:0:0:0:
192,192,54693,128,0,54787:0:0:0:0:
320,192,54693,128,0,54881:0:0:0:0:
64,192,54787,128,0,54974:0:0:0:0:
192,192,54881,128,0,54974:0:0:0:0:
448,192,54881,128,0,55068:0:0:0:0:
320,192,54974,128,0,55068:0:0:0:0:
192,192,55068,128,0,55256:0:0:0:0:
64,192,55068,128,0,55162:0:0:0:0:
320,192,55162,128,0,55256:0:0:0:0:
64,192,55256,1,0,0:0:0:0:
448,192,55256,128,0,55443:0:0:0:0:
320,192,55349,1,0,0:0:0:0:
192,192,55443,1,0,0:0:0:0:
64,192,55443,1,0,0:0:0:0:
320,192,55537,1,0,0:0:0:0:
448,192,55631,1,0,0:0:0:0:
64,192,55631,128,0,55818:0:0:0:0:
192,192,55631,128,0,55724:0:0:0:0:
320,192,55724,1,0,0:0:0:0:
448,192,55818,128,0,56006:0:0:0:0:
64,192,55912,1,0,0:0:0:0:
320,192,56006,1,0,0:0:0:0:
192,192,56006,128,0,56193:0:0:0:0:
64,192,56099,1,0,0:0:0:0:
448,192,56193,128,0,56381:0:0:0:0:
320,192,56193,128,0,56287:0:0:0:0:
192,192,56287,1,0,0:0:0:0:
320,192,56381,128,0,56568:0:0:0:0:
64,192,56381,1,0,0:0:0:0:
192,192,56474,1,0,0:0:0:0:
448,192,56568,1,0,0:0:0:0:
64,192,56568,128,0,56662:0:0:0:0:
192,192,56662,128,0,56756:0:0:0:0:
448,192,56756,128,0,56943:0:0:0:0:
320,192,56756,1,0,0:0:0:0:
64,192,56756,1,0,0:0:0:0:
192,192,56849,1,0,0:0:0:0:
320,192,56943,1,0,0:0:0:0:
64,192,56943,128,0,57131:0:0:0:0:
192,192,57037,128,0,57131:0:0:0:0:
448,192,57131,128,0,57318:0:0:0:0:
320,192,57131,128,0,57318:0:0:0:0:
192,192,57318,1,0,0:0:0:0:
64,192,57318,128,0,57506:0:0:0:0:
320,192,57506,128,0,57693:0:0:0:0:
448,192,57506,128,0,57693:0:0:0:0:
192,192,57693,1,0,0:0:0:0:
64,192,57693,128,0,57881:0:0:0:0:
448,192,57881,128,0,58068:0:0:0:0:
320,192,57881,1,0,0:0:0:0:
192,192,57881,1,0,0:0:0:0:
64,192,57974,1,0,0:0:0:0:
320,192,58068,1,0,0:0:0:0:
192,192,58068,128,0,58256:0:0:0:0:
64,192,58162,128,0,58256:0:0:0:0:
320,192,58256,128,0,58443:0:0:0:0:
448,192,58256,128,0,58349:0:0:0:0:
192,192,58349,1,0,0:0:0:0:
64,192,58443,1,0,0:0:0:0:
192,192,58537,1,0,0:0:0:0:
448,192,58631,1,0,0:0:0:0:
320,192,58631,1,0,0:0:0:0:
64,192,58631,128,0,58818:0:0:0:0:
192,192,58724,1,0,0:0:0:0:
320,192,58818,1,0,0:0:0:0:
448,192,58912,128,0,59006:0:0:0:0:
192,192,59006,1,0,0:0:0:0:
64,192,59006,1,0,0:0:0:0:
320,192,59006,128,0,59193:0:0:0:0:
448,192,59099,1,0,0:0:0:0:
64,192,59193,128,0,59287:0:0:0:0:
192,192,59193,1,0,0:0:0:0:
192,192,59287,128,0,59381:0:0:0:0:
448,192,59381,128,0,59568:0:0:0:0:
320,192,59381,128,0,59474:0:0:0:0:
64,192,59474,1,0,0:0:0:0:
192,192,59568,1,0,0:0:0:0:
320,192,59662,1,0,0:0:0:0:
448,192,59756,1,0,0:0:0:0:
64,192,59756,128,0,59943:0:0:0:0:
192,192,59756,1,0,0:0:0:0:
320,192,59849,128,0,59943:0:0:0:0:
192,192,59943,128,0,60131:0:0:0:0:
448,192,59943,1,0,0:0:0:0:
64,192,60037,128,0,60131:0:0:0:0:
448,192,60131,128,0,60318:0:0:0:0:
320,192,60131,128,0,60177:0:0:0:0:
192,192,60224,1,0,0:0:0:0:
64,192,60318,1,0,0:0:0:0:
320,192,60318,128,0,60506:0:0:0:0:
448,192,60412,128,0,60506:0:0:0:0:
192,192,60506,128,0,60693:0:0:0:0:
64,192,60506,128,0,60552:0:0:0:0:
448,192,60693,1,0,0:0:0:0:
320,192,60693,1,0,0:0:0:0:
320,192,60881,1,0,0:0:0:0:
448,192,60881,1,0,0:0:0:0:
64,192,60881,128,0,60974:0:0:0:0:
192,192,60974,128,0,61068:0:0:0:0:
64,192,61068,128,0,61162:0:0:0:0:
448,192,61068,128,0,61256:0:0:0:0:
320,192,61162,128,0,61256:0:0:0:0:
192,192,61256,128,0,61349:0:0:0:0:
64,192,61256,128,0,61349:0:0:0:0:
320,192,61349,128,0,61443:0:0:0:0:
448,192,61443,128,0,61537:0:0:0:0:
64,192,61443,128,0,61631:0:0:0:0:
192,192,61537,128,0,61631:0:0:0:0:
320,192,61631,128,0,61724:0:0:0:0:
448,192,61631,128,0,61818:0:0:0:0:
192,192,61724,128,0,61818:0:0:0:0:
64,192,61818,128,0,61912:0:0:0:0:
320,192,61818,128,0,61912:0:0:0:0:
192,192,61912,128,0,62099:0:0:0:0:
448,192,62006,128,0,62099:0:0:0:0:
64,192,62006,128,0,62193:0:0:0:0:
320,192,62099,128,0,62193:0:0:0:0:
192,192,62193,128,0,62287:0:0:0:0:
448,192,62193,128,0,62381:0:0:0:0:
320,192,62287,128,0,62381:0:0:0:0:
192,192,62381,128,0,62474:0:0:0:0:
64,192,62381,128,0,62474:0:0:0:0:
320,192,62474,128,0,62568:0:0:0:0:
448,192,62568,128,0,62662:0:0:0:0:
64,192,62568,128,0,62756:0:0:0:0:
192,192,62662,128,0,62756:0:0:0:0:
320,192,62756,128,0,62943:0:0:0:0:
448,192,62756,128,0,62849:0:0:0:0:
192,192,62849,128,0,62943:0:0:0:0:
64,192,62943,128,0,63037:0:0:0:0:
448,192,62943,128,0,63037:0:0:0:0:
192,192,63037,128,0,63131:0:0:0:0:
320,192,63131,128,0,63224:0:0:0:0:
448,192,63131,128,0,63318:0:0:0:0:
64,192,63224,128,0,63318:0:0:0:0:
320,192,63318,128,0,63412:0:0:0:0:
192,192,63318,128,0,63506:0:0:0:0:
64,192,63412,128,0,63506:0:0:0:0:
448,192,63506,128,0,63693:0:0:0:0:
320,192,63506,128,0,63599:0:0:0:0:
192,192,63599,128,0,63693:0:0:0:0:
64,192,63693,128,0,63881:0:0:0:0:
320,192,63693,128,0,63787:0:0:0:0:
192,192,63787,128,0,63881:0:0:0:0:
448,192,63881,128,0,63974:0:0:0:0:
320,192,63881,128,0,64068:0:0:0:0:
192,192,63974,128,0,64068:0:0:0:0:
64,192,64068,128,0,64256:0:0:0:0:
448,192,64068,128,0,64162:0:0:0:0:
192,192,64162,128,0,64256:0:0:0:0:
448,192,64256,128,0,64443:0:0:0:0:
320,192,64256,128,0,64349:0:0:0:0:
64,192,64349,128,0,64443:0:0:0:0:
192,192,64443,128,0,64631:0:0:0:0:
320,192,64443,128,0,64537:0:0:0:0:
64,192,64537,128,0,64631:0:0:0:0:
448,192,64631,128,0,64818:0:0:0:0:
320,192,64631,128,0,64724:0:0:0:0:
192,192,64724,128,0,64818:0:0:0:0:
64,192,64818,128,0,65006:0:0:0:0:
320,192,64818,128,0,64912:0:0:0:0:
192,192,64912,128,0,65006:0:0:0:0:
448,192,65006,128,0,65193:0:0:0:0:
320,192,65006,128,0,65099:0:0:0:0:
64,192,65099,128,0,65193:0:0:0:0:
192,192,65193,128,0,65381:0:0:0:0:
320,192,65193,128,0,65287:0:0:0:0:
448,192,65287,128,0,65381:0:0:0:0:
64,192,65381,128,0,65568:0:0:0:0:
320,192,65381,128,0,65474:0:0:0:0:
192,192,65474,128,0,65568:0:0:0:0:
448,192,65568,128,0,65756:0:0:0:0:
320,192,65568,128,0,65662:0:0:0:0:
192,192,65662,128,0,65756:0:0:0:0:
64,192,65756,128,0,65943:0:0:0:0:
320,192,65756,128,0,65849:0:0:0:0:
448,192,65849,128,0,65943:0:0:0:0:
192,192,65943,128,0,66037:0:0:0:0:
320,192,65943,128,0,66131:0:0:0:0:
448,192,66037,128,0,66131:0:0:0:0:
192,192,66131,128,0,66224:0:0:0:0:
64,192,66131,128,0,66318:0:0:0:0:
320,192,66224,128,0,66318:0:0:0:0:
192,192,66318,128,0,66506:0:0:0:0:
448,192,66318,128,0,66412:0:0:0:0:
320,192,66412,128,0,66506:0:0:0:0:
64,192,66506,128,0,66599:0:0:0:0:
448,192,66506,128,0,66693:0:0:0:0:
192,192,66599,128,0,66693:0:0:0:0:
320,192,66693,128,0,66881:0:0:0:0:
64,192,66693,128,0,66787:0:0:0:0:
448,192,66787,128,0,66881:0:0:0:0:
192,192,66881,128,0,66974:0:0:0:0:
64,192,66881,128,0,67068:0:0:0:0:
320,192,66974,128,0,67068:0:0:0:0:
192,192,67068,128,0,67256:0:0:0:0:
448,192,67068,128,0,67162:0:0:0:0:
64,192,67162,128,0,67256:0:0:0:0:
320,192,67256,128,0,67443:0:0:0:0:
448,192,67256,128,0,67349:0:0:0:0:
192,192,67349,128,0,67443:0:0:0:0:
64,192,67443,128,0,67631:0:0:0:0:
448,192,67443,128,0,67537:0:0:0:0:
192,192,67537,128,0,67631:0:0:0:0:
320,192,67631,128,0,67818:0:0:0:0:
448,192,67631,128,0,67724:0:0:0:0:
192,192,67724,128,0,67818:0:0:0:0:
64,192,67818,128,0,68006:0:0:0:0:
448,192,67818,128,0,67912:0:0:0:0:
192,192,67912,128,0,68006:0:0:0:0:
320,192,68006,128,0,68193:0:0:0:0:
448,192,68006,128,0,68099:0:0:0:0:
192,192,68099,128,0,68193:0:0:0:0:
64,192,68193,128,0,68381:0:0:0:0:
448,192,68193,128,0,68287:0:0:0:0:
320,192,68287,128,0,68381:0:0:0:0:
192,192,68381,128,0,68568:0:0:0:0:
448,192,68381,128,0,68474:0:0:0:0:
64,192,68474,128,0,68568:0:0:0:0:
320,192,68568,128,0,68662:0:0:0:0:
448,192,68568,128,0,68756:0:0:0:0:
192,192,68662,128,0,68756:0:0:0:0:
64,192,68756,128,0,68849:0:0:0:0:
320,192,68756,128,0,68943:0:0:0:0:
448,192,68849,128,0,68943:0:0:0:0:
192,192,68943,128,0,69131:0:0:0:0:
64,192,68943,128,0,69037:0:0:0:0:
320,192,69037,128,0,69131:0:0:0:0:
448,192,69131,128,0,69318:0:0:0:0:
64,192,69131,128,0,69224:0:0:0:0:
320,192,69224,128,0,69318:0:0:0:0:
192,192,69318,128,0,69506:0:0:0:0:
64,192,69318,128,0,69412:0:0:0:0:
320,192,69412,128,0,69506:0:0:0:0:
64,192,69506,128,0,69693:0:0:0:0:
448,192,69506,128,0,69599:0:0:0:0:
192,192,69599,128,0,69693:0:0:0:0:
320,192,69693,128,0,69881:0:0:0:0:
448,192,69693,128,0,69787:0:0:0:0:
192,192,69787,128,0,69881:0:0:0:0:
64,192,69881,128,0,69974:0:0:0:0:
448,192,69881,128,0,70068:0:0:0:0:
192,192,69974,128,0,70068:0:0:0:0:
320,192,70068,128,0,70256:0:0:0:0:
64,192,70068,128,0,70162:0:0:0:0:
448,192,70162,128,0,70256:0:0:0:0:
64,192,70256,128,0,70443:0:0:0:0:
192,192,70256,128,0,70349:0:0:0:0:
320,192,70349,128,0,70443:0:0:0:0:
448,192,70443,128,0,70631:0:0:0:0:
192,192,70443,128,0,70537:0:0:0:0:
320,192,70537,128,0,70631:0:0:0:0:
64,192,70631,128,0,70724:0:0:0:0:
192,192,70631,128,0,70818:0:0:0:0:
320,192,70724,128,0,70818:0:0:0:0:
448,192,70818,128,0,71006:0:0:0:0:
64,192,70818,128,0,70912:0:0:0:0:
192,192,70912,128,0,71006:0:0:0:0:
320,192,71006,128,0,71193:0:0:0:0:
64,192,71006,128,0,71099:0:0:0:0:
192,192,71099,128,0,71193:0:0:0:0:
448,192,71193,128,0,71381:0:0:0:0:
64,192,71193,128,0,71287:0:0:0:0:
320,192,71287,128,0,71381:0:0:0:0:
192,192,71381,1,0,0:0:0:0:
64,192,71381,1,0,0:0:0:0:
320,192,71474,1,0,0:0:0:0:
64,192,71568,1,0,0:0:0:0:
448,192,71568,1,0,0:0:0:0:
192,192,71662,1,0,0:0:0:0:
320,192,71756,1,0,0:0:0:0:
448,192,71756,1,0,0:0:0:0:
192,192,71849,1,0,0:0:0:0:
64,192,71943,1,0,0:0:0:0:
320,192,71943,1,0,0:0:0:0:
192,192,72037,1,0,0:0:0:0:
320,192,72131,1,0,0:0:0:0:
448,192,72131,1,0,0:0:0:0:
192,192,72224,1,0,0:0:0:0:
64,192,72318,1,0,0:0:0:0:
448,192,72318,1,0,0:0:0:0:
320,192,72412,1,0,0:0:0:0:
192,192,72506,1,0,0:0:0:0:
64,192,72506,1,0,0:0:0:0:
448,192,72599,1,0,0:0:0:0:
320,192,72693,1,0,0:0:0:0:
192,192,72693,1,0,0:0:0:0:
64,192,72787,1,0,0:0:0:0:
448,192,72881,128,0,73256:0:0:0:0:
320,192,72881,1,0,0:0:0:0:
192,192,73068,1,0,0:0:0:0:
64,192,73256,128,0,73631:0:0:0:0:
320,192,73256,1,0,0:0:0:0:
192,192,73256,1,0,0:0:0:0:
192,192,73443,1,0,0:0:0:0:
320,192,73631,128,0,74006:0:0:0:0:
448,192,73631,1,0,0:0:0:0:
192,192,73631,1,0,0:0:0:0:
192,192,73818,1,0,0:0:0:0:
192,192,74006,128,0,74381:0:0:0:0:
64,192,74006,1,0,0:0:0:0:
448,192,74006,1,0,0:0:0:0:
320,192,74193,1,0,0:0:0:0:
64,192,74381,128,0,75318:0:0:0:0:
448,192,74381,1,0,0:0:0:0:
320,192,74381,1,0,0:0:0:0:
320,192,74568,1,0,0:0:0:0:
192,192,74756,1,0,0:0:0:0:
448,192,74756,1,0,0:0:0:0:
320,192,74943,1,0,0:0:0:0:
192,192,75131,1,0,0:0:0:0:
320,192,75131,1,0,0:0:0:0:
448,192,75318,1,0,0:0:0:0:
320,192,75506,128,0,75693:0:0:0:0:
192,192,75506,1,0,0:0:0:0:
64,192,75506,1,0,0:0:0:0:
448,192,75693,1,0,0:0:0:0:
192,192,75693,128,0,75881:0:0:0:0:
448,192,75881,128,0,76256:0:0:0:0:
64,192,75881,1,0,0:0:0:0:
320,192,75881,1,0,0:0:0:0:
192,192,76068,1,0,0:0:0:0:
320,192,76256,128,0,76631:0:0:0:0:
64,192,76256,1,0,0:0:0:0:
192,192,76256,1,0,0:0:0:0:
448,192,76443,1,0,0:0:0:0:
64,192,76631,1,0,0:0:0:0:
448,192,76631,1,0,0:0:0:0:
192,192,76631,128,0,77006:0:0:0:0:
320,192,76818,1,0,0:0:0:0:
320,192,77006,128,0,77381:0:0:0:0:
64,192,77006,1,0,0:0:0:0:
448,192,77006,1,0,0:0:0:0:
192,192,77193,1,0,0:0:0:0:
448,192,77381,128,0,78506:0:0:0:0:
64,192,77381,128,0,77474:0:0:0:0:
192,192,77381,1,0,0:0:0:0:
192,192,77568,128,0,77662:0:0:0:0:
320,192,77756,128,0,77849:0:0:0:0:
64,192,77756,1,0,0:0:0:0:
64,192,77943,128,0,78037:0:0:0:0:
192,192,78131,128,0,78224:0:0:0:0:
320,192,78131,1,0,0:0:0:0:
320,192,78318,128,0,78412:0:0:0:0:
192,192,78506,128,0,78599:0:0:0:0:
64,192,78506,1,0,0:0:0:0:
320,192,78693,128,0,78787:0:0:0:0:
192,192,78881,128,0,79631:0:0:0:0:
448,192,78881,1,0,0:0:0:0:
64,192,78881,128,0,78974:0:0:0:0:
320,192,79068,128,0,79162:0:0:0:0:
64,192,79256,128,0,79349:0:0:0:0:
448,192,79256,1,0,0:0:0:0:
320,192,79443,128,0,79537:0:0:0:0:
64,192,79631,128,0,80381:0:0:0:0:
448,192,79631,128,0,79724:0:0:0:0:
320,192,79631,1,0,0:0:0:0:
192,192,79818,128,0,79912:0:0:0:0:
320,192,80006,128,0,80099:0:0:0:0:
448,192,80006,1,0,0:0:0:0:
192,192,80193,128,0,80287:0:0:0:0:
320,192,80381,128,0,80756:0:0:0:0:
448,192,80381,128,0,80474:0:0:0:0:
192,192,80381,1,0,0:0:0:0:
192,192,80568,128,0,80662:0:0:0:0:
192,192,80756,128,0,81131:0:0:0:0:
64,192,80756,128,0,80849:0:0:0:0:
448,192,80756,1,0,0:0:0:0:
320,192,80943,128,0,81037:0:0:0:0:
448,192,81131,128,0,81506:0:0:0:0:
64,192,81131,128,0,81224:0:0:0:0:
320,192,81131,1,0,0:0:0:0:
192,192,81318,128,0,81412:0:0:0:0:
320,192,81506,128,0,81693:0:0:0:0:
64,192,81506,128,0,81599:0:0:0:0:
192,192,81506,1,0,0:0:0:0:
64,192,81693,128,0,81881:0:0:0:0:
192,192,81693,128,0,81787:0:0:0:0:
192,192,81881,128,0,82256:0:0:0:0:
448,192,81881,128,0,81974:0:0:0:0:
320,192,81881,1,0,0:0:0:0:
320,192,82068,128,0,82162:0:0:0:0:
320,192,82256,128,0,82631:0:0:0:0:
64,192,82256,128,0,82349:0:0:0:0:
448,192,82256,1,0,0:0:0:0:
192,192,82443,128,0,82537:0:0:0:0:
64,192,82631,128,0,83006:0:0:0:0:
448,192,82631,128,0,82724:0:0:0:0:
192,192,82631,1,0,0:0:0:0:
320,192,82818,128,0,82912:0:0:0:0:
448,192,83006,128,0,83381:0:0:0:0:
192,192,83006,128,0,83099:0:0:0:0:
320,192,83006,1,0,0:0:0:0:
320,192,83193,128,0,83287:0:0:0:0:
192,192,83381,1,0,0:0:0:0:
320,192,83381,128,0,84506:0:0:0:0:
64,192,83381,128,0,83474:0:0:0:0:
448,192,83568,128,0,83662:0:0:0:0:
192,192,83756,128,0,83849:0:0:0:0:
64,192,83756,1,0,0:0:0:0:
448,192,83943,128,0,84037:0:0:0:0:
64,192,84131,128,0,84224:0:0:0:0:
192,192,84131,1,0,0:0:0:0:
192,192,84318,128,0,84412:0:0:0:0:
448,192,84506,1,0,0:0:0:0:
64,192,84506,1,0,0:0:0:0:
192,192,84693,1,0,0:0:0:0:
320,192,84834,1,0,0:0:0:0:
64,192,84881,1,0,0:0:0:0:
192,192,84881,1,0,0:0:0:0:
320,192,85068,1,0,0:0:0:0:
64,192,85256,1,0,0:0:0:0:
448,192,85256,1,0,0:0:0:0:
192,192,85443,1,0,0:0:0:0:
320,192,85631,1,0,0:0:0:0:
448,192,85631,1,0,0:0:0:0:
192,192,85818,1,0,0:0:0:0:
64,192,85912,1,0,0:0:0:0:
320,192,86006,1,0,0:0:0:0:
448,192,86006,1,0,0:0:0:0:
192,192,86006,1,0,0:0:0:0:
192,192,86193,1,0,0:0:0:0:
448,192,86381,1,0,0:0:0:0:
320,192,86381,1,0,0:0:0:0:
320,192,86568,1,0,0:0:0:0:
192,192,86756,1,0,0:0:0:0:
64,192,86756,1,0,0:0:0:0:
448,192,86756,1,0,0:0:0:0:
320,192,86943,1,0,0:0:0:0:
64,192,87131,1,0,0:0:0:0:
192,192,87131,1,0,0:0:0:0:
320,192,87318,1,0,0:0:0:0:
192,192,87412,1,0,0:0:0:0:
320,192,87506,1,0,0:0:0:0:
448,192,87506,1,0,0:0:0:0:
64,192,87506,1,0,0:0:0:0:
448,192,87693,1,0,0:0:0:0:
320,192,87881,1,0,0:0:0:0:
192,192,87881,1,0,0:0:0:0:
320,192,88068,1,0,0:0:0:0:
64,192,88256,1,0,0:0:0:0:
192,192,88256,1,0,0:0:0:0:
448,192,88256,1,0,0:0:0:0:
320,192,88443,1,0,0:0:0:0:
192,192,88631,1,0,0:0:0:0:
64,192,88631,1,0,0:0:0:0:
320,192,88818,1,0,0:0:0:0:
64,192,88912,1,0,0:0:0:0:
192,192,89006,1,0,0:0:0:0:
320,192,89006,1,0,0:0:0:0:
448,192,89006,1,0,0:0:0:0:
192,192,89193,1,0,0:0:0:0:
448,192,89381,1,0,0:0:0:0:
320,192,89381,1,0,0:0:0:0:
192,192,89568,1,0,0:0:0:0:
64,192,89756,1,0,0:0:0:0:
320,192,89756,1,0,0:0:0:0:
448,192,89756,1,0,0:0:0:0:
192,192,89943,1,0,0:0:0:0:
448,192,90131,1,0,0:0:0:0:
320,192,90131,1,0,0:0:0:0:
192,192,90318,1,0,0:0:0:0:
320,192,90506,1,0,0:0:0:0:
448,192,90506,1,0,0:0:0:0:
320,192,90693,1,0,0:0:0:0:
448,192,90693,1,0,0:0:0:0:
320,192,90881,1,0,0:0:0:0:
448,192,90881,1,0,0:0:0:0:
64,192,91068,1,0,0:0:0:0:
320,192,91162,1,0,0:0:0:0:
192,192,91256,1,0,0:0:0:0:
448,192,91256,1,0,0:0:0:0:
64,192,91256,1,0,0:0:0:0:
320,192,91443,1,0,0:0:0:0:
192,192,91537,1,0,0:0:0:0:
64,192,91631,1,0,0:0:0:0:
448,192,91631,1,0,0:0:0:0:
192,192,91818,1,0,0:0:0:0:
320,192,91912,1,0,0:0:0:0:
64,192,92006,1,0,0:0:0:0:
192,192,92006,1,0,0:0:0:0:
448,192,92006,1,0,0:0:0:0:
320,192,92193,1,0,0:0:0:0:
192,192,92287,1,0,0:0:0:0:
448,192,92381,1,0,0:0:0:0:
64,192,92381,1,0,0:0:0:0:
320,192,92381,1,0,0:0:0:0:
192,192,92568,1,0,0:0:0:0:
448,192,92662,1,0,0:0:0:0:
320,192,92756,1,0,0:0:0:0:
192,192,92756,1,0,0:0:0:0:
64,192,92756,1,0,0:0:0:0:
192,192,92943,1,0,0:0:0:0:
64,192,93037,1,0,0:0:0:0:
192,192,93131,1,0,0:0:0:0:
320,192,93131,1,0,0:0:0:0:
448,192,93131,1,0,0:0:0:0:
320,192,93318,1,0,0:0:0:0:
192,192,93412,1,0,0:0:0:0:
64,192,93506,1,0,0:0:0:0:
320,192,93506,1,0,0:0:0:0:
448,192,93506,1,0,0:0:0:0:
192,192,93693,1,0,0:0:0:0:
320,192,93787,1,0,0:0:0:0:
448,192,93881,1,0,0:0:0:0:
192,192,93881,1,0,0:0:0:0:
64,192,93881,1,0,0:0:0:0:
320,192,93974,1,0,0:0:0:0:
64,192,94068,1,0,0:0:0:0:
192,192,94068,1,0,0:0:0:0:
320,192,94162,1,0,0:0:0:0:
64,192,94256,5,0,0:0:0:0:
448,192,94256,1,0,0:0:0:0:
192,192,94349,1,0,0:0:0:0:
320,192,94443,1,0,0:0:0:0:
448,192,94443,1,0,0:0:0:0:
192,192,94537,1,0,0:0:0:0:
64,192,94631,1,0,0:0:0:0:
448,192,94631,1,0,0:0:0:0:
320,192,94724,1,0,0:0:0:0:
192,192,94818,1,0,0:0:0:0:
64,192,94818,1,0,0:0:0:0:
320,192,94912,1,0,0:0:0:0:
64,192,95006,1,0,0:0:0:0:
448,192,95006,1,0,0:0:0:0:
192,192,95099,1,0,0:0:0:0:
320,192,95193,1,0,0:0:0:0:
448,192,95193,1,0,0:0:0:0:
192,192,95287,1,0,0:0:0:0:
448,192,95381,128,0,95451:0:0:0:0:
320,192,95404,128,0,95474:0:0:0:0:
192,192,95427,128,0,95498:0:0:0:0:
64,192,95451,128,0,95521:0:0:0:0:
448,192,95498,128,0,95568:0:0:0:0:
320,192,95521,128,0,95591:0:0:0:0:
192,192,95545,128,0,95615:0:0:0:0:
64,192,95568,128,0,95638:0:0:0:0:
448,192,95615,128,0,95685:0:0:0:0:
320,192,95638,128,0,95709:0:0:0:0:
192,192,95662,128,0,95732:0:0:0:0:
64,192,95685,128,0,95756:0:0:0:0:
448,192,95732,128,0,95802:0:0:0:0:
320,192,95756,128,0,95826:0:0:0:0:
192,192,95779,128,0,95849:0:0:0:0:
64,192,95802,128,0,95873:0:0:0:0:
448,192,95849,128,0,95920:0:0:0:0:
320,192,95873,128,0,95943:0:0:0:0:
192,192,95896,128,0,95966:0:0:0:0:
64,192,95920,128,0,95990:0:0:0:0:
448,192,95966,128,0,96037:0:0:0:0:
320,192,95990,128,0,96060:0:0:0:0:
192,192,96013,128,0,96084:0:0:0:0:
64,192,96037,128,0,96107:0:0:0:0:
448,192,96084,128,0,96154:0:0:0:0:
320,192,96107,128,0,96177:0:0:0:0:
192,192,96131,128,0,96201:0:0:0:0:
64,192,96154,128,0,96224:0:0:0:0:
448,192,96201,128,0,96271:0:0:0:0:
320,192,96224,128,0,96295:0:0:0:0:
192,192,96248,128,0,96318:0:0:0:0:
64,192,96271,128,0,96341:0:0:0:0:
448,192,96318,128,0,96388:0:0:0:0:
320,192,96341,128,0,96412:0:0:0:0:
192,192,96365,128,0,96435:0:0:0:0:
64,192,96388,128,0,96459:0:0:0:0:
320,192,96506,1,0,0:0:0:0:
448,192,96506,1,0,0:0:0:0:
320,192,96693,1,0,0:0:0:0:
448,192,96693,1,0,0:0:0:0:
192,192,97631,1,0,0:0:0:0:
320,192,97631,1,0,0:0:0:0:
448,192,97631,128,0,97818:0:0:0:0:
64,192,97724,1,0,0:0:0:0:
192,192,97818,1,0,0:0:0:0:
320,192,97818,128,0,98006:0:0:0:0:
64,192,97912,128,0,98006:0:0:0:0:
448,192,98006,1,0,0:0:0:0:
192,192,98006,128,0,98193:0:0:0:0:
64,192,98099,1,0,0:0:0:0:
320,192,98193,1,0,0:0:0:0:
64,192,98193,128,0,98287:0:0:0:0:
448,192,98287,1,0,0:0:0:0:
192,192,98287,128,0,98381:0:0:0:0:
64,192,98381,1,0,0:0:0:0:
320,192,98381,128,0,98568:0:0:0:0:
192,192,98474,1,0,0:0:0:0:
64,192,98568,1,0,0:0:0:0:
448,192,98568,1,0,0:0:0:0:
192,192,98662,1,0,0:0:0:0:
320,192,98756,1,0,0:0:0:0:
64,192,98756,128,0,98943:0:0:0:0:
448,192,98756,1,0,0:0:0:0:
192,192,98849,128,0,98943:0:0:0:0:
320,192,98943,1,0,0:0:0:0:
448,192,98943,128,0,99131:0:0:0:0:
64,192,99037,1,0,0:0:0:0:
192,192,99131,1,0,0:0:0:0:
320,192,99131,128,0,99318:0:0:0:0:
64,192,99224,1,0,0:0:0:0:
192,192,99318,128,0,99506:0:0:0:0:
448,192,99318,1,0,0:0:0:0:
320,192,99412,1,0,0:0:0:0:
320,192,99506,128,0,99599:0:0:0:0:
64,192,99506,128,0,99693:0:0:0:0:
448,192,99599,128,0,99693:0:0:0:0:
192,192,99693,128,0,99787:0:0:0:0:
320,192,99693,1,0,0:0:0:0:
448,192,99787,1,0,0:0:0:0:
64,192,99787,128,0,99881:0:0:0:0:
192,192,99881,128,0,99974:0:0:0:0:
320,192,99881,128,0,100068:0:0:0:0:
64,192,99974,1,0,0:0:0:0:
448,192,100068,1,0,0:0:0:0:
192,192,100068,128,0,100162:0:0:0:0:
64,192,100068,128,0,100256:0:0:0:0:
320,192,100162,1,0,0:0:0:0:
192,192,100256,1,0,0:0:0:0:
320,192,100256,128,0,100349:0:0:0:0:
448,192,100256,128,0,100443:0:0:0:0:
64,192,100349,1,0,0:0:0:0:
320,192,100443,1,0,0:0:0:0:
192,192,100443,128,0,100537:0:0:0:0:
64,192,100443,128,0,100631:0:0:0:0:
448,192,100537,1,0,0:0:0:0:
192,192,100631,1,0,0:0:0:0:
448,192,100631,128,0,100724:0:0:0:0:
320,192,100631,128,0,100818:0:0:0:0:
64,192,100724,128,0,100818:0:0:0:0:
448,192,100818,1,0,0:0:0:0:
192,192,100818,128,0,101006:0:0:0:0:
320,192,100912,1,0,0:0:0:0:
448,192,101006,128,0,101193:0:0:0:0:
64,192,101006,1,0,0:0:0:0:
320,192,101099,1,0,0:0:0:0:
64,192,101193,1,0,0:0:0:0:
192,192,101193,1,0,0:0:0:0:
320,192,101287,1,0,0:0:0:0:
64,192,101381,1,0,0:0:0:0:
448,192,101381,1,0,0:0:0:0:
192,192,101381,128,0,101568:0:0:0:0:
320,192,101474,1,0,0:0:0:0:
448,192,101568,128,0,101662:0:0:0:0:
64,192,101568,128,0,101756:0:0:0:0:
192,192,101662,128,0,101756:0:0:0:0:
448,192,101756,128,0,101943:0:0:0:0:
320,192,101756,128,0,101849:0:0:0:0:
192,192,101849,1,0,0:0:0:0:
64,192,101943,128,0,102131:0:0:0:0:
320,192,101943,1,0,0:0:0:0:
192,192,102037,1,0,0:0:0:0:
320,192,102131,1,0,0:0:0:0:
448,192,102131,1,0,0:0:0:0:
192,192,102131,128,0,102318:0:0:0:0:
64,192,102224,1,0,0:0:0:0:
320,192,102318,1,0,0:0:0:0:
448,192,102318,128,0,102412:0:0:0:0:
64,192,102412,128,0,102506:0:0:0:0:
448,192,102506,1,0,0:0:0:0:
192,192,102506,1,0,0:0:0:0:
320,192,102506,128,0,102693:0:0:0:0:
64,192,102599,1,0,0:0:0:0:
448,192,102693,1,0,0:0:0:0:
192,192,102693,128,0,102881:0:0:0:0:
320,192,102787,1,0,0:0:0:0:
320,192,102881,128,0,102974:0:0:0:0:
64,192,102881,1,0,0:0:0:0:
448,192,102881,128,0,103443:0:0:0:0:
192,192,102974,1,0,0:0:0:0:
64,192,103068,1,0,0:0:0:0:
192,192,103162,1,0,0:0:0:0:
64,192,103256,1,0,0:0:0:0:
320,192,103256,1,0,0:0:0:0:
192,192,103349,1,0,0:0:0:0:
320,192,103443,1,0,0:0:0:0:
192,192,103537,1,0,0:0:0:0:
448,192,103631,1,0,0:0:0:0:
64,192,103631,1,0,0:0:0:0:
192,192,103631,128,0,103818:0:0:0:0:
320,192,103724,1,0,0:0:0:0:
64,192,103818,1,0,0:0:0:0:
448,192,103818,128,0,103912:0:0:0:0:
320,192,103912,128,0,104006:0:0:0:0:
192,192,104006,128,0,104099:0:0:0:0:
64,192,104006,128,0,104193:0:0:0:0:
448,192,104099,1,0,0:0:0:0:
320,192,104193,128,0,104381:0:0:0:0:
192,192,104193,1,0,0:0:0:0:
64,192,104287,1,0,0:0:0:0:
448,192,104381,128,0,104568:0:0:0:0:
192,192,104381,1,0,0:0:0:0:
320,192,104474,1,0,0:0:0:0:
64,192,104568,1,0,0:0:0:0:
192,192,104662,1,0,0:0:0:0:
64,192,104756,1,0,0:0:0:0:
448,192,104756,128,0,104943:0:0:0:0:
320,192,104756,1,0,0:0:0:0:
192,192,104849,128,0,104943:0:0:0:0:
320,192,104943,128,0,105037:0:0:0:0:
64,192,104943,128,0,105131:0:0:0:0:
192,192,105037,128,0,105131:0:0:0:0:
320,192,105131,128,0,105224:0:0:0:0:
448,192,105131,128,0,105318:0:0:0:0:
64,192,105224,1,0,0:0:0:0:
192,192,105318,1,0,0:0:0:0:
320,192,105412,1,0,0:0:0:0:
64,192,105506,128,0,105693:0:0:0:0:
448,192,105506,1,0,0:0:0:0:
320,192,105599,1,0,0:0:0:0:
448,192,105693,128,0,105881:0:0:0:0:
192,192,105693,1,0,0:0:0:0:
320,192,105787,128,0,105881:0:0:0:0:
64,192,105881,128,0,106068:0:0:0:0:
192,192,105881,128,0,106068:0:0:0:0:
320,192,106068,128,0,106256:0:0:0:0:
448,192,106068,1,0,0:0:0:0:
192,192,106256,128,0,106443:0:0:0:0:
64,192,106256,128,0,106443:0:0:0:0:
320,192,106443,128,0,106631:0:0:0:0:
448,192,106443,1,0,0:0:0:0:
192,192,106631,1,0,0:0:0:0:
64,192,106631,128,0,106818:0:0:0:0:
448,192,106724,128,0,106818:0:0:0:0:
320,192,106818,1,0,0:0:0:0:
192,192,106818,128,0,107006:0:0:0:0:
64,192,106912,1,0,0:0:0:0:
320,192,107006,128,0,107193:0:0:0:0:
448,192,107006,1,0,0:0:0:0:
64,192,107099,128,0,107193:0:0:0:0:
192,192,107193,1,0,0:0:0:0:
448,192,107193,128,0,107381:0:0:0:0:
320,192,107287,1,0,0:0:0:0:
192,192,107381,1,0,0:0:0:0:
64,192,107381,1,0,0:0:0:0:
320,192,107474,1,0,0:0:0:0:
64,192,107568,1,0,0:0:0:0:
448,192,107568,128,0,107756:0:0:0:0:
192,192,107662,1,0,0:0:0:0:
64,192,107756,128,0,107943:0:0:0:0:
320,192,107756,1,0,0:0:0:0:
192,192,107849,128,0,107943:0:0:0:0:
320,192,107943,128,0,108037:0:0:0:0:
448,192,108037,1,0,0:0:0:0:
64,192,108131,1,0,0:0:0:0:
192,192,108131,1,0,0:0:0:0:
320,192,108224,1,0,0:0:0:0:
64,192,108318,1,0,0:0:0:0:
192,192,108412,1,0,0:0:0:0:
448,192,108506,1,0,0:0:0:0:
320,192,108506,1,0,0:0:0:0:
192,192,108599,1,0,0:0:0:0:
64,192,108693,1,0,0:0:0:0:
320,192,108787,1,0,0:0:0:0:
448,192,108881,1,0,0:0:0:0:
64,192,108881,1,0,0:0:0:0:
192,192,108974,1,0,0:0:0:0:
320,192,109068,1,0,0:0:0:0:
448,192,109162,1,0,0:0:0:0:
192,192,109256,1,0,0:0:0:0:
320,192,109256,1,0,0:0:0:0:
448,192,109443,1,0,0:0:0:0:
64,192,109443,1,0,0:0:0:0:
64,192,109631,1,0,0:0:0:0:
192,192,109631,1,0,0:0:0:0:
448,192,109631,128,0,109818:0:0:0:0:
320,192,109724,128,0,109818:0:0:0:0:
192,192,109818,128,0,109912:0:0:0:0:
64,192,109818,128,0,110193:0:0:0:0:
320,192,109912,128,0,110006:0:0:0:0:
448,192,110006,128,0,110099:0:0:0:0:
192,192,110006,1,0,0:0:0:0:
320,192,110099,128,0,110193:0:0:0:0:
448,192,110193,1,0,0:0:0:0:
192,192,110193,128,0,110381:0:0:0:0:
320,192,110287,128,0,110381:0:0:0:0:
448,192,110381,128,0,110568:0:0:0:0:
64,192,110381,1,0,0:0:0:0:
320,192,110474,1,0,0:0:0:0:
192,192,110568,1,0,0:0:0:0:
64,192,110568,128,0,110756:0:0:0:0:
320,192,110662,128,0,110756:0:0:0:0:
192,192,110756,1,0,0:0:0:0:
448,192,110756,128,0,110943:0:0:0:0:
320,192,110849,1,0,0:0:0:0:
192,192,110943,128,0,111037:0:0:0:0:
64,192,110943,128,0,111131:0:0:0:0:
320,192,111037,1,0,0:0:0:0:
320,192,111131,128,0,111506:0:0:0:0:
448,192,111131,1,0,0:0:0:0:
192,192,111224,1,0,0:0:0:0:
448,192,111318,128,0,111412:0:0:0:0:
64,192,111318,1,0,0:0:0:0:
192,192,111412,128,0,111506:0:0:0:0:
448,192,111506,128,0,111599:0:0:0:0:
64,192,111506,128,0,111693:0:0:0:0:
320,192,111599,128,0,111693:0:0:0:0:
192,192,111693,128,0,111881:0:0:0:0:
64,192,111787,1,0,0:0:0:0:
320,192,111881,128,0,112068:0:0:0:0:
448,192,111881,128,0,112068:0:0:0:0:
64,192,112068,1,0,0:0:0:0:
192,192,112068,1,0,0:0:0:0:
64,192,112256,128,0,112443:0:0:0:0:
192,192,112256,128,0,112443:0:0:0:0:
448,192,112443,1,0,0:0:0:0:
320,192,112443,1,0,0:0:0:0:
320,192,112631,1,0,0:0:0:0:
448,192,112631,1,0,0:0:0:0:
64,192,112631,128,0,112818:0:0:0:0:
192,192,112724,1,0,0:0:0:0:
448,192,112818,128,0,113193:0:0:0:0:
320,192,112818,1,0,0:0:0:0:
192,192,112912,128,0,113006:0:0:0:0:
320,192,113006,128,0,113099:0:0:0:0:
64,192,113006,1,0,0:0:0:0:
192,192,113099,1,0,0:0:0:0:
192,192,113193,128,0,113287:0:0:0:0:
64,192,113193,128,0,113381:0:0:0:0:
320,192,113287,1,0,0:0:0:0:
192,192,113381,128,0,113474:0:0:0:0:
448,192,113381,1,0,0:0:0:0:
320,192,113474,128,0,113568:0:0:0:0:
64,192,113568,1,0,0:0:0:0:
448,192,113568,128,0,113756:0:0:0:0:
192,192,113662,1,0,0:0:0:0:
320,192,113756,1,0,0:0:0:0:
192,192,113756,128,0,113943:0:0:0:0:
64,192,113849,1,0,0:0:0:0:
448,192,113943,128,0,114037:0:0:0:0:
320,192,114037,128,0,114131:0:0:0:0:
192,192,114131,128,0,114224:0:0:0:0:
64,192,114131,128,0,114318:0:0:0:0:
320,192,114318,128,0,114506:0:0:0:0:
448,192,114318,1,0,0:0:0:0:
192,192,114412,128,0,114506:0:0:0:0:
448,192,114506,128,0,114693:0:0:0:0:
64,192,114506,1,0,0:0:0:0:
192,192,114599,1,0,0:0:0:0:
320,192,114693,1,0,0:0:0:0:
64,192,114693,128,0,114881:0:0:0:0:
192,192,114787,128,0,114974:0:0:0:0:
448,192,114881,128,0,114974:0:0:0:0:
320,192,114881,128,0,115068:0:0:0:0:
64,192,114974,128,0,115162:0:0:0:0:
448,192,115068,128,0,115256:0:0:0:0:
192,192,115068,128,0,115162:0:0:0:0:
320,192,115162,128,0,115349:0:0:0:0:
64,192,115256,128,0,115443:0:0:0:0:
192,192,115256,128,0,115349:0:0:0:0:
448,192,115349,128,0,115537:0:0:0:0:
320,192,115443,128,0,115631:0:0:0:0:
192,192,115443,128,0,115537:0:0:0:0:
64,192,115537,128,0,115724:0:0:0:0:
448,192,115631,128,0,115818:0:0:0:0:
192,192,115631,128,0,115724:0:0:0:0:
320,192,115724,128,0,115818:0:0:0:0:
64,192,115818,128,0,115912:0:0:0:0:
192,192,115818,128,0,116006:0:0:0:0:
320,192,115912,128,0,116006:0:0:0:0:
448,192,116006,128,0,116193:0:0:0:0:
64,192,116006,1,0,0:0:0:0:
320,192,116099,1,0,0:0:0:0:
64,192,116193,1,0,0:0:0:0:
192,192,116193,1,0,0:0:0:0:
320,192,116287,1,0,0:0:0:0:
192,192,116381,128,0,116474:0:0:0:0:
64,192,116381,128,0,116568:0:0:0:0:
448,192,116381,1,0,0:0:0:0:
320,192,116474,1,0,0:0:0:0:
448,192,116568,128,0,116756:0:0:0:0:
64,192,116662,1,0,0:0:0:0:
192,192,116756,128,0,116943:0:0:0:0:
320,192,116756,1,0,0:0:0:0:
64,192,116849,1,0,0:0:0:0:
320,192,116943,128,0,117037:0:0:0:0:
448,192,116943,128,0,117131:0:0:0:0:
192,192,117037,1,0,0:0:0:0:
64,192,117131,1,0,0:0:0:0:
320,192,117131,128,0,117318:0:0:0:0:
192,192,117224,1,0,0:0:0:0:
64,192,117318,128,0,117412:0:0:0:0:
448,192,117318,1,0,0:0:0:0:
192,192,117412,128,0,117506:0:0:0:0:
64,192,117506,1,0,0:0:0:0:
320,192,117506,1,0,0:0:0:0:
448,192,117506,128,0,117693:0:0:0:0:
192,192,117599,1,0,0:0:0:0:
64,192,117693,128,0,117881:0:0:0:0:
320,192,117693,1,0,0:0:0:0:
192,192,117787,128,0,117881:0:0:0:0:
320,192,117881,128,0,118068:0:0:0:0:
448,192,117881,128,0,118068:0:0:0:0:
64,192,118068,128,0,118256:0:0:0:0:
192,192,118068,1,0,0:0:0:0:
448,192,118256,128,0,118443:0:0:0:0:
320,192,118256,128,0,118443:0:0:0:0:
64,192,118443,128,0,118631:0:0:0:0:
192,192,118443,1,0,0:0:0:0:
192,192,118631,1,0,0:0:0:0:
320,192,118631,1,0,0:0:0:0:
448,192,118631,128,0,118818:0:0:0:0:
64,192,118724,1,0,0:0:0:0:
192,192,118818,128,0,119006:0:0:0:0:
320,192,118818,1,0,0:0:0:0:
64,192,118912,128,0,119006:0:0:0:0:
448,192,119006,128,0,119099:0:0:0:0:
320,192,119006,128,0,119193:0:0:0:0:
192,192,119099,1,0,0:0:0:0:
64,192,119193,1,0,0:0:0:0:
192,192,119287,1,0,0:0:0:0:
64,192,119381,128,0,119568:0:0:0:0:
320,192,119381,1,0,0:0:0:0:
448,192,119381,1,0,0:0:0:0:
192,192,119474,1,0,0:0:0:0:
320,192,119568,1,0,0:0:0:0:
448,192,119662,128,0,119756:0:0:0:0:
320,192,119756,128,0,119943:0:0:0:0:
64,192,119756,1,0,0:0:0:0:
192,192,119756,1,0,0:0:0:0:
448,192,119849,1,0,0:0:0:0:
192,192,119943,1,0,0:0:0:0:
64,192,119943,128,0,120037:0:0:0:0:
192,192,120037,128,0,120131:0:0:0:0:
320,192,120131,128,0,120224:0:0:0:0:
448,192,120131,128,0,120318:0:0:0:0:
64,192,120224,1,0,0:0:0:0:
192,192,120318,1,0,0:0:0:0:
320,192,120412,1,0,0:0:0:0:
192,192,120506,1,0,0:0:0:0:
64,192,120506,128,0,120693:0:0:0:0:
448,192,120506,1,0,0:0:0:0:
320,192,120599,128,0,120693:0:0:0:0:
448,192,120693,1,0,0:0:0:0:
192,192,120693,128,0,120881:0:0:0:0:
64,192,120787,128,0,120881:0:0:0:0:
320,192,120881,128,0,120927:0:0:0:0:
448,192,120881,128,0,121068:0:0:0:0:
192,192,120974,1,0,0:0:0:0:
320,192,121068,128,0,121256:0:0:0:0:
64,192,121068,1,0,0:0:0:0:
448,192,121162,128,0,121256:0:0:0:0:
64,192,121256,128,0,121302:0:0:0:0:
192,192,121256,128,0,121443:0:0:0:0:
320,192,121443,1,0,0:0:0:0:
448,192,121443,1,0,0:0:0:0:
64,192,121631,128,0,121724:0:0:0:0:
448,192,121631,1,0,0:0:0:0:
320,192,121631,1,0,0:0:0:0:
192,192,121724,128,0,121818:0:0:0:0:
448,192,121818,128,0,122006:0:0:0:0:
64,192,121818,128,0,121912:0:0:0:0:
320,192,121912,128,0,122006:0:0:0:0:
64,192,122006,128,0,122099:0:0:0:0:
192,192,122006,128,0,122099:0:0:0:0:
320,192,122099,128,0,122193:0:0:0:0:
64,192,122193,128,0,122381:0:0:0:0:
448,192,122193,128,0,122287:0:0:0:0:
192,192,122287,128,0,122381:0:0:0:0:
448,192,122381,128,0,122568:0:0:0:0:
320,192,122381,128,0,122474:0:0:0:0:
192,192,122474,128,0,122568:0:0:0:0:
320,192,122568,128,0,122662:0:0:0:0:
64,192,122568,128,0,122662:0:0:0:0:
192,192,122662,128,0,122849:0:0:0:0:
64,192,122756,128,0,122943:0:0:0:0:
448,192,122756,128,0,122849:0:0:0:0:
320,192,122849,128,0,122943:0:0:0:0:
448,192,122943,128,0,123131:0:0:0:0:
192,192,122943,128,0,123037:0:0:0:0:
320,192,123037,128,0,123131:0:0:0:0:
64,192,123131,128,0,123224:0:0:0:0:
192,192,123131,128,0,123224:0:0:0:0:
320,192,123224,128,0,123318:0:0:0:0:
64,192,123318,128,0,123506:0:0:0:0:
448,192,123318,128,0,123412:0:0:0:0:
192,192,123412,128,0,123506:0:0:0:0:
448,192,123506,128,0,123599:0:0:0:0:
320,192,123506,128,0,123693:0:0:0:0:
192,192,123599,128,0,123693:0:0:0:0:
448,192,123693,128,0,123787:0:0:0:0:
64,192,123693,128,0,123787:0:0:0:0:
192,192,123787,128,0,123881:0:0:0:0:
448,192,123881,128,0,124068:0:0:0:0:
320,192,123881,128,0,123974:0:0:0:0:
64,192,123974,128,0,124068:0:0:0:0:
192,192,124068,128,0,124256:0:0:0:0:
320,192,124068,128,0,124162:0:0:0:0:
64,192,124162,128,0,124256:0:0:0:0:
320,192,124256,128,0,124349:0:0:0:0:
448,192,124256,128,0,124443:0:0:0:0:
192,192,124349,128,0,124443:0:0:0:0:
320,192,124443,128,0,124537:0:0:0:0:
64,192,124443,128,0,124631:0:0:0:0:
192,192,124537,128,0,124631:0:0:0:0:
320,192,124631,128,0,124818:0:0:0:0:
448,192,124631,128,0,124724:0:0:0:0:
192,192,124724,128,0,124818:0:0:0:0:
448,192,124818,128,0,124912:0:0:0:0:
64,192,124818,128,0,125006:0:0:0:0:
192,192,124912,128,0,125006:0:0:0:0:
320,192,125006,128,0,125099:0:0:0:0:
448,192,125006,128,0,125193:0:0:0:0:
64,192,125099,128,0,125193:0:0:0:0:
320,192,125193,128,0,125287:0:0:0:0:
192,192,125193,128,0,125381:0:0:0:0:
64,192,125287,128,0,125381:0:0:0:0:
320,192,125381,128,0,125474:0:0:0:0:
448,192,125381,128,0,125568:0:0:0:0:
192,192,125474,128,0,125568:0:0:0:0:
320,192,125568,128,0,125662:0:0:0:0:
64,192,125568,128,0,125756:0:0:0:0:
192,192,125662,128,0,125756:0:0:0:0:
320,192,125756,128,0,125849:0:0:0:0:
448,192,125756,128,0,125943:0:0:0:0:
64,192,125849,128,0,125943:0:0:0:0:
320,192,125943,128,0,126037:0:0:0:0:
192,192,125943,128,0,126131:0:0:0:0:
448,192,126037,128,0,126131:0:0:0:0:
320,192,126131,128,0,126224:0:0:0:0:
64,192,126131,128,0,126318:0:0:0:0:
192,192,126224,128,0,126318:0:0:0:0:
320,192,126318,128,0,126412:0:0:0:0:
448,192,126318,128,0,126506:0:0:0:0:
192,192,126412,128,0,126506:0:0:0:0:
320,192,126506,128,0,126599:0:0:0:0:
64,192,126506,128,0,126693:0:0:0:0:
448,192,126599,128,0,126693:0:0:0:0:
320,192,126693,128,0,126881:0:0:0:0:
192,192,126693,128,0,126787:0:0:0:0:
448,192,126787,128,0,126881:0:0:0:0:
64,192,126881,128,0,127068:0:0:0:0:
192,192,126881,128,0,126974:0:0:0:0:
320,192,126974,128,0,127068:0:0:0:0:
448,192,127068,128,0,127162:0:0:0:0:
192,192,127068,128,0,127256:0:0:0:0:
320,192,127162,128,0,127256:0:0:0:0:
448,192,127256,128,0,127443:0:0:0:0:
64,192,127256,128,0,127349:0:0:0:0:
192,192,127349,128,0,127443:0:0:0:0:
64,192,127443,128,0,127537:0:0:0:0:
320,192,127443,128,0,127631:0:0:0:0:
448,192,127537,128,0,127631:0:0:0:0:
64,192,127631,128,0,127818:0:0:0:0:
192,192,127631,128,0,127724:0:0:0:0:
320,192,127724,128,0,127818:0:0:0:0:
448,192,127818,128,0,127912:0:0:0:0:
192,192,127818,128,0,128006:0:0:0:0:
64,192,127912,128,0,128006:0:0:0:0:
448,192,128006,128,0,128099:0:0:0:0:
320,192,128006,128,0,128193:0:0:0:0:
192,192,128099,128,0,128193:0:0:0:0:
448,192,128193,128,0,128287:0:0:0:0:
64,192,128193,128,0,128381:0:0:0:0:
192,192,128287,128,0,128381:0:0:0:0:
448,192,128381,128,0,128474:0:0:0:0:
320,192,128381,128,0,128568:0:0:0:0:
192,192,128474,128,0,128568:0:0:0:0:
448,192,128568,128,0,128662:0:0:0:0:
64,192,128568,128,0,128756:0:0:0:0:
192,192,128662,128,0,128756:0:0:0:0:
448,192,128756,128,0,128849:0:0:0:0:
320,192,128756,128,0,128943:0:0:0:0:
192,192,128849,128,0,128943:0:0:0:0:
448,192,128943,128,0,129037:0:0:0:0:
64,192,128943,128,0,129131:0:0:0:0:
320,192,129037,128,0,129131:0:0:0:0:
448,192,129131,128,0,129224:0:0:0:0:
192,192,129131,128,0,129318:0:0:0:0:
64,192,129224,128,0,129318:0:0:0:0:
448,192,129318,128,0,129506:0:0:0:0:
320,192,129318,128,0,129412:0:0:0:0:
192,192,129412,128,0,129506:0:0:0:0:
320,192,129506,128,0,129693:0:0:0:0:
64,192,129506,128,0,129599:0:0:0:0:
448,192,129599,128,0,129693:0:0:0:0:
64,192,129693,128,0,129787:0:0:0:0:
192,192,129693,128,0,129881:0:0:0:0:
320,192,129787,128,0,129881:0:0:0:0:
64,192,129881,128,0,129974:0:0:0:0:
448,192,129881,128,0,130068:0:0:0:0:
320,192,129974,128,0,130068:0:0:0:0:
64,192,130068,128,0,130162:0:0:0:0:
192,192,130068,128,0,130256:0:0:0:0:
320,192,130162,128,0,130256:0:0:0:0:
448,192,130256,128,0,130349:0:0:0:0:
64,192,130256,128,0,130443:0:0:0:0:
192,192,130349,128,0,130443:0:0:0:0:
448,192,130443,128,0,130537:0:0:0:0:
320,192,130443,128,0,130631:0:0:0:0:
192,192,130537,128,0,130631:0:0:0:0:
448,192,130631,128,0,130818:0:0:0:0:
64,192,130631,128,0,130724:0:0:0:0:
192,192,130724,128,0,130818:0:0:0:0:
64,192,130818,128,0,130912:0:0:0:0:
320,192,130818,128,0,131006:0:0:0:0:
448,192,130912,128,0,131006:0:0:0:0:
192,192,131006,128,0,131099:0:0:0:0:
64,192,131006,128,0,131193:0:0:0:0:
320,192,131099,128,0,131193:0:0:0:0:
192,192,131193,128,0,131287:0:0:0:0:
448,192,131193,128,0,131381:0:0:0:0:
320,192,131287,128,0,131381:0:0:0:0:
192,192,131381,128,0,131568:0:0:0:0:
64,192,131381,128,0,131474:0:0:0:0:
320,192,131474,128,0,131568:0:0:0:0:
64,192,131568,128,0,131662:0:0:0:0:
448,192,131568,128,0,131756:0:0:0:0:
192,192,131662,128,0,131756:0:0:0:0:
64,192,131756,128,0,131849:0:0:0:0:
320,192,131756,128,0,131943:0:0:0:0:
192,192,131849,128,0,131943:0:0:0:0:
64,192,131943,128,0,132037:0:0:0:0:
448,192,131943,128,0,132131:0:0:0:0:
320,192,132037,128,0,132131:0:0:0:0:
64,192,132131,1,0,0:0:0:0:
192,192,132131,1,0,0:0:0:0:
320,192,132224,1,0,0:0:0:0:
448,192,132318,1,0,0:0:0:0:
64,192,132318,1,0,0:0:0:0:
192,192,132412,1,0,0:0:0:0:
448,192,132506,1,0,0:0:0:0:
320,192,132506,1,0,0:0:0:0:
192,192,132599,1,0,0:0:0:0:
320,192,132693,1,0,0:0:0:0:
64,192,132693,1,0,0:0:0:0:
192,192,132787,1,0,0:0:0:0:
448,192,132881,1,0,0:0:0:0:
320,192,132881,1,0,0:0:0:0:
192,192,132974,1,0,0:0:0:0:
448,192,133068,1,0,0:0:0:0:
64,192,133068,1,0,0:0:0:0:
320,192,133162,1,0,0:0:0:0:
64,192,133256,1,0,0:0:0:0:
192,192,133256,1,0,0:0:0:0:
448,192,133349,1,0,0:0:0:0:
192,192,133443,1,0,0:0:0:0:
320,192,133443,1,0,0:0:0:0:
64,192,133537,1,0,0:0:0:0:
448,192,133631,128,0,134381:0:0:0:0:
320,192,135131,128,0,135881:0:0:0:0:
192,192,136631,128,0,137193:0:0:0:0:
320,192,137756,1,0,0:0:0:0:
64,192,138131,1,0,0:0:0:0:
192,192,138412,1,0,0:0:0:0:
320,192,138693,128,0,139068:0:0:0:0:
192,192,139256,1,0,0:0:0:0:
320,192,139443,1,0,0:0:0:0:
192,192,139631,1,0,0:0:0:0:
448,192,139631,1,0,0:0:0:0:
64,192,139631,1,0,0:0:0:0:
320,192,139818,1,0,0:0:0:0:
64,192,140006,1,0,0:0:0:0:
192,192,140006,1,0,0:0:0:0:
320,192,140193,1,0,0:0:0:0:
192,192,140287,1,0,0:0:0:0:
64,192,140381,1,0,0:0:0:0:
448,192,140381,1,0,0:0:0:0:
192,192,140568,1,0,0:0:0:0:
320,192,140756,1,0,0:0:0:0:
448,192,140756,1,0,0:0:0:0:
192,192,140943,1,0,0:0:0:0:
320,192,141037,1,0,0:0:0:0:
192,192,141131,1,0,0:0:0:0:
64,192,141131,1,0,0:0:0:0:
448,192,141131,1,0,0:0:0:0:
320,192,141318,1,0,0:0:0:0:
64,192,141506,1,0,0:0:0:0:
192,192,141506,1,0,0:0:0:0:
320,192,141693,1,0,0:0:0:0:
448,192,141787,1,0,0:0:0:0:
320,192,141881,1,0,0:0:0:0:
192,192,141881,1,0,0:0:0:0:
64,192,142068,1,0,0:0:0:0:
192,192,142162,1,0,0:0:0:0:
320,192,142256,1,0,0:0:0:0:
448,192,142256,1,0,0:0:0:0:
192,192,142443,1,0,0:0:0:0:
64,192,142537,1,0,0:0:0:0:
320,192,142631,1,0,0:0:0:0:
448,192,142631,1,0,0:0:0:0:
192,192,142631,1,0,0:0:0:0:
192,192,142724,1,0,0:0:0:0:
448,192,142818,1,0,0:0:0:0:
64,192,142912,1,0,0:0:0:0:
320,192,143006,5,0,0:0:0:0:
192,192,143099,1,0,0:0:0:0:
320,192,143193,1,0,0:0:0:0:
192,192,143287,1,0,0:0:0:0:
64,192,143381,1,0,0:0:0:0:
320,192,143381,1,0,0:0:0:0:
448,192,143381,1,0,0:0:0:0:
192,192,143474,1,0,0:0:0:0:
448,192,143568,1,0,0:0:0:0:
64,192,143662,1,0,0:0:0:0:
320,192,143756,1,0,0:0:0:0:
192,192,143849,1,0,0:0:0:0:
64,192,143943,1,0,0:0:0:0:
320,192,144037,1,0,0:0:0:0:
448,192,144131,128,0,144201:0:0:0:0:
320,192,144154,128,0,144224:0:0:0:0:
192,192,144177,128,0,144248:0:0:0:0:
64,192,144201,128,0,144271:0:0:0:0:
448,192,144248,128,0,144318:0:0:0:0:
320,192,144271,128,0,144341:0:0:0:0:
192,192,144295,128,0,144365:0:0:0:0:
64,192,144318,128,0,144388:0:0:0:0:
448,192,144365,128,0,144435:0:0:0:0:
320,192,144388,128,0,144459:0:0:0:0:
192,192,144412,128,0,144482:0:0:0:0:
64,192,144435,128,0,144506:0:0:0:0:
448,192,144482,128,0,144552:0:0:0:0:
320,192,144506,128,0,144576:0:0:0:0:
192,192,144529,128,0,144599:0:0:0:0:
64,192,144552,128,0,144623:0:0:0:0:
448,192,144599,128,0,144670:0:0:0:0:
320,192,144623,128,0,144693:0:0:0:0:
192,192,144646,128,0,144716:0:0:0:0:
64,192,144670,128,0,144740:0:0:0:0:
448,192,144716,128,0,144787:0:0:0:0:
320,192,144740,128,0,144810:0:0:0:0:
192,192,144763,128,0,144834:0:0:0:0:
64,192,144787,128,0,144857:0:0:0:0:
448,192,144834,128,0,144904:0:0:0:0:
320,192,144857,128,0,144927:0:0:0:0:
192,192,144881,128,0,144951:0:0:0:0:
64,192,144904,128,0,144974:0:0:0:0:
448,192,144951,128,0,145021:0:0:0:0:
320,192,144974,128,0,145045:0:0:0:0:
192,192,144998,128,0,145068:0:0:0:0:
64,192,145021,128,0,145091:0:0:0:0:
448,192,145068,128,0,145138:0:0:0:0:
320,192,145091,128,0,145162:0:0:0:0:
192,192,145115,128,0,145185:0:0:0:0:
64,192,145138,128,0,145209:0:0:0:0:
320,192,145256,1,0,0:0:0:0:
448,192,145256,1,0,0:0:0:0:
320,192,145443,1,0,0:0:0:0:
448,192,145443,1,0,0:0:0:0:
64,192,145631,128,0,145818:0:0:0:0:
64,192,146006,128,0,146193:0:0:0:0:
320,192,146381,128,0,146568:0:0:0:0:
192,192,146756,128,0,146943:0:0:0:0:
320,192,146943,128,0,147131:0:0:0:0:
448,192,147318,128,0,147506:0:0:0:0:
448,192,147693,128,0,147881:0:0:0:0:
320,192,148068,128,0,148256:0:0:0:0:
320,192,148443,128,0,148631:0:0:0:0:
192,192,148631,128,0,148818:0:0:0:0:
64,192,149006,128,0,149193:0:0:0:0:
320,192,149381,128,0,149568:0:0:0:0:
448,192,149756,128,0,149943:0:0:0:0:
320,192,149943,128,0,150131:0:0:0:0:
64,192,150318,128,0,150506:0:0:0:0:
192,192,150693,128,0,150881:0:0:0:0:
192,192,151068,128,0,151256:0:0:0:0:
320,192,151443,128,0,151631:0:0:0:0:
448,192,151631,128,0,151818:0:0:0:0:
192,192,151631,1,0,0:0:0:0:
64,192,151631,1,0,0:0:0:0:
320,192,152006,128,0,152193:0:0:0:0:
192,192,152006,1,0,0:0:0:0:
64,192,152193,1,0,0:0:0:0:
448,192,152287,1,0,0:0:0:0:
64,192,152381,128,0,152568:0:0:0:0:
192,192,152381,1,0,0:0:0:0:
320,192,152568,1,0,0:0:0:0:
448,192,152756,128,0,152943:0:0:0:0:
192,192,152756,1,0,0:0:0:0:
320,192,152943,128,0,153131:0:0:0:0:
64,192,152943,1,0,0:0:0:0:
192,192,153037,1,0,0:0:0:0:
448,192,153131,1,0,0:0:0:0:
192,192,153318,128,0,153506:0:0:0:0:
320,192,153318,1,0,0:0:0:0:
64,192,153506,1,0,0:0:0:0:
320,192,153693,128,0,153881:0:0:0:0:
192,192,153693,1,0,0:0:0:0:
448,192,153787,1,0,0:0:0:0:
64,192,153881,1,0,0:0:0:0:
64,192,154068,128,0,154256:0:0:0:0:
320,192,154256,1,0,0:0:0:0:
192,192,154443,128,0,154631:0:0:0:0:
320,192,154631,128,0,154818:0:0:0:0:
448,192,154631,1,0,0:0:0:0:
192,192,154724,1,0,0:0:0:0:
64,192,154818,1,0,0:0:0:0:
320,192,154912,1,0,0:0:0:0:
448,192,155006,128,0,155193:0:0:0:0:
192,192,155006,1,0,0:0:0:0:
64,192,155006,1,0,0:0:0:0:
320,192,155099,1,0,0:0:0:0:
64,192,155193,1,0,0:0:0:0:
192,192,155287,1,0,0:0:0:0:
448,192,155381,128,0,155568:0:0:0:0:
64,192,155381,1,0,0:0:0:0:
320,192,155381,1,0,0:0:0:0:
192,192,155474,1,0,0:0:0:0:
64,192,155568,1,0,0:0:0:0:
320,192,155662,1,0,0:0:0:0:
320,192,155756,128,0,155943:0:0:0:0:
192,192,155756,1,0,0:0:0:0:
64,192,155756,1,0,0:0:0:0:
448,192,155849,1,0,0:0:0:0:
192,192,155943,128,0,156131:0:0:0:0:
64,192,155943,1,0,0:0:0:0:
320,192,156037,1,0,0:0:0:0:
64,192,156131,5,0,0:0:0:0:
448,192,156131,1,0,0:0:0:0:
192,192,156177,1,0,0:0:0:0:
320,192,156224,1,0,0:0:0:0:
64,192,156271,1,0,0:0:0:0:
448,192,156318,1,0,0:0:0:0:
192,192,156365,1,0,0:0:0:0:
320,192,156412,1,0,0:0:0:0:
64,192,156459,1,0,0:0:0:0:
192,192,156506,1,0,0:0:0:0:
448,192,156506,1,0,0:0:0:0:
320,192,156552,1,0,0:0:0:0:
192,192,156599,1,0,0:0:0:0:
64,192,156646,1,0,0:0:0:0:
448,192,156693,1,0,0:0:0:0:
192,192,156740,1,0,0:0:0:0:
320,192,156787,1,0,0:0:0:0:
448,192,156834,1,0,0:0:0:0:
192,192,156881,1,0,0:0:0:0:
64,192,156881,1,0,0:0:0:0:
320,192,156927,1,0,0:0:0:0:
448,192,156974,1,0,0:0:0:0:
192,192,157021,1,0,0:0:0:0:
64,192,157068,1,0,0:0:0:0:
320,192,157115,1,0,0:0:0:0:
192,192,157162,1,0,0:0:0:0:
64,192,157209,1,0,0:0:0:0:
320,192,157256,1,0,0:0:0:0:
448,192,157256,1,0,0:0:0:0:
192,192,157302,1,0,0:0:0:0:
64,192,157349,1,0,0:0:0:0:
320,192,157396,1,0,0:0:0:0:
192,192,157443,1,0,0:0:0:0:
448,192,157490,1,0,0:0:0:0:
64,192,157537,1,0,0:0:0:0:
192,192,157584,1,0,0:0:0:0:
448,192,157631,128,0,157818:0:0:0:0:
320,192,157631,1,0,0:0:0:0:
64,192,157724,1,0,0:0:0:0:
320,192,157818,128,0,158006:0:0:0:0:
192,192,157818,1,0,0:0:0:0:
64,192,157912,128,0,158006:0:0:0:0:
192,192,158006,128,0,158193:0:0:0:0:
448,192,158006,1,0,0:0:0:0:
64,192,158099,1,0,0:0:0:0:
64,192,158193,128,0,158287:0:0:0:0:
320,192,158193,1,0,0:0:0:0:
192,192,158287,128,0,158381:0:0:0:0:
448,192,158287,1,0,0:0:0:0:
320,192,158381,128,0,158568:0:0:0:0:
64,192,158381,1,0,0:0:0:0:
192,192,158474,1,0,0:0:0:0:
448,192,158568,1,0,0:0:0:0:
64,192,158568,1,0,0:0:0:0:
192,192,158662,1,0,0:0:0:0:
448,192,158756,1,0,0:0:0:0:
64,192,158756,128,0,158943:0:0:0:0:
320,192,158756,1,0,0:0:0:0:
192,192,158849,128,0,158943:0:0:0:0:
448,192,158943,128,0,159131:0:0:0:0:
320,192,158943,1,0,0:0:0:0:
64,192,159037,1,0,0:0:0:0:
320,192,159131,128,0,159318:0:0:0:0:
192,192,159131,1,0,0:0:0:0:
64,192,159224,1,0,0:0:0:0:
448,192,159318,1,0,0:0:0:0:
192,192,159318,128,0,159506:0:0:0:0:
320,192,159412,1,0,0:0:0:0:
64,192,159506,128,0,159693:0:0:0:0:
320,192,159506,128,0,159599:0:0:0:0:
448,192,159599,128,0,159693:0:0:0:0:
320,192,159693,1,0,0:0:0:0:
192,192,159693,128,0,159787:0:0:0:0:
64,192,159787,128,0,159881:0:0:0:0:
448,192,159787,1,0,0:0:0:0:
320,192,159881,128,0,160068:0:0:0:0:
192,192,159881,128,0,159974:0:0:0:0:
64,192,159974,1,0,0:0:0:0:
64,192,160068,128,0,160256:0:0:0:0:
192,192,160068,128,0,160162:0:0:0:0:
448,192,160068,1,0,0:0:0:0:
320,192,160162,1,0,0:0:0:0:
448,192,160256,128,0,160443:0:0:0:0:
320,192,160256,128,0,160349:0:0:0:0:
192,192,160256,1,0,0:0:0:0:
64,192,160349,1,0,0:0:0:0:
64,192,160443,128,0,160631:0:0:0:0:
192,192,160443,128,0,160537:0:0:0:0:
320,192,160443,1,0,0:0:0:0:
448,192,160537,1,0,0:0:0:0:
320,192,160631,128,0,160818:0:0:0:0:
448,192,160631,128,0,160724:0:0:0:0:
192,192,160631,1,0,0:0:0:0:
64,192,160724,128,0,160818:0:0:0:0:
192,192,160818,128,0,161006:0:0:0:0:
448,192,160818,1,0,0:0:0:0:
320,192,160912,1,0,0:0:0:0:
64,192,161006,1,0,0:0:0:0:
448,192,161006,128,0,161193:0:0:0:0:
320,192,161099,1,0,0:0:0:0:
192,192,161193,1,0,0:0:0:0:
64,192,161193,1,0,0:0:0:0:
320,192,161287,1,0,0:0:0:0:
192,192,161381,128,0,161568:0:0:0:0:
448,192,161381,1,0,0:0:0:0:
64,192,161381,1,0,0:0:0:0:
320,192,161474,1,0,0:0:0:0:
64,192,161568,128,0,161756:0:0:0:0:
448,192,161568,128,0,161662:0:0:0:0:
192,192,161662,128,0,161756:0:0:0:0:
320,192,161756,128,0,161849:0:0:0:0:
448,192,161756,128,0,161943:0:0:0:0:
192,192,161849,1,0,0:0:0:0:
320,192,161943,1,0,0:0:0:0:
64,192,161943,128,0,162131:0:0:0:0:
192,192,162037,1,0,0:0:0:0:
448,192,162131,1,0,0:0:0:0:
320,192,162131,1,0,0:0:0:0:
64,192,162412,1,0,0:0:0:0:
192,192,162412,1,0,0:0:0:0:
320,192,162693,1,0,0:0:0:0:
448,192,162693,1,0,0:0:0:0:
320,192,162881,1,0,0:0:0:0:
448,192,162881,1,0,0:0:0:0:
192,192,163631,128,0,163818:0:0:0:0:
64,192,163631,1,0,0:0:0:0:
448,192,163631,1,0,0:0:0:0:
320,192,163724,1,0,0:0:0:0:
448,192,163818,128,0,163912:0:0:0:0:
64,192,163818,1,0,0:0:0:0:
320,192,163912,128,0,164006:0:0:0:0:
64,192,164006,128,0,164193:0:0:0:0:
192,192,164006,128,0,164099:0:0:0:0:
448,192,164099,1,0,0:0:0:0:
192,192,164193,1,0,0:0:0:0:
320,192,164193,128,0,164381:0:0:0:0:
64,192,164287,1,0,0:0:0:0:
192,192,164381,1,0,0:0:0:0:
448,192,164381,128,0,164568:0:0:0:0:
320,192,164474,1,0,0:0:0:0:
64,192,164568,1,0,0:0:0:0:
192,192,164662,1,0,0:0:0:0:
320,192,164756,1,0,0:0:0:0:
448,192,164756,128,0,164943:0:0:0:0:
64,192,164756,1,0,0:0:0:0:
192,192,164849,128,0,164943:0:0:0:0:
64,192,164943,128,0,165131:0:0:0:0:
320,192,164943,128,0,165037:0:0:0:0:
192,192,165037,128,0,165131:0:0:0:0:
448,192,165131,128,0,165318:0:0:0:0:
320,192,165131,128,0,165224:0:0:0:0:
64,192,165224,1,0,0:0:0:0:
192,192,165318,1,0,0:0:0:0:
320,192,165412,1,0,0:0:0:0:
448,192,165506,1,0,0:0:0:0:
64,192,165506,128,0,165693:0:0:0:0:
320,192,165599,1,0,0:0:0:0:
192,192,165693,1,0,0:0:0:0:
448,192,165693,128,0,165881:0:0:0:0:
320,192,165787,128,0,165881:0:0:0:0:
192,192,165881,128,0,166068:0:0:0:0:
64,192,165881,128,0,166068:0:0:0:0:
448,192,166068,1,0,0:0:0:0:
320,192,166068,128,0,166256:0:0:0:0:
64,192,166256,128,0,166443:0:0:0:0:
192,192,166256,128,0,166443:0:0:0:0:
448,192,166443,1,0,0:0:0:0:
320,192,166443,128,0,166631:0:0:0:0:
64,192,166631,128,0,166818:0:0:0:0:
192,192,166631,1,0,0:0:0:0:
448,192,166724,128,0,166818:0:0:0:0:
192,192,166818,128,0,167006:0:0:0:0:
320,192,166818,1,0,0:0:0:0:
64,192,166912,1,0,0:0:0:0:
448,192,167006,1,0,0:0:0:0:
320,192,167006,128,0,167193:0:0:0:0:
64,192,167099,128,0,167193:0:0:0:0:
448,192,167193,128,0,167381:0:0:0:0:
192,192,167193,1,0,0:0:0:0:
320,192,167287,1,0,0:0:0:0:
64,192,167381,1,0,0:0:0:0:
192,192,167381,1,0,0:0:0:0:
320,192,167474,1,0,0:0:0:0:
448,192,167568,128,0,167756:0:0:0:0:
64,192,167568,1,0,0:0:0:0:
192,192,167662,1,0,0:0:0:0:
320,192,167756,1,0,0:0:0:0:
64,192,167756,128,0,167943:0:0:0:0:
192,192,167849,128,0,167943:0:0:0:0:
320,192,167943,128,0,168037:0:0:0:0:
448,192,168037,1,0,0:0:0:0:
192,192,168131,1,0,0:0:0:0:
64,192,168131,1,0,0:0:0:0:
320,192,168224,1,0,0:0:0:0:
64,192,168318,1,0,0:0:0:0:
192,192,168412,1,0,0:0:0:0:
320,192,168506,1,0,0:0:0:0:
448,192,168506,1,0,0:0:0:0:
192,192,168599,1,0,0:0:0:0:
64,192,168693,1,0,0:0:0:0:
320,192,168787,1,0,0:0:0:0:
64,192,168881,1,0,0:0:0:0:
448,192,168881,1,0,0:0:0:0:
192,192,168974,1,0,0:0:0:0:
320,192,169068,1,0,0:0:0:0:
448,192,169162,1,0,0:0:0:0:
320,192,169256,1,0,0:0:0:0:
192,192,169256,1,0,0:0:0:0:
64,192,169443,1,0,0:0:0:0:
448,192,169443,1,0,0:0:0:0:
320,192,169631,1,0,0:0:0:0:
448,192,169631,1,0,0:0:0:0:
64,192,169631,128,0,169724:0:0:0:0:
192,192,169724,128,0,169818:0:0:0:0:
64,192,169818,128,0,169912:0:0:0:0:
448,192,169818,128,0,170006:0:0:0:0:
320,192,169912,128,0,170006:0:0:0:0:
192,192,170006,128,0,170099:0:0:0:0:
64,192,170006,128,0,170099:0:0:0:0:
320,192,170099,128,0,170193:0:0:0:0:
448,192,170193,128,0,170287:0:0:0:0:
64,192,170193,128,0,170381:0:0:0:0:
192,192,170287,128,0,170381:0:0:0:0:
320,192,170381,128,0,170474:0:0:0:0:
448,192,170381,128,0,170568:0:0:0:0:
192,192,170474,128,0,170568:0:0:0:0:
64,192,170568,128,0,170662:0:0:0:0:
320,192,170568,128,0,170662:0:0:0:0:
192,192,170662,128,0,170849:0:0:0:0:
448,192,170756,128,0,170849:0:0:0:0:
64,192,170756,128,0,170943:0:0:0:0:
320,192,170849,128,0,170943:0:0:0:0:
192,192,170943,128,0,171037:0:0:0:0:
448,192,170943,128,0,171131:0:0:0:0:
320,192,171037,128,0,171131:0:0:0:0:
192,192,171131,128,0,171224:0:0:0:0:
64,192,171131,128,0,171224:0:0:0:0:
320,192,171224,128,0,171318:0:0:0:0:
448,192,171318,128,0,171412:0:0:0:0:
64,192,171318,128,0,171506:0:0:0:0:
192,192,171412,128,0,171506:0:0:0:0:
320,192,171506,128,0,171693:0:0:0:0:
448,192,171506,128,0,171599:0:0:0:0:
192,192,171599,128,0,171693:0:0:0:0:
64,192,171693,128,0,171787:0:0:0:0:
448,192,171693,128,0,171787:0:0:0:0:
192,192,171787,128,0,171881:0:0:0:0:
320,192,171881,128,0,171974:0:0:0:0:
448,192,171881,128,0,172068:0:0:0:0:
64,192,171974,128,0,172068:0:0:0:0:
320,192,172068,128,0,172162:0:0:0:0:
192,192,172068,128,0,172256:0:0:0:0:
64,192,172162,128,0,172256:0:0:0:0:
448,192,172256,128,0,172443:0:0:0:0:
320,192,172256,128,0,172349:0:0:0:0:
192,192,172349,128,0,172443:0:0:0:0:
64,192,172443,128,0,172631:0:0:0:0:
320,192,172443,128,0,172537:0:0:0:0:
192,192,172537,128,0,172631:0:0:0:0:
448,192,172631,128,0,172724:0:0:0:0:
320,192,172631,128,0,172818:0:0:0:0:
192,192,172724,128,0,172818:0:0:0:0:
64,192,172818,128,0,173006:0:0:0:0:
448,192,172818,128,0,172912:0:0:0:0:
192,192,172912,128,0,173006:0:0:0:0:
448,192,173006,128,0,173193:0:0:0:0:
320,192,173006,128,0,173099:0:0:0:0:
64,192,173099,128,0,173193:0:0:0:0:
192,192,173193,128,0,173381:0:0:0:0:
320,192,173193,128,0,173287:0:0:0:0:
64,192,173287,128,0,173381:0:0:0:0:
448,192,173381,128,0,173568:0:0:0:0:
320,192,173381,128,0,173474:0:0:0:0:
192,192,173474,128,0,173568:0:0:0:0:
64,192,173568,128,0,173756:0:0:0:0:
320,192,173568,128,0,173662:0:0:0:0:
192,192,173662,128,0,173756:0:0:0:0:
448,192,173756,128,0,173943:0:0:0:0:
320,192,173756,128,0,173849:0:0:0:0:
64,192,173849,128,0,173943:0:0:0:0:
192,192,173943,128,0,174131:0:0:0:0:
320,192,173943,128,0,174037:0:0:0:0:
448,192,174037,128,0,174131:0:0:0:0:
64,192,174131,128,0,174318:0:0:0:0:
320,192,174131,128,0,174224:0:0:0:0:
192,192,174224,128,0,174318:0:0:0:0:
448,192,174318,128,0,174506:0:0:0:0:
320,192,174318,128,0,174412:0:0:0:0:
192,192,174412,128,0,174506:0:0:0:0:
64,192,174506,128,0,174693:0:0:0:0:
320,192,174506,128,0,174599:0:0:0:0:
448,192,174599,128,0,174693:0:0:0:0:
192,192,174693,128,0,174787:0:0:0:0:
320,192,174693,128,0,174881:0:0:0:0:
448,192,174787,128,0,174881:0:0:0:0:
192,192,174881,128,0,174974:0:0:0:0:
64,192,174881,128,0,175068:0:0:0:0:
320,192,174974,128,0,175068:0:0:0:0:
192,192,175068,128,0,175256:0:0:0:0:
448,192,175068,128,0,175162:0:0:0:0:
320,192,175162,128,0,175256:0:0:0:0:
64,192,175256,128,0,175349:0:0:0:0:
448,192,175256,128,0,175443:0:0:0:0:
192,192,175349,128,0,175443:0:0:0:0:
320,192,175443,128,0,175631:0:0:0:0:
64,192,175443,128,0,175537:0:0:0:0:
448,192,175537,128,0,175631:0:0:0:0:
192,192,175631,128,0,175724:0:0:0:0:
64,192,175631,128,0,175818:0:0:0:0:
320,192,175724,128,0,175818:0:0:0:0:
192,192,175818,128,0,176006:0:0:0:0:
448,192,175818,128,0,175912:0:0:0:0:
64,192,175912,128,0,176006:0:0:0:0:
320,192,176006,128,0,176193:0:0:0:0:
448,192,176006,128,0,176099:0:0:0:0:
192,192,176099,128,0,176193:0:0:0:0:
64,192,176193,128,0,176381:0:0:0:0:
448,192,176193,128,0,176287:0:0:0:0:
192,192,176287,128,0,176381:0:0:0:0:
320,192,176381,128,0,176568:0:0:0:0:
448,192,176381,128,0,176474:0:0:0:0:
192,192,176474,128,0,176568:0:0:0:0:
64,192,176568,128,0,176756:0:0:0:0:
448,192,176568,128,0,176662:0:0:0:0:
192,192,176662,128,0,176756:0:0:0:0:
320,192,176756,128,0,176943:0:0:0:0:
448,192,176756,128,0,176849:0:0:0:0:
192,192,176849,128,0,176943:0:0:0:0:
64,192,176943,128,0,177131:0:0:0:0:
448,192,176943,128,0,177037:0:0:0:0:
320,192,177037,128,0,177131:0:0:0:0:
192,192,177131,128,0,177318:0:0:0:0:
448,192,177131,128,0,177224:0:0:0:0:
64,192,177224,128,0,177318:0:0:0:0:
320,192,177318,128,0,177412:0:0:0:0:
448,192,177318,128,0,177506:0:0:0:0:
192,192,177412,128,0,177506:0:0:0:0:
64,192,177506,128,0,177599:0:0:0:0:
320,192,177506,128,0,177693:0:0:0:0:
448,192,177599,128,0,177693:0:0:0:0:
192,192,177693,128,0,177881:0:0:0:0:
64,192,177693,128,0,177787:0:0:0:0:
320,192,177787,128,0,177881:0:0:0:0:
448,192,177881,128,0,178068:0:0:0:0:
64,192,177881,128,0,177974:0:0:0:0:
320,192,177974,128,0,178068:0:0:0:0:
192,192,178068,128,0,178256:0:0:0:0:
64,192,178068,128,0,178162:0:0:0:0:
320,192,178162,128,0,178256:0:0:0:0:
64,192,178256,128,0,178443:0:0:0:0:
448,192,178256,128,0,178349:0:0:0:0:
192,192,178349,128,0,178443:0:0:0:0:
320,192,178443,128,0,178631:0:0:0:0:
448,192,178443,128,0,178537:0:0:0:0:
192,192,178537,128,0,178631:0:0:0:0:
64,192,178631,128,0,178724:0:0:0:0:
448,192,178631,128,0,178818:0:0:0:0:
192,192,178724,128,0,178818:0:0:0:0:
320,192,178818,128,0,179006:0:0:0:0:
64,192,178818,128,0,178912:0:0:0:0:
448,192,178912,128,0,179006:0:0:0:0:
64,192,179006,128,0,179193:0:0:0:0:
192,192,179006,128,0,179099:0:0:0:0:
320,192,179099,128,0,179193:0:0:0:0:
448,192,179193,128,0,179381:0:0:0:0:
192,192,179193,128,0,179287:0:0:0:0:
320,192,179287,128,0,179381:0:0:0:0:
64,192,179381,128,0,179474:0:0:0:0:
192,192,179381,128,0,179568:0:0:0:0:
320,192,179474,128,0,179568:0:0:0:0:
448,192,179568,128,0,179756:0:0:0:0:
64,192,179568,128,0,179662:0:0:0:0:
192,192,179662,128,0,179756:0:0:0:0:
320,192,179756,128,0,179943:0:0:0:0:
64,192,179756,128,0,179849:0:0:0:0:
192,192,179849,128,0,179943:0:0:0:0:
448,192,179943,128,0,180131:0:0:0:0:
64,192,179943,128,0,180037:0:0:0:0:
320,192,180037,128,0,180131:0:0:0:0:
192,192,180131,1,0,0:0:0:0:
64,192,180131,1,0,0:0:0:0:
320,192,180224,1,0,0:0:0:0:
64,192,180318,1,0,0:0:0:0:
448,192,180318,1,0,0:0:0:0:
192,192,180412,1,0,0:0:0:0:
320,192,180506,1,0,0:0:0:0:
448,192,180506,1,0,0:0:0:0:
192,192,180599,1,0,0:0:0:0:
64,192,180693,1,0,0:0:0:0:
320,192,180693,1,0,0:0:0:0:
192,192,180787,1,0,0:0:0:0:
320,192,180881,1,0,0:0:0:0:
448,192,180881,1,0,0:0:0:0:
192,192,180974,1,0,0:0:0:0:
64,192,181068,1,0,0:0:0:0:
448,192,181068,1,0,0:0:0:0:
320,192,181162,1,0,0:0:0:0:
192,192,181256,1,0,0:0:0:0:
64,192,181256,1,0,0:0:0:0:
448,192,181349,1,0,0:0:0:0:
320,192,181443,1,0,0:0:0:0:
192,192,181443,1,0,0:0:0:0:
64,192,181537,1,0,0:0:0:0:
320,192,181631,1,0,0:0:0:0:
448,192,181631,1,0,0:0:0:0:
