osu file format v14

[General]
AudioFilename: senya.mp3
AudioLeadIn: 0
PreviewTime: 64397
Countdown: 0
SampleSet: Soft
StackLeniency: 0.7
Mode: 0
LetterboxInBreaks: 0
WidescreenStoryboard: 0

[Editor]
Bookmarks: 13297,26097,38897,51597,64497,102897,115697,128497,141297,154097,189297
DistanceSpacing: 2.2
BeatDivisor: 4
GridSize: 32
TimelineZoom: 2.5

[Metadata]
Title:Yakusoku no Chikara
TitleUnicode:約束のチカラ
Artist:senya
ArtistUnicode:senya
Creator:Santtu
Version:Hard
Source:艦隊これくしょん -艦これ-
Tags:smsh150 -Mo- yuuhei catharsis satellite morinaga mayumi 森永真由美 終焉の輝き 幽閉カタルシス 宇佐美宏 岡宮道生 かませ虎 南方海域強襲偵察 Autobahn C87 KanColle Kantai Collection
BeatmapID:778094
BeatmapSetID:349810

[Difficulty]
HPDrainRate:5
CircleSize:3.8
OverallDifficulty:5.5
ApproachRate:7.9
SliderMultiplier:1.45
SliderTickRate:1

[Events]
//Background and Video events
0,0,"bg.jpg",0,0
//Break Periods
2,90296,98933
2,141496,153333
2,192697,198133
//Storyboard Layer 0 (Background)
//Storyboard Layer 1 (Fail)
//Storyboard Layer 2 (Pass)
//Storyboard Layer 3 (Foreground)
//Storyboard Sound Samples

[TimingPoints]
497.879539386012,400,4,2,1,80,1,0
26197,-100,4,2,1,60,0,0
64497,-100,4,2,1,100,0,1
76497,-100,4,2,1,100,0,0
77297,-100,4,2,1,100,0,1
86397,-100,4,2,3,100,0,1
86597,-100,4,2,1,100,0,1
86897,-125,4,2,1,100,0,0
90097,-100,4,2,1,75,0,0
162447,-100,4,2,3,75,0,0
162547,-100,4,2,1,75,0,0
163247,-100,4,2,3,75,0,0
163347,-100,4,2,1,75,0,0
166897,-100,4,2,1,100,0,1
178897,-100,4,2,1,100,0,0
179697,-100,4,2,1,100,0,1
189297,-125,4,2,1,80,0,0
192497,-100,4,2,1,75,0,0
205397,-100,4,2,1,40,0,0
208497,-100,4,2,1,5,0,0

[Colours]
Combo1 : 155,55,255
Combo2 : 97,124,218
Combo3 : 244,145,255
Combo4 : 230,0,0
Combo5 : 171,171,214

[HitObjects]
156,272,13297,6,0,P|212:304|300:296,1,145,6|8,0:0|0:0,0:0:0:0:
360,236,13897,1,0,0:0:0:0:
319,151,14097,2,0,P|316:115|323:80,1,72.5,2|0,0:0|0:0,0:0:0:0:
408,40,14497,2,0,P|411:76|404:111,1,72.5,8|0,0:0|0:0,0:0:0:0:
252,36,14897,6,0,P|188:32|92:72,1,145,2|8,0:0|0:0,0:0:0:0:
70,142,15497,1,0,0:0:0:0:
132,212,15697,2,0,P|196:216|212:211,2,72.5,2|0|8,0:0|0:0|0:0,0:0:0:0:
175,127,16297,1,0,0:0:0:0:
70,142,16497,6,0,P|42:181|36:217,1,72.5,2|0,0:0|0:0,0:0:0:0:
66,294,16897,1,8,0:0:0:0:
155,323,17097,1,0,0:0:0:0:
248,308,17297,2,0,P|266:263|251:169,1,145,2|8,0:0|0:0,0:0:0:0:
188,100,17897,1,0,0:0:0:0:
260,40,18097,6,0,L|408:28,1,145,2|8,0:0|0:0,0:0:0:0:
488,72,18697,1,0,0:0:0:0:
468,164,18897,1,2,0:0:0:0:
435,252,19097,2,0,P|417:284|387:310,2,72.5,0|8|0,0:0|0:0|0:0,0:0:0:0:
344,223,19697,5,2,0:0:0:0:
310,134,19897,1,0,0:0:0:0:
219,107,20097,2,0,P|159:79|147:59,1,72.5,8|0,0:0|0:0,0:0:0:0:
66,46,20497,2,0,P|50:102|76:182,1,145,2|8,0:0|0:0,0:0:0:0:
116,268,21097,1,0,0:0:0:0:
200,224,21297,6,0,P|264:224|320:280,1,145,2|8,0:0|0:0,0:0:0:0:
232,312,21897,1,0,0:0:0:0:
200,224,22097,2,0,L|180:140,1,72.5,2|0,0:0|0:0,0:0:0:0:
220,67,22497,2,0,P|251:50|287:47,1,72.5,8|0,0:0|0:0,0:0:0:0:
380,68,22897,6,0,L|372:156,1,72.5,2|0,0:0|0:0,0:0:0:0:
348,232,23297,2,0,P|364:272|408:300,1,72.5,8|0,0:0|0:0,0:0:0:0:
432,372,23697,2,0,L|440:196,1,145,2|8,0:0|0:0,0:0:0:0:
476,140,24297,1,0,0:0:0:0:
432,56,24497,5,2,0:0:0:0:
368,124,24697,2,0,P|320:124|284:108,1,72.5,0|8,0:0|0:0,0:0:0:0:
233,45,25097,1,0,0:0:0:0:
142,70,25297,2,0,P|133:54|122:40,2,36.25,2|0|0,0:0|0:0|0:0,0:0:0:0:
73,135,25697,2,0,P|92:208|111:222,1,72.5,8|0,0:0|0:0,0:0:0:0:
128,320,26097,6,0,L|204:312,1,72.5,6|0,0:0|0:0,0:0:0:0:
232,224,26497,2,8,L|308:216,1,72.5,2|0,0:0|0:0,0:0:0:0:
364,144,26897,2,0,P|396:188|400:224,1,72.5,2|0,0:0|0:0,0:0:0:0:
492,216,27297,2,0,P|469:265|440:287,1,72.5,2|0,0:0|0:0,0:0:0:0:
360,368,27697,6,0,P|323:367|289:356,1,72.5,2|0,0:0|0:0,0:0:0:0:
280,248,28097,2,0,L|268:172,1,72.5,2|0,0:0|0:0,0:0:0:0:
192,232,28497,2,0,L|143:172,1,72.5,2|0,0:0|0:0,0:0:0:0:
112,264,28897,2,0,L|40:236,1,72.5,2|0,0:0|0:0,0:0:0:0:
95,357,29297,6,0,P|159:345|199:277,1,145,2|2,0:0|0:0,0:0:0:0:
148,192,29897,1,0,0:0:0:0:
76,132,30097,2,0,P|72:80|80:52,1,72.5,2|0,0:0|0:0,0:0:0:0:
164,100,30497,2,0,P|199:105|235:99,1,72.5,2|0,0:0|0:0,0:0:0:0:
324,64,30897,6,0,P|330:99|324:135,1,72.5,2|0,0:0|0:0,0:0:0:0:
252,196,31297,2,0,P|240:256|296:332,1,145,2|2,0:0|0:0,0:0:0:0:
368,284,31897,1,0,0:0:0:0:
456,316,32097,2,0,P|462:281|454:246,1,72.5,2|0,0:0|0:0,0:0:0:0:
392,160,32497,6,0,L|396:80,1,72.5,2|0,0:0|0:0,0:0:0:0:
295,51,32897,2,0,L|292:124,1,72.5,2|0,0:0|0:0,0:0:0:0:
188,148,33297,2,0,L|192:68,1,72.5,2|0,0:0|0:0,0:0:0:0:
95,163,33697,1,0,0:0:0:0:
83,256,33897,1,0,0:0:0:0:
177,347,34097,6,0,L|203:279,1,72.5,2|0,0:0|0:0,0:0:0:0:
228,184,34497,2,0,B|256:160|256:160|304:156,1,72.5,2|0,0:0|0:0,0:0:0:0:
296,252,34897,2,0,B|302:288|302:288|282:331,1,72.5,2|0,0:0|0:0,0:0:0:0:
202,280,35297,2,0,B|167:267|167:267|139:228,1,72.5,2|0,0:0|0:0,0:0:0:0:
97,101,35697,6,0,P|167:113|240:89,1,145,2|2,0:0|0:0,0:0:0:0:
324,56,36297,1,0,0:0:0:0:
416,72,36497,2,0,L|440:152,1,72.5,2|0,0:0|0:0,0:0:0:0:
376,261,36897,2,0,L|356:192,1,72.5,2|0,0:0|0:0,0:0:0:0:
303,111,37297,6,0,P|273:92|238:88,1,72.5,2|0,0:0|0:0,0:0:0:0:
144,84,37697,2,0,L|136:168,1,72.5,2|0,0:0|0:0,0:0:0:0:
124,309,38097,6,0,L|104:347,2,36.25,2|0|0,0:0|0:0|0:0,0:0:0:0:
112,275,38397,2,0,P|68:251|44:203,2,72.5
173,236,38897,6,0,B|281:244|281:244|325:224,1,145,4|8,0:0|0:0,0:0:0:0:
260,152,39497,1,0,0:0:0:0:
260,152,39697,2,0,B|256:116|256:116|264:80,1,72.5,2|0,0:0|0:0,0:0:0:0:
334,18,40097,1,8,0:0:0:0:
424,43,40297,1,0,0:0:0:0:
428,188,40497,6,0,L|444:284,1,72.5,2|0,0:0|0:0,0:0:0:0:
444,276,40797,1,0,0:0:0:0:
448,292,40897,1,8,0:0:0:0:
376,356,41097,1,0,0:0:0:0:
316,284,41297,1,2,0:0:0:0:
388,220,41497,2,0,L|408:136,1,72.5,0|8,0:0|0:0,0:0:0:0:
444,64,41897,1,0,0:0:0:0:
300,44,42097,6,0,B|212:56|212:56|148:44,1,145,2|8,0:0|0:0,0:0:0:0:
63,35,42697,1,0,0:0:0:0:
56,128,42897,2,0,L|72:220,1,72.5,2|0,0:0|0:0,0:0:0:0:
139,281,43297,2,0,L|154:206,1,72.5,8|0,0:0|0:0,0:0:0:0:
190,86,43697,6,0,P|229:49|274:45,1,72.5,2|0,0:0|0:0,0:0:0:0:
264,43,43997,1,0,0:0:0:0:
281,45,44097,1,8,0:0:0:0:
365,90,44297,1,0,0:0:0:0:
295,153,44497,1,2,0:0:0:0:
359,221,44697,2,0,P|386:220|404:227,2,36.25,0|0|8,0:0|0:0|0:0,0:0:0:0:
275,264,45097,1,0,0:0:0:0:
206,329,45297,6,0,L|130:325,1,72.5,2|0,0:0|0:0,0:0:0:0:
48,284,45697,2,0,L|52:196,1,72.5,8|0,0:0|0:0,0:0:0:0:
144,224,46097,2,0,L|140:151,1,72.5,2|0,0:0|0:0,0:0:0:0:
57,50,46497,2,0,L|145:54,1,72.5,8|0,0:0|0:0,0:0:0:0:
148,55,46797,1,0,0:0:0:0:
166,57,46897,1,2,0:0:0:0:
260,55,47097,5,0,0:0:0:0:
328,120,47297,2,0,P|368:144|404:140,1,72.5,8|0,0:0|0:0,0:0:0:0:
460,76,47697,2,0,P|420:52|384:56,1,72.5,2|0,0:0|0:0,0:0:0:0:
470,167,48097,2,0,L|462:263,1,72.5,8|0,0:0|0:0,0:0:0:0:
462,257,48397,1,0,0:0:0:0:
461,275,48497,1,2,0:0:0:0:
374,312,48697,6,0,L|390:364,2,36.25,0|0|8,0:0|0:0|0:0,0:0:0:0:
306,246,49097,1,0,0:0:0:0:
211,246,49297,1,2,0:0:0:0:
142,311,49497,2,0,L|131:345,2,36.25,0|0|8,0:0|0:0|0:0,0:0:0:0:
60,244,49897,1,0,0:0:0:0:
56,148,50097,6,0,P|54:106|67:69,1,72.5,2|0,0:0|0:0,0:0:0:0:
208,48,50497,2,0,B|232:56|264:52|264:52|264:72|264:72|288:64|288:64|328:48|384:60|400:108|372:144|320:160|316:120,1,290,8|4,0:0|0:0,0:0:0:0:
318,128,51697,6,0,P|312:176|316:216,2,72.5,2|0|8,0:0|0:0|0:0,0:0:0:0:
248,64,52297,1,0,0:0:0:0:
156,72,52497,2,0,P|120:67|84:74,1,72.5,2|0,0:0|0:0,0:0:0:0:
124,160,52897,2,0,P|119:195|126:231,1,72.5,8|0,0:0|0:0,0:0:0:0:
236,328,53297,6,0,P|252:280|252:252,2,72.5,2|0|8,0:0|0:0|0:0,0:0:0:0:
164,268,53897,1,0,0:0:0:0:
191,177,54097,2,0,P|191:133|179:101,1,72.5,2|0,0:0|0:0,0:0:0:0:
81,63,54497,2,0,P|70:97|71:133,1,72.5,8|0,0:0|0:0,0:0:0:0:
70,264,54897,6,0,P|33:261|0:249,2,72.5,2|0|8,0:0|0:0|0:0,0:0:0:0:
164,268,55497,1,0,0:0:0:0:
247,312,55697,2,0,P|282:317|318:312,1,72.5,2|0,0:0|0:0,0:0:0:0:
388,249,56097,2,0,P|393:213|388:177,1,72.5,8|0,0:0|0:0,0:0:0:0:
246,206,56497,6,0,P|240:170|245:134,1,72.5,2|0,0:0|0:0,0:0:0:0:
200,52,56897,1,8,0:0:0:0:
288,16,57097,1,0,0:0:0:0:
352,84,57297,2,0,L|368:172,1,72.5,2|0,0:0|0:0,0:0:0:0:
296,220,57697,2,0,P|300:261|292:300,1,72.5,8|0,0:0|0:0,0:0:0:0:
212,236,58097,6,0,P|160:240|128:260,1,72.5,2|0,0:0|0:0,0:0:0:0:
280,292,58497,2,0,P|257:339|258:376,1,72.5,8|0,0:0|0:0,0:0:0:0:
360,256,58897,2,0,P|389:299|422:316,1,72.5,2|0,0:0|0:0,0:0:0:0:
364,172,59297,2,0,P|416:168|448:148,1,72.5,8|0,0:0|0:0,0:0:0:0:
379,24,59697,6,0,L|387:96,1,72.5,2|0,0:0|0:0,0:0:0:0:
296,72,60097,2,0,L|278:142,1,72.5,8|0,0:0|0:0,0:0:0:0:
196,96,60497,2,0,L|145:148,1,72.5,2|0,0:0|0:0,0:0:0:0:
60,108,60897,2,0,L|80:32,1,72.5,8|0,0:0|0:0,0:0:0:0:
196,96,61297,6,0,L|188:160,3,36.25,4|0|0|0,0:0|0:0|0:0|0:0,0:0:0:0:
168,180,61697,2,0,L|171:244,3,36.25
140,260,62097,6,0,L|132:324,3,36.25
164,340,62497,2,0,L|221:369,3,36.25
248,340,62897,6,0,L|310:325,3,36.25
336,336,63297,2,0,L|400:344,3,36.25
432,384,63697,6,0,P|444:340|436:304,1,72.5,8|8,0:3|0:3,3:0:0:0:
412,224,64097,1,2,0:3:0:0:
256,120,64497,6,0,P|216:124|172:108,1,72.5,6|0,0:0|0:0,0:0:0:0:
116,52,64897,1,8,0:0:0:0:
40,104,65097,2,0,L|-12:92,2,36.25,0|0|2,0:0|0:0|0:0,0:0:0:0:
88,188,65497,1,0,0:0:0:0:
68,280,65697,2,0,P|92:332|132:348,1,72.5,8|0,0:0|0:0,0:0:0:0:
192,244,66097,5,2,0:0:0:0:
286,237,66297,2,0,P|284:272|264:308,1,72.5,0|8,0:0|0:0,0:0:0:0:
232,172,66697,1,0,0:0:0:0:
228,156,66797,1,0,0:0:0:0:
224,140,66897,1,2,0:0:0:0:
179,56,67097,2,0,P|214:44|250:47,1,72.5,0|8,0:0|0:0,0:0:0:0:
344,64,67497,1,0,0:0:0:0:
465,16,67697,6,0,P|473:84|437:156,1,145,2|8,0:0|0:0,0:0:0:0:
347,160,68297,2,0,L|307:149,2,36.25,0|0|2,0:0|0:0|0:0,0:0:0:0:
404,236,68697,1,0,0:0:0:0:
347,311,68897,2,0,P|335:345|313:373,1,72.5,8|0,0:0|0:0,0:0:0:0:
183,361,69297,5,2,0:0:0:0:
101,313,69497,1,0,0:0:0:0:
97,297,69597,1,0,0:0:0:0:
93,281,69697,1,8,0:0:0:0:
112,188,69897,1,0,0:0:0:0:
48,120,70097,2,0,L|68:44,1,72.5,2|0,0:0|0:0,0:0:0:0:
160,48,70497,2,0,L|178:118,1,72.5,8|0,0:0|0:0,0:0:0:0:
164,247,70897,6,0,P|188:287|286:294,1,145,2|8,0:0|0:0,0:0:0:0:
309,208,71497,2,0,L|348:207,2,36.25,0|0|2,0:0|0:0|0:0,0:0:0:0:
244,140,71897,1,0,0:0:0:0:
296,64,72097,2,0,L|384:52,1,72.5,8|0,0:0|0:0,0:0:0:0:
471,134,72497,6,0,L|459:218,1,72.5,2|0,0:0|0:0,0:0:0:0:
458,223,72797,1,0,0:0:0:0:
455,240,72897,1,8,0:0:0:0:
414,325,73097,1,0,0:0:0:0:
324,355,73297,2,0,P|257:338|177:355,1,145,2|8,0:0|0:0,0:0:0:0:
70,284,73897,5,0,0:0:0:0:
70,284,73997,1,0,0:0:0:0:
70,284,74097,1,2,0:0:0:0:
48,192,74297,2,0,L|12:180,2,36.25,0|0|8,0:0|0:0|0:0,0:0:0:0:
124,136,74697,1,0,0:0:0:0:
176,212,74897,2,0,P|232:216|264:208,1,72.5,2|0,0:0|0:0,0:0:0:0:
196,76,75297,1,8,0:0:0:0:
124,136,75497,1,0,0:0:0:0:
100,280,75697,6,0,L|200:300,1,72.5,2|0,0:0|0:0,0:0:0:0:
188,300,75997,1,0,0:0:0:0:
204,304,76097,1,8,0:0:0:0:
292,272,76297,1,0,0:0:0:0:
424,332,76497,6,0,L|422:377,2,36.25,2|0|0,0:0|0:0|0:0,0:0:0:0:
449,305,76797,2,0,P|465:249|461:221,1,72.5,2|0,0:0|0:0,0:0:0:0:
453,200,77097,1,2,0:0:0:0:
425,57,77297,5,6,0:0:0:0:
332,37,77497,2,0,L|335:0,2,36.25,0|0|8,0:0|0:0|0:0,0:0:0:0:
278,114,77897,1,0,0:0:0:0:
183,110,78097,2,0,L|155:32,1,72.5,2|0,0:0|0:0,0:0:0:0:
67,66,78497,2,0,L|39:144,1,72.5,8|0,0:0|0:0,0:0:0:0:
51,265,78897,5,2,0:0:0:0:
124,324,79097,1,0,0:0:0:0:
142,324,79197,1,0,0:0:0:0:
160,324,79297,1,8,0:0:0:0:
243,281,79497,2,0,P|280:268|319:277,1,72.5,0|2,0:0|0:0,0:0:0:0:
288,365,79897,1,0,0:0:0:0:
160,324,80097,2,0,P|147:286|156:247,1,72.5,8|0,0:0|0:0,0:0:0:0:
247,164,80497,6,0,P|311:156|345:77,1,145,2|8,0:0|0:0,0:0:0:0:
434,56,81097,1,0,0:0:0:0:
434,56,81197,1,0,0:0:0:0:
434,56,81297,2,0,L|422:132,1,72.5,2|0,0:0|0:0,0:0:0:0:
434,221,81697,1,8,0:0:0:0:
345,335,81897,6,0,L|269:323,1,72.5,0|2,0:0|0:0,0:0:0:0:
180,335,82297,2,0,L|120:286,1,72.5,0|8,0:0|0:0,0:0:0:0:
67,213,82697,2,0,L|26:194,2,36.25,0|0|2,0:0|0:0|0:0,0:0:0:0:
149,167,83097,1,0,0:0:0:0:
237,198,83297,2,0,P|241:150|221:114,1,72.5,8|0,0:0|0:0,0:0:0:0:
118,62,83697,6,0,B|149:34|149:34|264:32,1,145,2|8,0:0|0:0,0:0:0:0:
335,75,84297,2,0,L|329:123,2,36.25,0|0|2,0:0|0:0|0:0,0:0:0:0:
405,12,84697,1,0,0:0:0:0:
466,83,84897,2,0,L|458:158,1,72.5,8|0,0:0|0:0,0:0:0:0:
474,287,85297,6,0,P|420:337|349:317,1,145,2|8,0:0|0:0,0:0:0:0:
282,263,85897,1,0,0:0:0:0:
280,168,86097,2,0,B|260:112|284:24|284:24|232:48|192:32,1,217.5,2|0,0:0|0:0,0:0:0:0:
196,36,86797,1,0,0:0:0:0:
180,32,86897,6,0,L|160:152,1,116,6|8,0:0|0:0,0:0:0:0:
94,192,87497,1,0,0:0:0:0:
159,240,87697,2,0,L|179:355,1,116,2|8,0:0|0:0,0:0:0:0:
252,268,88297,1,0,0:0:0:0:
256,252,88397,1,0,0:0:0:0:
260,236,88497,6,0,B|264:192|278:170|278:170|239:166|202:127|191:104|192:55|218:23|236:0|267:-4|296:-7|334:-8|367:31|381:57|367:111,1,464,2|4,0:0|0:0,0:0:0:0:
256,192,99697,12,0,101697,0:0:0:0:
295,182,102097,6,0,L|288:235,2,36.25
268,156,102397,2,0,P|264:112|300:48,1,108.75
396,136,102897,5,6,0:0:0:0:
464,200,103097,1,0,0:0:0:0:
400,268,103297,2,0,P|384:328|392:352,1,72.5,2|0,0:0|0:0,0:0:0:0:
476,316,103697,2,0,P|492:256|484:232,1,72.5,2|0,0:0|0:0,0:0:0:0:
376,192,104097,2,0,P|332:228|324:244,1,72.5,2|0,0:0|0:0,0:0:0:0:
272,316,104497,5,2,0:0:0:0:
180,308,104697,2,0,L|160:348,2,36.25,0|0|2,0:0|0:0|0:0,0:0:0:0:
104,248,105097,1,0,0:0:0:0:
160,172,105297,2,0,L|172:96,1,72.5,2|0,0:0|0:0,0:0:0:0:
68,52,105697,2,0,L|80:124,1,72.5,2|0,0:0|0:0,0:0:0:0:
156,20,106097,6,0,L|227:8,1,72.5,2|0,0:0|0:0,0:0:0:0:
244,16,106397,1,0,0:0:0:0:
260,23,106497,1,2,0:0:0:0:
320,96,106697,1,0,0:0:0:0:
255,168,106897,2,0,P|242:201|240:237,1,72.5,2|0,0:0|0:0,0:0:0:0:
304,308,107297,2,0,P|248:332|212:328,1,72.5,2|0,0:0|0:0,0:0:0:0:
124,316,107697,6,0,P|107:262|111:226,1,72.5,2|0,0:0|0:0,0:0:0:0:
124,152,108097,1,2,0:0:0:0:
212,120,108297,1,0,0:0:0:0:
276,191,108497,2,0,P|310:201|346:196,1,72.5,2|0,0:0|0:0,0:0:0:0:
387,111,108897,2,0,P|353:102|317:107,1,72.5,2|0,0:0|0:0,0:0:0:0:
429,183,109297,6,0,P|467:123|448:56,1,145,2|2,0:0|0:0,0:0:0:0:
356,32,109897,1,0,0:0:0:0:
276,84,110097,2,0,B|286:128|272:164|272:164|230:157|196:167,1,145,2|2,0:0|0:0,0:0:0:0:
142,231,110697,1,0,0:0:0:0:
219,284,110897,6,0,P|192:312|162:325,1,72.5,2|0,0:0|0:0,0:0:0:0:
54,278,111297,2,0,P|43:239|47:207,1,72.5,2|0,0:0|0:0,0:0:0:0:
144,144,111697,2,0,P|182:154|208:173,1,72.5,2|0,0:0|0:0,0:0:0:0:
296,252,112097,1,2,0:0:0:0:
388,232,112297,1,0,0:0:0:0:
376,138,112497,6,0,B|354:106|354:106|222:94,1,145,2|2,0:0|0:0,0:0:0:0:
168,45,113097,2,0,L|174:6,2,36.25,0|0|2,0:0|0:0|0:0,0:0:0:0:
100,112,113497,1,0,0:0:0:0:
112,204,113697,2,0,P|100:248|76:272,1,72.5,2|0,0:0|0:0,0:0:0:0:
24,168,114097,5,2,0:0:0:0:
100,112,114297,1,0,0:0:0:0:
188,148,114497,2,0,L|201:219,1,72.5,2|0,0:0|0:0,0:0:0:0:
168,324,114897,6,0,L|155:368,2,36.25,2|0|0,0:0|0:0|0:0,0:0:0:0:
184,304,115197,2,0,P|140:280|120:244,2,72.5,2|0|0,0:0|0:0|0:0,0:0:0:0:
252,281,115697,6,0,B|256:201|256:201|244:133,1,145,4|8,0:0|0:0,0:0:0:0:
198,55,116297,1,0,0:0:0:0:
104,63,116497,2,0,P|88:115|97:157,1,72.5,2|0,0:0|0:0,0:0:0:0:
94,149,116797,1,0,0:0:0:0:
98,166,116897,1,8,0:0:0:0:
182,208,117097,1,0,0:0:0:0:
244,137,117297,6,0,L|330:154,1,72.5,2|0,0:0|0:0,0:0:0:0:
409,145,117697,1,8,0:0:0:0:
444,57,117897,2,0,L|500:25,2,36.25,0|0|2,0:0|0:0|0:0,0:0:0:0:
348,49,118297,1,0,0:0:0:0:
307,134,118497,1,8,0:0:0:0:
340,221,118697,1,0,0:0:0:0:
470,284,118897,6,0,L|465:366,1,72.5,2|0,0:0|0:0,0:0:0:0:
374,381,119297,2,0,L|369:308,1,72.5,8|0,0:0|0:0,0:0:0:0:
340,221,119697,1,2,0:0:0:0:
278,149,119897,2,0,P|276:112|284:95,2,36.25,0|0|8,0:0|0:0|0:0,0:0:0:0:
195,195,120297,1,0,0:0:0:0:
135,327,120497,5,2,0:0:0:0:
57,272,120697,2,0,L|22:296,2,36.25,0|0|8,0:0|0:0|0:0,0:0:0:0:
25,183,121097,2,0,P|41:151|45:116,1,72.5,0|2,0:0|0:0,0:0:0:0:
120,56,121497,2,0,L|108:16,2,36.25,0|0|8,0:0|0:0|0:0,0:0:0:0:
204,100,121897,1,0,0:0:0:0:
338,45,122097,6,0,L|352:208,1,145,2|8,0:0|0:0,0:0:0:0:
256,188,122697,1,0,0:0:0:0:
256,284,122897,2,0,L|96:312,1,145,2|8,0:0|0:0,0:0:0:0:
24,280,123497,1,0,0:0:0:0:
28,264,123597,1,0,0:0:0:0:
32,248,123697,1,2,0:0:0:0:
88,172,123897,6,0,P|92:132|84:96,1,72.5,0|8,0:0|0:0,0:0:0:0:
160,44,124297,1,0,0:0:0:0:
192,132,124497,2,0,P|214:165|243:187,1,72.5,2|0,0:0|0:0,0:0:0:0:
280,100,124897,2,0,P|257:66|228:44,1,72.5,8|0,0:0|0:0,0:0:0:0:
216,40,125197,1,0,0:0:0:0:
196,40,125297,1,2,0:0:0:0:
108,156,125497,6,0,L|48:168,2,36.25,0|0|8,0:0|0:0|0:0,0:0:0:0:
167,229,125897,2,0,P|183:276|180:309,1,72.5,0|2,0:0|0:0,0:0:0:0:
271,329,126297,2,0,L|283:389,2,36.25,0|0|8,0:0|0:0|0:0,0:0:0:0:
354,284,126697,1,0,0:0:0:0:
320,144,126897,5,2,0:0:0:0:
225,150,127097,2,0,L|184:104,2,36.25,0|0|8,0:0|0:0|0:0,0:0:0:0:
164,264,127497,6,0,B|178:254|178:254|188:240|188:240|204:235|204:235|212:226|212:226|225:227|237:227|249:223|261:219|269:215|277:207|285:199|289:191|293:183|297:175|300:162|299:148|299:148|320:144,1,217.5,0|4,0:0|0:0,0:0:0:0:
152,136,128497,6,0,L|152:28,2,72.5,2|0|8,0:0|0:0|0:0,0:0:0:0:
84,200,129097,1,0,0:0:0:0:
58,290,129297,2,0,L|71:361,1,72.5,2|0,0:0|0:0,0:0:0:0:
165,304,129697,2,0,L|178:232,1,72.5,8|0,0:0|0:0,0:0:0:0:
280,272,130097,6,0,P|328:284|376:272,2,72.5,2|0|8,0:0|0:0|0:0,0:0:0:0:
327,190,130697,1,0,0:0:0:0:
233,182,130897,2,0,P|253:134|285:110,1,72.5,2|0,0:0|0:0,0:0:0:0:
376,109,131297,2,0,P|365:74|341:47,1,72.5,8|0,0:0|0:0,0:0:0:0:
234,30,131697,6,0,L|154:58,1,72.5,2|0,0:0|0:0,0:0:0:0:
118,134,132097,2,0,L|38:162,1,72.5,8|0,0:0|0:0,0:0:0:0:
100,240,132497,2,0,L|179:211,1,72.5,2|0,0:0|0:0,0:0:0:0:
254,247,132897,2,0,L|333:218,1,72.5,8|0,0:0|0:0,0:0:0:0:
420,115,133297,5,2,0:0:0:0:
468,196,133497,1,0,0:0:0:0:
416,272,133697,2,0,P|396:320|364:344,1,72.5,8|0,0:0|0:0,0:0:0:0:
292,308,134097,2,0,P|256:303|220:307,1,72.5,2|0,0:0|0:0,0:0:0:0:
130,333,134497,2,0,P|106:306|96:272,1,72.5,8|0,0:0|0:0,0:0:0:0:
88,126,134897,5,2,0:0:0:0:
149,54,135097,1,0,0:0:0:0:
188,140,135297,2,0,P|240:160|272:156,1,72.5,8|0,0:0|0:0,0:0:0:0:
368,164,135697,1,2,0:0:0:0:
416,84,135897,1,0,0:0:0:0:
320,84,136097,2,0,P|268:64|236:68,1,72.5,8|0,0:0|0:0,0:0:0:0:
255,159,136497,6,0,P|199:167|174:187,1,72.5,2|0,0:0|0:0,0:0:0:0:
244,252,136897,2,0,P|200:287|188:316,1,72.5,8|0,0:0|0:0,0:0:0:0:
264,364,137297,2,0,P|307:328|319:299,1,72.5,2|0,0:0|0:0,0:0:0:0:
408,332,137697,2,0,P|399:276|379:251,1,72.5,8|0,0:0|0:0,0:0:0:0:
396,132,138097,6,0,L|352:96,3,36.25,4|0|0|0,0:0|0:0|0:0|0:0,0:0:0:0:
332,68,138497,2,0,L|288:64,3,36.25
248,88,138897,6,0,L|180:80,3,36.25
160,68,139297,2,0,L|112:96,3,36.25
76,104,139697,6,0,L|60:152,3,36.25
72,192,140097,2,0,L|76:240,3,36.25
48,296,140497,6,0,P|100:300|140:272,1,72.5
182,213,140897,2,0,P|242:205|222:269,1,145,0|4,0:0|0:0,0:0:0:0:
308,228,154097,5,0,0:0:0:0:
372,156,154297,2,0,L|416:172,2,36.25,0|0|8,0:0|0:0|0:0,0:0:0:0:
280,136,154697,2,0,L|236:120,2,36.25
308,228,155097,2,0,L|352:244,2,36.25,0|0|8,0:0|0:0|0:0,0:0:0:0:
212,236,155497,1,0,0:0:0:0:
164,320,155697,5,0,0:0:0:0:
92,260,155897,2,0,L|40:292,2,36.25,0|0|8,0:0|0:0|0:0,0:0:0:0:
136,176,156297,2,0,L|188:144,2,36.25
212,236,156697,2,0,L|264:204,2,36.25,0|0|8,0:0|0:0|0:0,0:0:0:0:
284,300,157097,1,0,0:0:0:0:
352,236,157297,5,0,0:0:0:0:
380,148,157497,2,0,L|392:96,2,36.25,0|0|8,0:0|0:0|0:0,0:0:0:0:
284,160,157897,2,0,L|272:212,2,36.25
228,84,158297,2,0,L|240:32,2,36.25,0|0|8,0:0|0:0|0:0,0:0:0:0:
132,96,158697,2,0,L|100:184,1,72.5
68,252,159097,6,0,L|28:236,2,36.25,0|0|8,0:0|0:0|0:0,0:0:0:0:
84,344,159497,2,0,L|44:328,2,36.25
167,300,159897,1,0,0:0:0:0:
259,318,160097,2,0,P|278:279|277:238,1,72.5,8|0,0:0|0:0,0:0:0:0:
321,114,160497,5,0,0:0:0:0:
416,136,160697,1,0,0:0:0:0:
464,216,160897,2,0,P|468:272|452:308,1,72.5,8|0,0:0|0:0,0:0:0:0:
392,348,161297,1,0,0:0:0:0:
297,326,161497,1,0,0:0:0:0:
249,246,161697,2,0,P|245:190|261:154,1,72.5,8|0,0:0|0:0,0:0:0:0:
387,129,162097,6,0,B|401:128|401:128|416:119|416:119|431:118|431:118|477:67|433:-21|334:16,1,217.5
226,46,162897,2,0,P|160:112|245:150,1,217.5
265,147,163597,1,0,0:0:0:0:
281,139,163697,6,0,L|317:114,3,36.25
354,150,164097,2,0,L|394:134,3,36.25,8|0|0|0,0:0|0:0|0:0|0:0,0:0:0:0:
434,162,164497,6,0,L|462:194,3,36.25
450,242,164897,2,0,L|465:282,3,36.25,8|0|0|0,0:0|0:0|0:0|0:0,0:0:0:0:
422,314,165297,6,0,L|389:342,3,36.25
342,330,165697,2,0,L|301:345,3,36.25,8|0|0|0,0:0|0:0|0:0|0:0,0:0:0:0:
262,314,166097,6,0,L|221:299,3,36.25,8|8|8|8,3:3|3:3|3:3|3:3,3:3:0:0:
198,366,166497,2,0,P|162:334|154:294,1,72.5,2|4,3:0|3:0,3:0:0:0:
170,170,166897,5,6,0:0:0:0:
224,84,167097,2,0,P|276:68|312:72,1,72.5,0|8,0:0|0:0,0:0:0:0:
280,160,167497,2,0,L|288:204,2,36.25,0|0|2,0:0|0:0|0:0,0:0:0:0:
224,84,167897,1,0,0:0:0:0:
139,42,168097,2,0,P|126:79|127:138,1,72.5,8|0,0:0|0:0,0:0:0:0:
72,216,168497,6,0,L|80:312,1,72.5,2|0,0:0|0:0,0:0:0:0:
80,308,168797,1,0,0:0:0:0:
82,326,168897,1,8,0:0:0:0:
172,296,169097,1,0,0:0:0:0:
256,336,169297,2,0,P|312:340|348:328,1,72.5,2|0,0:0|0:0,0:0:0:0:
292,248,169697,2,0,P|286:212|291:176,1,72.5,8|0,0:0|0:0,0:0:0:0:
412,132,170097,6,0,P|417:167|412:203,1,72.5,2|0,0:0|0:0,0:0:0:0:
332,100,170497,1,8,0:0:0:0:
256,44,170697,2,0,L|264:0,2,36.25,0|0|2,0:0|0:0|0:0,0:0:0:0:
180,100,171097,1,0,0:0:0:0:
188,196,171297,2,0,P|204:248|200:280,1,72.5,8|0,0:0|0:0,0:0:0:0:
88,256,171697,5,2,0:0:0:0:
68,164,171897,2,0,L|24:136,2,36.25,0|0|8,0:0|0:0|0:0,0:0:0:0:
160,144,172297,1,0,0:0:0:0:
220,72,172497,2,0,P|272:52|320:48,1,72.5,2|0,0:0|0:0,0:0:0:0:
360,112,172897,2,0,P|308:132|260:136,1,72.5,8|0,0:0|0:0,0:0:0:0:
376,32,173297,6,0,P|424:60|420:164,1,145,2|8,0:0|0:0,0:0:0:0:
388,228,173897,1,0,0:0:0:0:
384,244,173997,1,0,0:0:0:0:
380,264,174097,1,2,0:0:0:0:
308,328,174297,1,0,0:0:0:0:
220,288,174497,2,0,L|148:328,1,72.5,8|0,0:0|0:0,0:0:0:0:
111,220,174897,6,0,L|183:180,1,72.5,2|0,0:0|0:0,0:0:0:0:
67,287,175297,2,0,P|41:263|31:229,1,72.5,8|0,0:0|0:0,0:0:0:0:
44,92,175697,2,0,L|208:100,1,145,2|8,0:0|0:0,0:0:0:0:
280,76,176297,2,0,L|280:28,2,36.25,0|0|2,0:0|0:0|0:0,0:0:0:0:
256,168,176697,5,0,0:0:0:0:
256,168,176797,1,0,0:0:0:0:
256,168,176897,2,0,P|256:224|244:272,1,72.5,8|0,0:0|0:0,0:0:0:0:
160,264,177297,1,2,0:0:0:0:
76,224,177497,2,0,P|68:284|84:324,1,72.5,0|8,0:0|0:0,0:0:0:0:
152,176,177897,1,0,0:0:0:0:
120,88,178097,6,0,P|152:28|180:12,1,72.5,2|0,0:0|0:0,0:0:0:0:
216,100,178497,1,8,0:0:0:0:
288,40,178697,1,0,0:0:0:0:
416,56,178897,6,0,L|424:16,2,36.25,2|0|0,0:0|0:0|0:0,0:0:0:0:
460,140,179297,2,0,P|468:204|464:228,1,72.5
400,320,179697,5,6,0:0:0:0:
304,316,179897,2,0,L|288:360,2,36.25,0|0|8,0:0|0:0|0:0,0:0:0:0:
348,232,180297,1,0,0:0:0:0:
312,144,180497,2,0,P|284:100|252:80,1,72.5,2|0,0:0|0:0,0:0:0:0:
164,112,180897,2,0,P|192:156|224:176,1,72.5,8|0,0:0|0:0,0:0:0:0:
208,36,181297,6,0,P|156:24|112:40,1,72.5,2|0,0:0|0:0,0:0:0:0:
120,32,181597,1,0,0:0:0:0:
108,44,181697,1,8,0:0:0:0:
64,128,181897,1,0,0:0:0:0:
100,216,182097,2,0,L|80:292,1,72.5,2|0,0:0|0:0,0:0:0:0:
176,280,182497,2,0,L|196:356,1,72.5,8|0,0:0|0:0,0:0:0:0:
296,280,182897,6,0,P|356:256|452:292,1,145,2|8,0:0|0:0,0:0:0:0:
368,344,183497,1,0,0:0:0:0:
276,352,183697,2,0,P|240:332|224:300,1,72.5,2|0,0:0|0:0,0:0:0:0:
220,288,183997,1,0,0:0:0:0:
220,268,184097,1,8,0:0:0:0:
156,196,184297,2,0,L|168:112,1,72.5,0|2,0:0|0:0,0:0:0:0:
72,44,184697,6,0,L|82:115,1,72.5,0|8,0:0|0:0,0:0:0:0:
68,208,185097,2,0,L|32:220,2,36.25,0|0|2,0:0|0:0|0:0,0:0:0:0:
152,248,185497,1,0,0:0:0:0:
232,196,185697,2,0,P|228:164|200:108,1,72.5,8|0,0:0|0:0,0:0:0:0:
216,12,186097,6,0,P|287:21|359:15,1,145,2|8,0:0|0:0,0:0:0:0:
448,48,186697,2,0,L|468:12,2,36.25,0|0|2,0:0|0:0|0:0,0:0:0:0:
368,100,187097,1,0,0:0:0:0:
420,180,187297,2,0,L|416:268,1,72.5,8|0,0:0|0:0,0:0:0:0:
316,180,187697,6,0,P|268:156|244:120,1,72.5,2|0,0:0|0:0,0:0:0:0:
244,132,187997,1,0,0:0:0:0:
236,116,188097,1,8,0:0:0:0:
152,44,188297,1,0,0:0:0:0:
64,104,188497,2,0,B|76:132|76:132|60:172|60:172|92:220|64:332,1,217.5,2|0,0:0|0:0,0:0:0:0:
80,328,189197,1,0,0:0:0:0:
96,340,189297,6,0,P|156:352|216:332,1,116,4|8,0:0|0:0,0:0:0:0:
257,272,189897,1,0,0:0:0:0:
303,205,190097,2,0,P|358:189|414:202,1,116,2|8,0:0|0:0,0:0:0:0:
473,146,190697,1,0,0:0:0:0:
415,89,190897,6,0,B|411:41|411:41|427:1,2,87,2|0|0,0:0|0:0|0:0,0:0:0:0:
336,107,191697,2,0,L|216:79,1,116
84,123,192497,5,4,0:0:0:0:
208,136,198897,6,0,L|216:60,1,72.5,2|0,0:0|0:0,0:0:0:0:
312,144,199297,2,0,L|388:152,1,72.5,8|0,0:0|0:0,0:0:0:0:
304,248,199697,2,0,L|296:324,1,72.5,2|0,0:0|0:0,0:0:0:0:
200,240,200097,2,0,L|124:232,1,72.5,8|0,0:0|0:0,0:0:0:0:
208,136,200497,6,0,P|220:88|244:64,1,72.5,2|0,0:0|0:0,0:0:0:0:
312,144,200897,2,0,P|360:156|384:180,1,72.5,8|0,0:0|0:0,0:0:0:0:
304,248,201297,2,0,P|292:296|268:320,1,72.5,2|0,0:0|0:0,0:0:0:0:
200,240,201697,2,0,P|152:228|128:204,1,72.5,8|0,0:0|0:0,0:0:0:0:
208,136,202097,6,0,L|200:88,3,36.25,2|0|0|0,0:0|0:0|0:0|0:0,0:0:0:0:
270,64,202497,2,0,L|276:100,3,36.25,8|0|0|0,0:0|0:0|0:0|0:0,0:0:0:0:
348,100,202897,6,0,L|353:135,3,36.25,2|0|0|0,0:0|0:0|0:0|0:0,0:0:0:0:
421,99,203297,2,0,L|416:64,3,36.25,8|0|0|0,0:0|0:0|0:0|0:0,0:0:0:0:
420,180,203697,6,0,L|408:248,3,36.25,2|0|0|0,0:0|0:0|0:0|0:0,0:0:0:0:
344,240,204097,2,0,L|332:308,3,36.25,8|0|0|0,0:0|0:0|0:0|0:0,0:0:0:0:
268,296,204497,6,0,B|248:300|248:300|208:284|208:284|118:317|86:280|86:280|92:255,1,217.5,2|0,0:0|0:0,0:0:0:0:
145,161,205297,5,6,0:0:0:0:
256,192,205397,12,0,208497,0:0:0:0:
