osu file format v14

[General]
AudioFilename: senya.mp3
AudioLeadIn: 0
PreviewTime: 64397
Countdown: 0
SampleSet: Soft
StackLeniency: 0.7
Mode: 0
LetterboxInBreaks: 0
WidescreenStoryboard: 0

[Editor]
DistanceSpacing: 1
BeatDivisor: 4
GridSize: 32
TimelineZoom: 1.5

[Metadata]
Title:Yakusoku no Chikara
TitleUnicode:約束のチカラ
Artist:senya
ArtistUnicode:senya
Creator:Santtu
Version:Abyssal Catharsis
Source:艦隊これくしょん -艦これ-
Tags:smsh150 -Mo- yuuhei catharsis satellite morinaga mayumi 森永真由美 終焉の輝き 幽閉カタルシス 宇佐美宏 岡宮道生 かませ虎 南方海域強襲偵察 Autobahn C87 KanColle Kantai Collection
BeatmapID:771347
BeatmapSetID:349810

[Difficulty]
HPDrainRate:6
CircleSize:4
OverallDifficulty:7.5
ApproachRate:8.8
SliderMultiplier:1.72
SliderTickRate:2

[Events]
//Background and Video events
0,0,"bg.jpg",0,0
//Break Periods
2,192697,198268
//Storyboard Layer 0 (Background)
//Storyboard Layer 1 (Fail)
//Storyboard Layer 2 (Pass)
//Storyboard Layer 3 (Foreground)
//Storyboard Sound Samples

[TimingPoints]
497.879539386012,400,4,2,1,80,1,0
26197,-100,4,2,1,60,0,0
38897,-100,4,2,1,75,0,0
46847,-100,4,2,2,75,0,0
46947,-100,4,2,1,75,0,0
50697,-200,4,2,1,75,0,0
51197,-200,4,2,1,5,0,0
51297,-200,4,2,1,75,0,0
51697,-66.6666666666667,4,2,1,75,0,1
51797,-66.6666666666667,4,2,1,75,0,0
61297,-100,4,2,1,60,0,0
64097,-133.333333333333,4,2,1,75,0,0
64497,-86.9565217391304,4,2,1,95,0,1
76497,-86.9565217391304,4,2,1,95,0,0
77297,-86.9565217391304,4,2,1,95,0,1
86897,-133.333333333333,4,2,1,95,0,0
88797,-133.333333333333,4,2,1,75,0,0
89897,-133.333333333333,4,2,1,40,0,0
90097,-100,4,2,1,75,0,0
110797,-100,4,2,2,75,0,0
110997,-100,4,2,1,75,0,0
127497,-200,4,2,1,75,0,0
127997,-200,4,2,1,5,0,0
128097,-200,4,2,1,75,0,0
128497,-66.6666666666667,4,2,1,75,0,1
128597,-66.6666666666667,4,2,1,75,0,0
138097,-100,4,2,1,75,0,0
141297,-200,4,2,1,75,0,0
144897,-200,4,2,1,5,0,0
144997,-200,4,2,1,75,0,0
145497,-200,4,2,1,5,0,0
145597,-200,4,2,1,75,0,0
146097,-200,4,2,1,5,0,0
146197,-200,4,2,1,75,0,0
146497,-200,4,2,1,5,0,0
146597,-200,4,2,1,75,0,0
152897,-200,4,2,1,5,0,0
152997,-200,4,2,1,75,0,0
153497,-200,4,2,1,5,0,0
153597,-200,4,2,1,75,0,0
154097,-133.333333333333,4,2,1,75,0,0
162097,-111.111111111111,4,2,1,75,0,0
163697,-100,4,2,1,75,0,0
166497,-133.333333333333,4,2,1,75,0,0
166897,-86.9565217391304,4,2,1,95,0,1
178897,-86.9565217391304,4,2,1,95,0,0
179697,-86.9565217391304,4,2,1,95,0,1
188797,-86.9565217391304,4,2,3,95,0,1
188997,-86.9565217391304,4,2,1,95,0,1
189297,-133.333333333333,4,2,1,75,0,0
191097,-133.333333333333,4,2,1,65,0,0
191497,-133.333333333333,4,2,1,55,0,0
191897,-133.333333333333,4,2,1,45,0,0
192497,-100,4,2,1,75,0,0
205397,-100,4,2,1,40,0,0
208497,-100,4,2,1,5,0,0

[Colours]
Combo1 : 155,55,255
Combo2 : 97,124,218
Combo3 : 244,145,255
Combo4 : 230,0,0
Combo5 : 171,171,214

[HitObjects]
352,144,13297,6,0,L|340:264,1,86,6|0,0:0|0:0,0:0:0:0:
343,229,13597,1,0,0:0:0:0:
343,229,13697,1,8,0:0:0:0:
256,324,13897,1,0,0:0:0:0:
148,180,14097,2,0,L|233:190,1,86,2|0,0:0|0:0,0:0:0:0:
80,304,14497,1,8,0:0:0:0:
59,95,14697,2,0,L|44:180,1,86,0|2,0:0|0:0,0:0:0:0:
176,56,15097,5,0,0:0:0:0:
296,100,15297,2,0,P|338:96|374:73,1,86,8|0,0:0|0:0,0:0:0:0:
136,124,15697,1,2,0:0:0:0:
232,208,15897,2,0,L|228:316,1,86,0|8,0:0|0:0,0:0:0:0:
404,200,16297,2,0,P|376:172|323:152,1,86,0|2,0:0|0:0,0:0:0:0:
383,368,16697,5,0,0:0:0:0:
407,359,16797,1,0,0:0:0:0:
432,352,16897,2,0,L|438:266,1,86,8|0,0:0|0:0,0:0:0:0:
489,92,17297,2,0,L|495:178,1,86,2|0,0:0|0:0,0:0:0:0:
332,121,17697,1,8,0:0:0:0:
224,192,17897,2,0,L|231:284,1,86,0|2,0:0|0:0,0:0:0:0:
247,89,18297,5,0,0:0:0:0:
129,34,18497,2,0,P|88:50|54:85,1,86,8|0,0:0|0:0,0:0:0:0:
6,197,18897,1,2,0:0:0:0:
84,299,19097,2,0,L|183:306,1,86,0|8,0:0|0:0,0:0:0:0:
319,212,19497,2,0,L|220:219,1,86,0|2,0:0|0:0,0:0:0:0:
260,344,19897,5,0,0:0:0:0:
260,344,19997,1,0,0:0:0:0:
260,344,20097,2,0,P|321:359|381:336,1,129,8|0,0:0|0:0,0:0:0:0:
410,305,20497,2,0,L|406:206,1,86,2|0,0:0|0:0,0:0:0:0:
340,60,20897,1,8,0:0:0:0:
220,195,21097,2,0,P|188:166|172:126,1,86,0|2,0:0|0:0,0:0:0:0:
280,100,21497,5,0,0:0:0:0:
280,344,21697,2,0,L|272:244,1,86,8|0,0:0|0:0,0:0:0:0:
456,172,22097,1,2,0:0:0:0:
340,120,22297,2,0,L|348:220,1,86,0|8,0:0|0:0,0:0:0:0:
227,155,22697,1,0,0:0:0:0:
184,344,22897,6,0,P|133:332|96:308,1,86,2|0,0:0|0:0,0:0:0:0:
87,302,23197,1,0,0:0:0:0:
71,287,23297,1,8,0:0:0:0:
123,168,23497,1,0,0:0:0:0:
260,272,23697,2,0,P|332:284|328:180,1,172,2|8,0:0|0:0,0:0:0:0:
128,48,24297,6,0,L|116:152,2,86,0|2|0,0:0|0:0|0:0,0:0:0:0:
240,116,24897,2,0,L|245:201,1,86,8|0,0:0|0:0,0:0:0:0:
385,305,25297,6,0,L|372:339,4,21.5,2|0|0|0|0,0:0|0:0|0:0|0:0|0:0,0:0:0:0:
420,267,25597,2,0,P|420:223|407:183,1,86,2|0,0:0|0:0,0:0:0:0:
378,152,25897,1,2,0:0:0:0:
256,32,26097,5,6,0:0:0:0:
128,84,26297,1,0,0:0:0:0:
168,252,26497,2,0,L|188:136,1,86,2|0,0:0|0:0,0:0:0:0:
37,221,26897,2,0,L|51:305,1,86,2|0,0:0|0:0,0:0:0:0:
217,350,27297,1,2,0:0:0:0:
326,266,27497,2,0,P|340:205|328:169,1,86,0|2,0:0|0:0,0:0:0:0:
256,49,27897,6,0,P|316:39|354:50,1,86,0|2,0:0|0:0,0:0:0:0:
243,212,28297,1,0,0:0:0:0:
128,82,28497,2,0,P|121:27|133:-7,1,86,2|0,0:0|0:0,0:0:0:0:
246,129,28897,2,0,P|253:184|241:218,1,86,2|0,0:0|0:0,0:0:0:0:
72,220,29297,6,0,P|80:284|188:352,1,172,2|2,0:0|0:0,0:0:0:0:
263,273,29897,1,0,0:0:0:0:
414,354,30097,2,0,B|430:255,1,86,2|0,0:0|0:0,0:0:0:0:
342,108,30497,2,0,B|358:207,1,86,2|0,0:0|0:0,0:0:0:0:
323,355,30897,5,2,0:0:0:0:
355,192,31097,1,0,0:0:0:0:
185,252,31297,2,0,P|220:278|262:287,1,86,2|0,0:0|0:0,0:0:0:0:
258,95,31697,2,0,P|272:143|253:196,1,86,2|0,0:0|0:0,0:0:0:0:
171,23,32097,2,0,P|144:66|148:122,1,86,2|0,0:0|0:0,0:0:0:0:
66,257,32497,6,0,P|59:214|75:174,1,86,2|0,0:0|0:0,0:0:0:0:
270,121,32897,2,0,P|276:163|261:204,1,86,2|0,0:0|0:0,0:0:0:0:
160,224,33297,2,0,L|184:48,1,172,2|2,0:0|0:0,0:0:0:0:
311,36,33897,1,0,0:0:0:0:
115,10,34097,6,0,P|95:62|111:110,1,86,2|0,0:0|0:0,0:0:0:0:
201,183,34497,2,0,L|306:162,1,86,2|0,0:0|0:0,0:0:0:0:
400,256,34897,2,0,P|391:311|353:344,1,86,2|0,0:0|0:0,0:0:0:0:
285,166,35297,2,0,L|290:251,1,86,2|0,0:0|0:0,0:0:0:0:
91,319,35697,6,0,P|135:242|110:158,1,172,2|2,0:0|0:0,0:0:0:0:
26,230,36297,1,0,0:0:0:0:
217,307,36497,2,0,L|311:302,1,86,2|0,0:0|0:0,0:0:0:0:
389,164,36897,2,0,L|295:159,1,86,2|0,0:0|0:0,0:0:0:0:
127,61,37297,6,0,L|221:56,1,86,2|0,0:0|0:0,0:0:0:0:
304,160,37697,1,2,0:0:0:0:
213,57,37897,1,0,0:0:0:0:
381,35,38097,6,0,L|377:2,4,21.5,2|0|0|0|0,0:0|0:0|0:0|0:0|0:0,0:0:0:0:
372,54,38397,1,0,0:0:0:0:
361,226,38597,2,0,P|350:186|359:141,1,86
442,187,38897,6,0,P|431:288|355:316,1,172,6|8,0:0|0:0,0:0:0:0:
229,226,39497,1,0,0:0:0:0:
293,376,39697,1,2,0:0:0:0:
361,226,39897,1,0,0:0:0:0:
225,134,40097,2,0,P|181:140|147:164,1,86,8|0,0:0|0:0,0:0:0:0:
163,345,40497,6,0,L|152:260,1,86,2|0,0:0|0:0,0:0:0:0:
296,172,40897,2,0,P|333:151|375:147,1,86,8|0,0:0|0:0,0:0:0:0:
272,308,41297,1,2,0:0:0:0:
184,160,41497,1,0,0:0:0:0:
356,236,41697,2,0,P|424:232|468:160,1,129,8|0,0:0|0:0,0:0:0:0:
466,167,42097,6,0,L|453:72,1,86,2|0,0:0|0:0,0:0:0:0:
268,88,42497,1,8,0:0:0:0:
372,12,42697,1,0,0:0:0:0:
324,167,42897,2,0,P|284:188|240:184,1,86,2|0,0:0|0:0,0:0:0:0:
112,56,43297,2,0,L|120:148,1,86,8|0,0:0|0:0,0:0:0:0:
40,296,43697,6,0,L|48:204,1,86,2|0,0:0|0:0,0:0:0:0:
248,128,44097,2,0,P|220:228|148:268,1,172,8|2,0:0|0:0,0:0:0:0:
120,144,44697,1,0,0:0:0:0:
55,323,44897,2,0,P|96:338|139:337,1,86,8|0,0:0|0:0,0:0:0:0:
140,152,45297,6,0,L|108:268,1,86,2|0,0:0|0:0,0:0:0:0:
257,343,45697,2,0,L|236:260,1,86,8|0,0:0|0:0,0:0:0:0:
368,292,46097,2,0,L|452:377,1,86,2|0,0:0|0:0,0:0:0:0:
400,184,46497,1,8,0:0:0:0:
228,160,46697,6,0,B|212:92|252:19|252:19|262:42,1,172
296,204,47297,2,0,P|264:232|222:240,1,86,8|0,0:0|0:0,0:0:0:0:
80,320,47697,2,0,L|268:340,1,172,2|8,0:0|0:0,0:0:0:0:
368,308,48297,1,0,0:0:0:0:
315,135,48497,6,0,L|331:31,1,86,2|0,0:0|0:0,0:0:0:0:
448,108,48897,2,0,L|464:212,1,86,8|0,0:0|0:0,0:0:0:0:
408,312,49297,1,2,0:0:0:0:
271,331,49497,1,0,0:0:0:0:
200,148,49697,1,8,0:0:0:0:
310,229,49897,1,0,0:0:0:0:
101,271,50097,6,0,P|84:320|90:367,1,86,2|0,0:0|0:0,0:0:0:0:
280,328,50497,1,8,0:0:0:0:
72,92,50697,6,0,B|92:92|92:92|104:96|104:96|120:96|120:96|132:100|132:100|144:100|144:100|156:104|156:104|172:104|172:104|184:108|184:108,1,107.5
203,109,51297,1,4,0:0:0:0:
185,312,51697,6,0,L|165:184,1,129.00000492096,2|0,0:0|0:0,0:0:0:0:
327,277,52097,2,0,L|347:149,1,129.00000492096,8|0,0:0|0:0,0:0:0:0:
88,235,52497,2,0,L|68:107,1,129.00000492096,2|0,0:0|0:0,0:0:0:0:
424,200,52897,2,0,L|444:72,1,129.00000492096,8|0,0:0|0:0,0:0:0:0:
174,35,53297,6,0,L|154:163,1,129.00000492096,2|0,0:0|0:0,0:0:0:0:
387,80,53697,2,2,L|402:208,1,129.00000492096,8|0,0:0|0:0,0:0:0:0:
77,112,54097,2,0,L|57:240,1,129.00000492096,2|0,0:0|0:0,0:0:0:0:
330,224,54497,2,2,L|345:352,1,129.00000492096,8|0,0:0|0:0,0:0:0:0:
88,319,54897,6,0,P|150:304|214:309,1,129.00000492096,2|0,0:0|0:0,0:0:0:0:
108,163,55297,2,0,P|161:127|222:110,1,129.00000492096,8|0,0:0|0:0,0:0:0:0:
152,339,55697,2,0,P|205:303|266:286,1,129.00000492096,2|0,0:0|0:0,0:0:0:0:
24,123,56097,2,0,P|61:71|112:33,1,129.00000492096,8|0,0:0|0:0,0:0:0:0:
403,220,56497,6,0,P|350:256|289:273,1,129.00000492096,2|0,0:0|0:0,0:0:0:0:
423,64,56897,2,0,P|361:79|297:74,1,129.00000492096,8|0,0:0|0:0,0:0:0:0:
472,256,57297,2,0,P|433:307|381:345,1,129.00000492096,2|0,0:0|0:0,0:0:0:0:
359,28,57697,2,0,P|306:63|244:80,1,129.00000492096,8|0,0:0|0:0,0:0:0:0:
150,314,58097,5,2,0:0:0:0:
231,167,58297,1,0,0:0:0:0:
317,311,58497,1,8,0:0:0:0:
142,215,58697,1,0,0:0:0:0:
313,110,58897,1,2,0:0:0:0:
317,311,59097,1,0,0:0:0:0:
201,109,59297,1,8,0:0:0:0:
376,205,59497,1,0,0:0:0:0:
240,340,59697,5,2,0:0:0:0:
290,180,59897,1,0,0:0:0:0:
413,293,60097,1,8,0:0:0:0:
225,246,60297,1,0,0:0:0:0:
416,114,60497,1,2,0:0:0:0:
413,293,60697,1,0,0:0:0:0:
290,180,60897,1,8,0:0:0:0:
491,227,61097,1,0,0:0:0:0:
255,295,61297,5,4,3:2:0:0:
225,281,61397,1,0,3:0:0:0:
201,260,61497,1,0,3:0:0:0:
183,234,61597,1,0,3:0:0:0:
173,203,61697,2,0,P|178:174|186:150,1,43,0|0,3:0|3:0,3:0:0:0:
258,41,61897,2,0,P|269:67|270:94,1,43,0|0,3:0|3:0,3:0:0:0:
76,120,62097,5,0,3:0:0:0:
54,143,62197,1,0,3:0:0:0:
45,174,62297,1,0,3:0:0:0:
50,205,62397,1,0,3:0:0:0:
67,233,62497,2,0,P|76:264|79:297,1,43,0|0,3:0|3:0,3:0:0:0:
164,332,62697,2,0,P|171:300|185:270,1,43,0|0,3:0|3:0,3:0:0:0:
176,152,62897,6,0,L|168:88,3,43,0|0|0|0,3:0|3:0|3:0|3:0,3:0:0:0:
296,112,63297,2,0,L|360:104,3,43,0|0|0|0,3:0|3:0|3:0|3:0,3:0:0:0:
428,175,63697,5,8,0:3:0:0:
415,216,63797,1,8,0:3:0:0:
405,258,63897,1,8,0:3:0:0:
394,299,63997,1,8,0:3:0:0:
380,340,64097,6,0,B|359:335|359:335|334:336|334:336|311:329,1,64.5000024604798,2|4,3:0|3:0,0:0:0:0:
162,247,64497,5,6,0:0:0:0:
292,68,64697,1,0,0:0:0:0:
292,68,64797,1,0,0:0:0:0:
292,68,64897,1,8,0:0:0:0:
252,220,65097,1,0,0:0:0:0:
432,166,65297,2,0,B|403:144|403:144|329:123,1,98.9000018863678,2|0,0:0|0:0,0:0:0:0:
154,144,65697,1,8,0:0:0:0:
264,296,65897,1,0,0:0:0:0:
256,88,66097,5,2,0:0:0:0:
168,254,66297,1,0,0:0:0:0:
168,254,66397,1,0,0:0:0:0:
168,254,66497,1,8,0:0:0:0:
355,253,66697,1,0,0:0:0:0:
198,167,66897,2,0,P|171:125|164:76,1,98.9000018863678,2|0,0:0|0:0,0:0:0:0:
374,6,67297,2,0,P|363:53|333:93,1,98.9000018863678,8|0,0:0|0:0,0:0:0:0:
275,138,67597,1,0,0:0:0:0:
271,147,67697,6,0,L|288:266,1,98.9000018863678,2|0,0:0|0:0,0:0:0:0:
420,120,68097,1,8,0:0:0:0:
369,259,68297,1,0,0:0:0:0:
369,259,68397,1,0,0:0:0:0:
369,259,68497,2,0,L|389:367,1,98.9000018863678,2|0,0:0|0:0,0:0:0:0:
288,176,68897,1,8,0:0:0:0:
276,284,69097,6,0,L|252:384,1,98.9000018863678,0|2,0:0|0:0,0:0:0:0:
408,168,69497,1,0,0:0:0:0:
408,168,69597,1,0,0:0:0:0:
408,168,69697,1,8,0:0:0:0:
341,35,69897,1,0,0:0:0:0:
206,135,70097,2,0,L|194:33,1,98.9000018863678,2|0,0:0|0:0,0:0:0:0:
300,238,70497,2,0,L|312:136,1,98.9000018863678,8|0,0:0|0:0,0:0:0:0:
114,72,70897,6,0,P|78:186|80:199,1,98.9000018863678,2|0,0:0|0:0,0:0:0:0:
77,187,71197,1,0,0:0:0:0:
81,212,71297,1,8,0:0:0:0:
267,186,71497,1,0,0:0:0:0:
194,359,71697,2,0,P|124:367|76:345,1,98.9000018863678,2|0,0:0|0:0,0:0:0:0:
77,161,72097,1,8,0:0:0:0:
147,276,72297,1,0,0:0:0:0:
247,160,72497,6,0,P|260:112|246:65,1,98.9000018863678,2|0,0:0|0:0,0:0:0:0:
232,48,72797,1,0,0:0:0:0:
216,28,72897,1,8,0:0:0:0:
250,245,73097,1,0,0:0:0:0:
433,94,73297,2,0,L|246:159,1,197.800003772736,2|8,0:0|0:0,0:0:0:0:
398,303,73897,5,0,0:0:0:0:
398,303,73997,1,0,0:0:0:0:
398,303,74097,2,0,P|391:235|346:189,1,98.9000018863678,2|0,0:0|0:0,0:0:0:0:
171,283,74497,2,0,P|218:300|266:291,1,98.9000018863678,8|0,0:0|0:0,0:0:0:0:
220,140,74897,1,2,0:0:0:0:
23,121,75097,1,0,0:0:0:0:
112,226,75297,1,8,0:0:0:0:
227,148,75497,1,0,0:0:0:0:
227,148,75597,1,0,0:0:0:0:
227,148,75697,6,0,B|243:96|243:96|271:60,2,98.9000018863678,2|0|8,0:0|0:0|0:0,0:0:0:0:
260,284,76297,1,0,0:0:0:0:
440,180,76497,6,0,L|448:220,4,24.725000471592,2|0|0|0|0,0:0|0:0|0:0|0:0|0:0,0:0:0:0:
368,110,76797,2,2,P|339:175|351:217,1,98.9000018863678,2|0,0:0|0:0,0:0:0:0:
374,239,77097,1,2,0:0:0:0:
420,379,77297,6,0,P|323:377|245:319,1,197.800003772736,6|8,0:0|0:0,0:0:0:0:
207,125,77897,1,0,0:0:0:0:
364,99,78097,2,0,L|435:187,1,98.9000018863678,2|0,0:0|0:0,0:0:0:0:
289,179,78497,2,0,L|303:293,1,98.9000018863678,8|0,0:0|0:0,0:0:0:0:
132,300,78897,6,0,L|140:156,1,98.9000018863678,2|0,0:0|0:0,0:0:0:0:
140,176,79197,1,0,0:0:0:0:
140,152,79297,1,8,0:0:0:0:
52,244,79497,1,0,0:0:0:0:
228,336,79697,2,0,P|275:348|322:335,1,98.9000018863678,2|0,0:0|0:0,0:0:0:0:
300,104,80097,1,8,0:0:0:0:
272,248,80297,1,0,0:0:0:0:
400,36,80497,6,0,L|424:176,1,98.9000018863678,2|0,0:0|0:0,0:0:0:0:
432,208,80797,1,0,0:0:0:0:
432,208,80897,2,0,P|438:267|421:324,1,98.9000018863678,8|0,0:0|0:0,0:0:0:0:
179,275,81297,2,0,L|310:245,1,98.9000018863678,2|0,0:0|0:0,0:0:0:0:
432,208,81697,1,8,0:0:0:0:
300,104,81897,1,0,0:0:0:0:
300,104,81997,1,0,0:0:0:0:
300,104,82097,6,0,L|304:220,1,98.9000018863678,2|0,0:0|0:0,0:0:0:0:
398,87,82497,1,8,0:0:0:0:
281,11,82697,1,0,0:0:0:0:
173,112,82897,2,0,L|177:228,1,98.9000018863678,2|0,0:0|0:0,0:0:0:0:
227,272,83197,1,0,0:0:0:0:
227,272,83297,2,0,P|291:253|324:214,1,98.9000018863678,8|0,0:0|0:0,0:0:0:0:
93,169,83697,6,0,L|78:291,1,98.9000018863678,2|0,0:0|0:0,0:0:0:0:
78,291,83997,1,0,0:0:0:0:
77,316,84097,1,8,0:0:0:0:
216,366,84297,1,0,0:0:0:0:
446,283,84497,2,0,P|351:289|291:215,1,197.800003772736,2|8,0:0|0:0,0:0:0:0:
322,59,85097,1,0,0:0:0:0:
392,200,85297,6,0,P|392:248|360:292,1,98.9000018863678,2|0,0:0|0:0,0:0:0:0:
201,332,85697,1,8,0:0:0:0:
79,232,85897,1,0,0:0:0:0:
79,232,85997,1,0,0:0:0:0:
79,232,86097,2,0,L|194:249,1,98.9000018863678,2|0,0:0|0:0,0:0:0:0:
34,315,86497,1,8,0:0:0:0:
134,133,86697,1,0,0:0:0:0:
156,122,86797,1,0,0:0:0:0:
178,112,86897,6,0,B|210:112|238:88|238:88|270:92|302:72,1,129.00000492096,6|8,0:0|0:0,0:0:0:0:
380,112,87497,1,0,0:0:0:0:
320,180,87697,2,0,P|320:252|356:304,1,129.00000492096,2|8,0:0|0:0,0:0:0:0:
380,111,88297,6,0,L|344:68,1,32.2500012302399
264,48,88497,2,0,P|212:72|176:116,2,96.7500036907198,2|0|0,0:0|0:0|0:0,0:0:0:0:
380,112,89297,2,0,P|392:172|384:200,1,64.5000024604798
396,222,89597,2,0,L|388:274,1,32.2500012302399
419,360,89897,1,0,0:0:0:0:
232,326,90097,6,0,P|218:285|231:215,1,86,6|0,0:0|0:0,0:0:0:0:
294,86,90497,2,0,P|308:127|295:197,1,86,8|0,0:0|0:0,0:0:0:0:
167,38,90897,1,2,0:0:0:0:
95,165,91097,1,0,0:0:0:0:
95,165,91197,1,0,0:0:0:0:
95,165,91297,1,8,0:0:0:0:
220,242,91497,2,0,L|230:150,1,86,0|2,0:0|0:0,0:0:0:0:
394,123,91897,5,0,0:0:0:0:
394,123,91997,1,0,0:0:0:0:
394,123,92097,2,0,P|344:107|302:110,1,86,8|0,0:0|0:0,0:0:0:0:
148,216,92497,1,2,0:0:0:0:
100,64,92697,2,0,P|80:120|84:148,1,86,0|8,0:0|0:0,0:0:0:0:
188,40,93097,1,0,0:0:0:0:
148,216,93297,5,2,0:0:0:0:
280,325,93497,1,0,0:0:0:0:
280,325,93597,1,0,0:0:0:0:
280,325,93697,1,8,0:0:0:0:
278,187,93897,1,0,0:0:0:0:
108,304,94097,2,0,P|74:277|56:238,1,86,2|0,0:0|0:0,0:0:0:0:
56,108,94497,1,8,0:0:0:0:
276,164,94697,2,0,P|309:190|327:229,1,86,0|2,0:0|0:0,0:0:0:0:
208,276,95097,5,0,0:0:0:0:
144,164,95297,2,0,L|156:64,1,86,8|0,0:0|0:0,0:0:0:0:
154,78,95597,1,0,0:0:0:0:
154,78,95697,1,2,0:0:0:0:
248,204,95897,2,0,L|256:296,1,86,0|8,0:0|0:0,0:0:0:0:
72,248,96297,6,0,L|80:340,2,86,0|2|0,0:0|0:0|0:0,0:0:0:0:
72,228,96797,1,0,0:0:0:0:
72,208,96897,1,8,0:0:0:0:
136,96,97097,1,0,0:0:0:0:
197,237,97297,2,0,L|212:326,1,86,2|0,0:0|0:0,0:0:0:0:
284,172,97697,1,8,0:0:0:0:
392,282,97897,2,0,L|405:191,1,86,0|2,0:0|0:0,0:0:0:0:
321,47,98297,5,0,0:0:0:0:
312,27,98397,1,0,0:0:0:0:
305,6,98497,2,0,B|293:91,1,86,8|0,0:0|0:0,0:0:0:0:
172,212,98897,1,2,0:0:0:0:
148,72,99097,2,0,L|56:140,1,86,0|8,0:0|0:0,0:0:0:0:
172,212,99497,2,0,L|126:316,1,86,0|2,0:0|0:0,0:0:0:0:
246,156,99897,5,0,0:0:0:0:
246,156,99997,1,0,0:0:0:0:
246,156,100097,1,8,0:0:0:0:
42,188,100297,1,0,0:0:0:0:
198,356,100497,2,0,P|242:342|274:311,2,86,2|0|8,0:0|0:0|0:0,0:0:0:0:
340,196,101097,1,0,0:0:0:0:
340,196,101197,1,0,0:0:0:0:
340,196,101297,6,0,P|356:148|276:52,1,172,2|8,0:0|0:0,0:0:0:0:
128,76,101897,1,0,0:0:0:0:
212,196,102097,6,0,L|208:232,4,21.5,2|0|0|0|0,0:0|0:0|0:0|0:0|0:0,0:0:0:0:
272,144,102397,2,0,L|360:117,1,86,2|0,0:0|0:0,0:0:0:0:
395,103,102697,1,2,0:0:0:0:
204,49,102897,5,6,0:0:0:0:
129,154,103097,1,0,0:0:0:0:
208,312,103297,2,0,P|224:252|212:204,1,86,2|0,0:0|0:0,0:0:0:0:
48,280,103697,2,0,P|83:330|128:352,1,86,2|0,0:0|0:0,0:0:0:0:
48,188,104097,2,0,L|60:96,1,86,2|0,0:0|0:0,0:0:0:0:
64,80,104397,1,0,0:0:0:0:
72,60,104497,6,0,P|120:56|156:64,1,86,2|0,0:0|0:0,0:0:0:0:
345,113,104897,2,0,P|361:63|354:24,1,86,2|0,0:0|0:0,0:0:0:0:
237,152,105297,1,2,0:0:0:0:
409,204,105497,1,0,0:0:0:0:
357,31,105697,1,2,0:0:0:0:
237,152,105897,1,0,0:0:0:0:
269,330,106097,6,0,P|308:312|336:280,1,86,2|0,0:0|0:0,0:0:0:0:
160,252,106497,2,0,L|140:344,1,86,2|0,0:0|0:0,0:0:0:0:
72,180,106897,1,2,0:0:0:0:
100,56,107097,1,0,0:0:0:0:
72,180,107297,1,2,0:0:0:0:
212,40,107497,2,0,L|200:128,1,86,0|2,0:0|0:0,0:0:0:0:
216,256,107897,5,0,0:0:0:0:
308,144,108097,2,0,P|356:112|408:112,1,86,2|0,0:0|0:0,0:0:0:0:
340,232,108497,2,0,P|397:228|442:254,1,86,2|0,0:0|0:0,0:0:0:0:
324,320,108897,2,0,P|375:345|401:390,1,86,2|0,0:0|0:0,0:0:0:0:
216,256,109297,5,2,0:0:0:0:
236,128,109497,1,0,0:0:0:0:
217,255,109697,1,2,0:0:0:0:
152,77,109897,1,0,0:0:0:0:
88,255,110097,2,0,P|40:224|24:184,1,86,2|0,0:0|0:0,0:0:0:0:
236,128,110497,1,2,0:0:0:0:
328,288,110697,6,0,P|372:312|408:208,1,172
299,123,111297,1,2,0:0:0:0:
226,230,111497,2,0,L|216:324,1,86,0|2,0:0|0:0,0:0:0:0:
89,203,111897,1,0,0:0:0:0:
208,134,112097,1,2,0:0:0:0:
89,65,112297,1,0,0:0:0:0:
191,235,112497,6,0,P|228:256|276:258,1,86,2|0,0:0|0:0,0:0:0:0:
385,131,112897,1,0,0:0:0:0:
289,32,113097,2,0,L|278:147,1,86,0|2,0:0|0:0,0:0:0:0:
393,38,113497,1,0,0:0:0:0:
473,190,113697,2,0,P|459:241|436:273,1,86,2|0,0:0|0:0,0:0:0:0:
264,208,114097,5,2,0:0:0:0:
268,320,114297,1,0,0:0:0:0:
224,132,114497,1,2,0:0:0:0:
124,80,114697,1,0,0:0:0:0:
308,132,114897,6,0,L|304:96,4,21.5,2|0|0|0|0,0:0|0:0|0:0|0:0|0:0,0:0:0:0:
381,86,115197,1,0,0:0:0:0:
219,23,115397,2,0,P|207:78|218:117,1,86
252,192,115697,5,6,0:0:0:0:
184,310,115897,1,0,0:0:0:0:
184,310,115997,1,0,0:0:0:0:
184,310,116097,2,0,L|85:281,1,86,8|0,0:0|0:0,0:0:0:0:
68,112,116497,2,0,P|88:72|132:48,1,86,2|0,0:0|0:0,0:0:0:0:
296,64,116897,1,8,0:0:0:0:
348,252,117097,1,0,0:0:0:0:
416,124,117297,5,2,0:0:0:0:
228,176,117497,2,0,L|212:120,1,43
172,60,117697,1,8,0:0:0:0:
8,108,117897,1,0,0:0:0:0:
8,108,117997,1,0,0:0:0:0:
8,108,118097,1,2,0:0:0:0:
38,259,118297,1,0,0:0:0:0:
181,199,118497,2,0,P|195:239|196:281,1,86,8|0,0:0|0:0,0:0:0:0:
336,326,118897,5,2,0:0:0:0:
348,172,119097,1,0,0:0:0:0:
352,152,119197,1,0,0:0:0:0:
356,132,119297,2,0,L|352:40,1,86,8|0,0:0|0:0,0:0:0:0:
176,120,119697,2,0,P|172:168|204:208,1,86,2|0,0:0|0:0,0:0:0:0:
256,40,120097,1,8,0:0:0:0:
36,80,120297,2,0,L|72:192,1,86,0|2,0:0|0:0,0:0:0:0:
104,328,120697,6,0,L|116:264,1,43
156,212,120897,1,8,0:0:0:0:
320,103,121097,2,0,L|202:92,1,86,0|2,0:0|0:0,0:0:0:0:
396,161,121497,1,0,0:0:0:0:
396,161,121597,1,0,0:0:0:0:
396,161,121697,1,8,0:0:0:0:
156,136,121897,1,0,0:0:0:0:
156,136,121997,1,0,0:0:0:0:
156,136,122097,6,0,L|172:240,1,86,2|0,0:0|0:0,0:0:0:0:
281,351,122497,1,8,0:0:0:0:
328,203,122697,1,0,0:0:0:0:
480,283,122897,2,0,P|476:326|455:364,1,86,2|0,0:0|0:0,0:0:0:0:
328,203,123297,1,8,0:0:0:0:
479,116,123497,5,0,0:0:0:0:
479,116,123597,1,0,0:0:0:0:
479,116,123697,1,2,0:0:0:0:
338,26,123897,2,0,L|322:122,1,86,0|8,0:0|0:0,0:0:0:0:
180,206,124297,2,0,L|165:113,1,86,0|2,0:0|0:0,0:0:0:0:
17,76,124697,1,0,0:0:0:0:
16,75,124797,1,0,0:0:0:0:
16,75,124897,1,8,0:0:0:0:
35,228,125097,1,0,0:0:0:0:
180,324,125297,6,0,P|240:320|292:332,1,86,2|0,0:0|0:0,0:0:0:0:
265,323,125597,1,0,0:0:0:0:
265,323,125697,1,8,0:0:0:0:
410,241,125897,1,0,0:0:0:0:
244,220,126097,1,2,0:0:0:0:
368,336,126297,1,0,0:0:0:0:
368,336,126397,1,0,0:0:0:0:
368,336,126497,1,8,0:0:0:0:
335,170,126697,1,0,0:0:0:0:
471,80,126897,6,0,P|444:46|408:23,1,86,2|0,0:0|0:0,0:0:0:0:
335,170,127297,1,8,0:0:0:0:
155,32,127497,6,0,B|162:47|162:64|162:64|169:78|169:95|169:95|177:113|177:130|177:130|185:152,1,107.5
187,161,128097,1,4,0:0:0:0:
300,248,128497,6,0,P|330:194|306:112,1,129.00000492096,2|0,0:0|0:0,0:0:0:0:
212,248,128897,2,0,P|182:194|206:112,1,129.00000492096,8|0,0:0|0:0,0:0:0:0:
352,324,129297,2,0,P|405:291|424:210,1,129.00000492096,2|0,0:0|0:0,0:0:0:0:
160,324,129697,2,0,P|106:291|87:210,1,129.00000492096,8|0,0:0|0:0,0:0:0:0:
152,64,130097,6,0,L|164:200,1,129.00000492096,2|0,0:0|0:0,0:0:0:0:
348,248,130497,2,0,L|360:120,1,129.00000492096,8|0,0:0|0:0,0:0:0:0:
74,205,130897,2,0,L|63:334,1,129.00000492096,2|0,0:0|0:0,0:0:0:0:
434,361,131297,2,0,L|422:225,1,129.00000492096,8|0,0:0|0:0,0:0:0:0:
124,124,131697,6,0,P|108:184|110:253,1,129.00000492096,2|0,0:0|0:0,0:0:0:0:
388,260,132097,2,0,P|404:200|402:131,1,129.00000492096,8|0,0:0|0:0,0:0:0:0:
84,216,132497,2,0,P|95:276|127:338,1,129.00000492096,2|0,0:0|0:0,0:0:0:0:
428,168,132897,2,0,P|416:107|384:45,1,129.00000492096,8|0,0:0|0:0,0:0:0:0:
108,292,133297,6,0,P|196:332|284:320,1,129.00000492096,2|0,0:0|0:0,0:0:0:0:
111,87,133697,2,0,P|103:183|145:262,1,129.00000492096,8|0,0:0|0:0,0:0:0:0:
305,20,134097,2,0,P|211:46|152:111,1,129.00000492096,2|0,0:0|0:0,0:0:0:0:
434,179,134497,2,0,P|377:100|295:67,1,129.00000492096,8|0,0:0|0:0,0:0:0:0:
320,338,134897,5,2,0:0:0:0:
376,239,135097,1,0,0:0:0:0:
196,91,135297,1,8,0:0:0:0:
312,91,135497,1,0,0:0:0:0:
135,239,135697,1,2,0:0:0:0:
191,338,135897,1,0,0:0:0:0:
256,144,136097,1,8,0:0:0:0:
320,338,136297,1,0,0:0:0:0:
256,144,136497,5,2,0:0:0:0:
44,232,136697,1,0,0:0:0:0:
244,265,136897,1,8,0:0:0:0:
80,120,137097,1,0,0:0:0:0:
256,144,137297,1,2,0:0:0:0:
126,317,137497,1,0,0:0:0:0:
184,60,137697,1,8,0:0:0:0:
244,265,137897,1,0,0:0:0:0:
184,60,138097,5,4,3:2:0:0:
182,92,138197,1,0,3:2:0:0:
180,124,138297,1,0,3:2:0:0:
178,156,138397,1,0,3:2:0:0:
178,188,138497,2,0,P|178:215|169:247,1,43,0|0,3:2|3:2,3:2:0:0:
48,306,138697,2,0,P|54:279|71:251,1,43,0|0,3:2|3:2,3:2:0:0:
170,371,138897,5,0,3:2:0:0:
198,356,138997,1,0,3:2:0:0:
230,351,139097,1,0,3:2:0:0:
262,354,139197,1,0,3:2:0:0:
291,368,139297,2,0,P|319:358|342:339,1,43,0|0,3:2|3:2,3:2:0:0:
294,207,139497,2,0,P|274:229|264:257,1,43,0|0,3:2|3:2,3:2:0:0:
428,172,139697,6,0,L|452:120,3,43,0|0|0|0,3:2|3:2|3:2|3:2,3:2:0:0:
368,96,140097,2,0,L|344:44,3,43,0|0|0|0,3:2|3:2|3:2|3:2,3:2:0:0:
336,188,140497,1,0,3:2:0:0:
316,225,140597,1,0,3:2:0:0:
312,268,140697,1,0,3:2:0:0:
320,310,140797,1,0,3:2:0:0:
332,360,140897,5,8,0:3:0:0:
294,327,140997,1,8,0:3:0:0:
259,290,141097,1,8,0:3:0:0:
223,252,141197,1,8,0:3:0:0:
188,214,141297,5,4,0:0:0:0:
72,164,141497,2,0,B|100:120|72:40|36:84,2,129
264,320,143097,2,0,L|400:276,2,129
372,72,144697,2,0,B|377:114,1,43
378,115,145297,2,0,B|383:157,1,43
183,151,145897,6,0,L|189:193,1,43
271,223,146297,2,0,L|277:265,1,43
243,78,146897,1,0,0:0:0:0:
96,256,147497,5,0,0:0:0:0:
248,304,147897,2,0,B|324:324|324:324|384:304,2,129
441,209,149497,2,0,B|421:133|421:133|441:73,2,129
200,117,151097,2,0,P|266:92|321:107,2,129
80,188,152697,6,0,L|72:240,1,43
245,227,153297,2,0,L|238:166,1,43
73,230,153897,1,0,0:0:0:0:
192,292,154097,6,0,P|220:307|251:311,1,64.5000024604798,4|0,0:0|0:0,0:0:0:0:
251,311,154397,1,0,0:0:0:0:
251,311,154497,1,8,0:0:0:0:
320,190,154697,1,0,0:0:0:0:
320,190,154797,1,0,0:0:0:0:
320,190,154897,1,0,0:0:0:0:
258,66,155097,1,0,0:0:0:0:
258,66,155197,1,0,0:0:0:0:
258,66,155297,1,8,0:0:0:0:
108,128,155497,5,0,0:0:0:0:
108,128,155597,1,0,0:0:0:0:
108,128,155697,2,0,L|84:204,1,64.5000024604798
84,204,155997,1,0,0:0:0:0:
80,220,156097,1,8,0:0:0:0:
148,328,156297,1,0,0:0:0:0:
148,328,156397,1,0,0:0:0:0:
148,328,156497,1,0,0:0:0:0:
264,272,156697,1,0,0:0:0:0:
264,272,156797,1,0,0:0:0:0:
264,272,156897,1,8,0:0:0:0:
428,308,157097,5,0,0:0:0:0:
428,308,157197,1,0,0:0:0:0:
428,308,157297,2,0,L|424:216,1,64.5000024604798
424,228,157597,1,0,0:0:0:0:
424,212,157697,1,8,0:0:0:0:
364,96,157897,1,0,0:0:0:0:
364,96,157997,1,0,0:0:0:0:
364,96,158097,1,0,0:0:0:0:
256,216,158297,1,0,0:0:0:0:
256,216,158397,1,0,0:0:0:0:
256,216,158497,2,0,L|251:308,1,64.5000024604798,8|0,0:0|0:0,0:0:0:0:
252,296,158797,1,0,0:0:0:0:
252,312,158897,1,0,0:0:0:0:
143,210,159097,5,0,0:0:0:0:
142,193,159197,1,0,0:0:0:0:
141,176,159297,1,8,0:0:0:0:
80,26,159497,1,0,0:0:0:0:
80,26,159597,1,0,0:0:0:0:
80,26,159697,1,0,0:0:0:0:
239,48,159897,1,0,0:0:0:0:
239,48,159997,1,0,0:0:0:0:
239,48,160097,1,8,0:0:0:0:
141,176,160297,1,0,0:0:0:0:
272,264,160497,6,0,L|264:336,1,64.5000024604798,2|0,0:0|0:0,0:0:0:0:
424,344,160897,2,0,L|356:300,1,64.5000024604798,8|0,0:0|0:0,0:0:0:0:
340,208,161297,2,0,L|394:172,1,64.5000024604798,2|0,0:0|0:0,0:0:0:0:
424,72,161697,2,0,L|369:36,1,64.5000024604798,8|0,0:0|0:0,0:0:0:0:
294,22,161997,1,0,0:0:0:0:
294,22,162097,6,0,P|242:54|210:54,1,77.3999976379395,2|0,0:0|0:0,0:0:0:0:
207,172,162497,2,0,P|170:164|139:141,1,77.3999976379395,8|0,0:0|0:0,0:0:0:0:
85,55,162897,2,0,P|45:103|61:207,1,154.799995275879,2|8,0:0|0:0,0:0:0:0:
96,332,163497,1,0,0:0:0:0:
96,332,163597,1,0,0:0:0:0:
96,332,163697,5,2,3:2:0:0:
101,300,163797,1,0,3:2:0:0:
106,268,163897,1,0,3:2:0:0:
110,236,163997,1,0,3:2:0:0:
148,216,164097,5,8,3:2:0:0:
168,190,164197,1,0,3:2:0:0:
188,165,164297,1,0,3:2:0:0:
208,140,164397,1,0,3:2:0:0:
216,100,164497,6,0,L|216:48,1,43,2|0,3:2|3:2,3:2:0:0:
101,93,164697,2,0,L|64:56,1,43,0|0,3:2|3:2,3:2:0:0:
42,180,164897,2,0,L|-10:180,1,43,8|0,3:2|3:2,3:2:0:0:
75,273,165097,2,0,L|38:309,1,43,0|0,3:2|3:2,3:2:0:0:
188,340,165297,5,2,3:2:0:0:
219,332,165397,1,0,3:2:0:0:
251,330,165497,1,0,3:2:0:0:
283,335,165597,1,0,3:2:0:0:
324,332,165697,5,8,3:2:0:0:
350,313,165797,1,0,3:2:0:0:
379,300,165897,1,0,3:2:0:0:
410,294,165997,1,0,3:2:0:0:
444,268,166097,5,8,3:0:0:0:
428,218,166197,1,8,3:0:0:0:
412,169,166297,1,8,3:0:0:0:
397,120,166397,1,8,3:0:0:0:
381,71,166497,6,0,B|360:72|360:72|336:80|336:80|312:80,1,64.5000024604798,2|4,3:0|3:0,0:0:0:0:
104,232,166897,5,6,0:0:0:0:
152,92,167097,1,0,0:0:0:0:
152,92,167197,1,0,0:0:0:0:
152,92,167297,1,8,0:0:0:0:
217,278,167497,1,0,0:0:0:0:
250,83,167697,2,0,P|285:123|304:166,1,98.9000018863678,2|0,0:0|0:0,0:0:0:0:
306,212,167997,1,0,0:0:0:0:
306,212,168097,1,8,0:0:0:0:
104,232,168297,1,0,0:0:0:0:
292,284,168497,6,0,L|416:304,1,98.9000018863678,2|0,0:0|0:0,0:0:0:0:
414,303,168797,1,0,0:0:0:0:
438,306,168897,1,8,0:0:0:0:
510,176,169097,1,0,0:0:0:0:
377,57,169297,2,0,L|280:73,1,98.9000018863678,2|0,0:0|0:0,0:0:0:0:
208,257,169697,1,8,0:0:0:0:
166,72,169897,1,0,0:0:0:0:
166,72,169997,1,0,0:0:0:0:
166,72,170097,6,0,B|115:63|115:63|39:72,1,98.9000018863678,2|0,0:0|0:0,0:0:0:0:
50,205,170497,2,0,L|58:305,1,98.9000018863678,8|0,0:0|0:0,0:0:0:0:
57,303,170797,1,0,0:0:0:0:
57,303,170897,2,0,L|174:357,1,98.9000018863678,2|0,0:0|0:0,0:0:0:0:
321,309,171297,1,8,0:0:0:0:
201,220,171497,2,0,L|208:122,1,98.9000018863678,0|2,0:0|0:0,0:0:0:0:
362,38,171897,5,0,0:0:0:0:
357,186,172097,1,8,0:0:0:0:
453,117,172297,1,0,0:0:0:0:
249,70,172497,2,0,L|256:168,1,98.9000018863678,2|0,0:0|0:0,0:0:0:0:
352,283,172897,1,8,0:0:0:0:
176,316,173097,1,0,0:0:0:0:
156,300,173197,1,0,0:0:0:0:
136,284,173297,6,0,L|120:176,1,98.9000018863678,2|0,0:0|0:0,0:0:0:0:
148,32,173697,1,8,0:0:0:0:
52,120,173897,1,0,0:0:0:0:
232,124,174097,2,0,P|296:92|320:48,1,98.9000018863678,2|0,0:0|0:0,0:0:0:0:
471,121,174497,1,8,0:0:0:0:
280,202,174697,1,0,0:0:0:0:
384,260,174897,6,0,L|392:152,1,98.9000018863678,2|0,0:0|0:0,0:0:0:0:
392,76,175197,1,0,0:0:0:0:
392,76,175297,2,0,P|308:80|288:68,1,98.9000018863678,8|0,0:0|0:0,0:0:0:0:
64,52,175697,2,0,L|52:228,1,148.350002829552,2|0,0:0|0:0,0:0:0:0:
132,184,176097,2,0,L|144:284,1,98.9000018863678,8|0,0:0|0:0,0:0:0:0:
195,341,176397,1,0,0:0:0:0:
195,341,176497,5,2,0:0:0:0:
312,204,176697,1,0,0:0:0:0:
312,204,176797,1,0,0:0:0:0:
312,204,176897,2,0,L|360:328,1,98.9000018863678,8|0,0:0|0:0,0:0:0:0:
204,228,177297,2,0,P|216:164|240:120,1,98.9000018863678,2|0,0:0|0:0,0:0:0:0:
428,144,177697,1,8,0:0:0:0:
320,56,177897,1,0,0:0:0:0:
344,264,178097,6,0,P|288:312|252:324,1,98.9000018863678,2|0,0:0|0:0,0:0:0:0:
240,328,178397,1,0,0:0:0:0:
216,328,178497,1,8,0:0:0:0:
152,196,178697,1,0,0:0:0:0:
91,60,178897,6,0,L|71:20,4,24.725000471592,2|0|0|0|0,0:0|0:0|0:0|0:0|0:0,0:0:0:0:
28,137,179197,2,0,P|50:170|111:194,1,98.9000018863678,2|0,0:0|0:0,0:0:0:0:
152,196,179497,1,2,0:0:0:0:
392,92,179697,6,0,L|388:220,1,98.9000018863678,6|0,0:0|0:0,0:0:0:0:
296,48,180097,1,8,0:0:0:0:
240,184,180297,1,0,0:0:0:0:
66,74,180497,2,0,L|186:52,1,98.9000018863678,2|0,0:0|0:0,0:0:0:0:
240,184,180897,2,0,P|200:232|152:248,1,98.9000018863678,8|0,0:0|0:0,0:0:0:0:
84,236,181197,1,0,0:0:0:0:
84,236,181297,6,0,L|196:304,1,98.9000018863678,2|0,0:0|0:0,0:0:0:0:
318,172,181697,1,8,0:0:0:0:
289,357,181897,1,0,0:0:0:0:
428,231,182097,2,0,P|435:183|425:132,1,98.9000018863678,2|0,0:0|0:0,0:0:0:0:
288,78,182497,1,8,0:0:0:0:
312,264,182697,1,0,0:0:0:0:
312,264,182797,1,0,0:0:0:0:
311,264,182897,6,0,P|270:290|222:302,1,98.9000018863678,2|0,0:0|0:0,0:0:0:0:
64,152,183297,2,0,P|75:199|102:241,1,98.9000018863678,8|0,0:0|0:0,0:0:0:0:
300,177,183697,2,0,L|201:166,1,98.9000018863678,2|0,0:0|0:0,0:0:0:0:
96,75,184097,1,8,0:0:0:0:
242,50,184297,1,0,0:0:0:0:
268,54,184397,1,0,0:0:0:0:
291,59,184497,5,2,0:0:0:0:
408,244,184697,1,0,0:0:0:0:
464,52,184897,1,8,0:0:0:0:
320,188,185097,2,0,L|326:237,1,49.4500009431839
330,340,185297,2,0,P|270:324|242:296,1,98.9000018863678,2|0,0:0|0:0,0:0:0:0:
408,244,185697,1,8,0:0:0:0:
368,100,185897,1,0,0:0:0:0:
344,92,185997,1,0,0:0:0:0:
320,84,186097,6,0,L|360:192,1,98.9000018863678,2|0,0:0|0:0,0:0:0:0:
248,320,186497,1,8,0:0:0:0:
136,221,186697,1,0,0:0:0:0:
207,47,186897,2,0,P|227:107|219:151,2,98.9000018863678,2|0|8,0:0|0:0|0:0,0:0:0:0:
49,66,187497,1,0,0:0:0:0:
24,272,187697,6,0,P|69:291|118:293,1,98.9000018863678,2|0,0:0|0:0,0:0:0:0:
188,264,187997,1,0,0:0:0:0:
188,264,188097,2,0,P|260:242|320:244,1,98.9000018863678,8|0,0:0|0:0,0:0:0:0:
430,159,188497,2,0,P|433:98|257:98,1,296.700005659104,2|0,0:0|0:0,0:0:0:0:
228,168,189197,1,0,0:0:0:0:
228,168,189297,6,0,L|240:296,1,129.00000492096,6|8,0:0|0:0,0:0:0:0:
280,100,189897,1,0,0:0:0:0:
136,196,190097,2,0,L|148:324,1,129.00000492096,2|8,0:0|0:0,0:0:0:0:
228,168,190697,2,0,L|236:108,1,32.2500012302399
188,52,190897,5,2,0:0:0:0:
416,72,191097,2,0,L|420:103,1,32.2500012302399
197,342,191497,2,0,L|241:302,1,32.2500012302399
463,250,191897,2,0,L|406:231,1,32.2500012302399
281,104,192297,2,0,L|274:72,1,32.2500012302399
330,291,192497,5,4,0:0:0:0:
344,112,198897,6,0,L|348:200,1,86,2|0,0:0|0:0,0:0:0:0:
168,272,199297,2,0,L|164:184,1,86,8|0,0:0|0:0,0:0:0:0:
336,280,199697,2,0,L|248:284,1,86,2|0,0:0|0:0,0:0:0:0:
176,104,200097,2,0,L|264:100,1,86,8|0,0:0|0:0,0:0:0:0:
415,257,200497,6,0,L|427:169,1,86,2|0,0:0|0:0,0:0:0:0:
97,127,200897,2,0,L|85:215,1,86,8|0,0:0|0:0,0:0:0:0:
204,268,201297,1,2,0:0:0:0:
345,164,201497,1,0,0:0:0:0:
168,164,201697,1,8,0:0:0:0:
313,268,201897,1,0,0:0:0:0:
255,98,202097,5,2,0:0:0:0:
232,75,202197,1,0,0:0:0:0:
203,60,202297,1,0,0:0:0:0:
172,54,202397,1,0,0:0:0:0:
140,57,202497,1,8,0:0:0:0:
110,69,202597,1,0,0:0:0:0:
85,90,202697,1,0,0:0:0:0:
67,116,202797,1,0,0:0:0:0:
57,147,202897,5,2,0:0:0:0:
57,179,202997,1,0,0:0:0:0:
66,210,203097,1,0,0:0:0:0:
83,237,203197,1,0,0:0:0:0:
107,258,203297,1,8,0:0:0:0:
137,271,203397,1,0,0:0:0:0:
168,275,203497,1,0,0:0:0:0:
200,270,203597,1,0,0:0:0:0:
229,256,203697,6,0,L|241:205,3,43,2|0|0|0,0:0|0:0|0:0|0:0,0:0:0:0:
325,116,204097,2,0,L|337:167,3,43,8|0|0|0,0:0|0:0|0:0|0:0,0:0:0:0:
384,260,204497,6,0,L|400:273,4,21.5,2|0|0|0|0,0:0|0:0|0:0|0:0|0:0,0:0:0:0:
264,260,204797,2,0,P|225:240|197:208,1,86,2|0,0:0|0:0,0:0:0:0:
178,170,205097,1,2,0:0:0:0:
221,38,205297,5,4,0:0:0:0:
256,192,205397,12,0,208497,0:0:0:0:
