osu file format v14

[General]
AudioFilename: audio.mp3
AudioLeadIn: 0
PreviewTime: 55162
Countdown: 0
SampleSet: Soft
StackLeniency: 0.7
Mode: 0
LetterboxInBreaks: 0
WidescreenStoryboard: 0

[Editor]
DistanceSpacing: 0.5
BeatDivisor: 4
GridSize: 32
TimelineZoom: 1

[Metadata]
Title:Utakata, Ai no Mahoroba
TitleUnicode:泡沫、哀のまほろば
Artist:senya
ArtistUnicode:senya
Creator:Satellite
Version:Satellite
Source:東方Project
Tags:ZUN Yuuhei Iceon HiZuMi 音霊 Extend Ash Hourai Victim del Touhou Eiyashou Imperishable Night Reach for the Moon Immortal Smoke エクステンドアッシュ ~ 蓬莱人、月まで届け、不死の煙 かませ虎 kamasetora C82 comiket82 dagger-gazel dailycare sellenite morinaga nasya n_a_s_y_a
BeatmapID:1489404
BeatmapSetID:704050

[Difficulty]
HPDrainRate:6
CircleSize:4.3
OverallDifficulty:8
ApproachRate:9
SliderMultiplier:1.7
SliderTickRate:1

[Events]
//Background and Video events
0,0,"BG.jpg",0,0
//Break Periods
2,159200,170788
//Storyboard Layer 0 (Background)
//Storyboard Layer 1 (Fail)
//Storyboard Layer 2 (Pass)
//Storyboard Layer 3 (Foreground)
//Storyboard Sound Samples

[TimingPoints]
1066,387.096774193548,4,2,1,50,1,0
1066,-133.333333333333,4,2,1,50,0,0
1840,-133.333333333333,4,2,1,40,0,0
2614,-133.333333333333,4,2,1,50,0,0
3775,-133.333333333333,4,2,1,45,0,0
4162,-133.333333333333,4,2,1,55,0,0
4743,-133.333333333333,4,2,1,50,0,0
5324,-133.333333333333,4,2,1,55,0,0
5711,-133.333333333333,4,2,1,60,0,0
5904,-133.333333333333,4,2,1,30,0,0
6098,-133.333333333333,4,2,1,55,0,0
6291,-133.333333333333,4,2,1,30,0,0
6485,-133.333333333333,4,2,1,50,0,0
6678,-133.333333333333,4,2,1,30,0,0
6872,-133.333333333333,4,2,1,45,0,0
7065,-133.333333333333,4,2,1,30,0,0
7259,-125,4,2,1,60,0,0
7453,-125,4,2,1,70,0,0
7549,-125,4,2,1,50,0,0
7646,-125,4,2,1,30,0,0
7840,-125,4,2,1,50,0,0
8227,-125,4,2,1,55,0,0
8614,-125,4,2,1,60,0,0
9001,-125,4,2,1,70,0,0
9098,-125,4,2,1,50,0,0
9195,-125,4,2,1,30,0,0
9388,-125,4,2,1,50,0,0
9775,-125,4,2,1,55,0,0
10162,-125,4,2,1,60,0,0
10936,-125,4,2,1,70,0,0
11130,-125,4,2,1,60,0,0
11324,-125,4,2,1,70,0,0
12098,-125,4,2,1,60,0,0
12291,-125,4,2,1,70,0,0
12485,-125,4,2,1,60,0,0
12678,-125,4,2,1,70,0,0
12872,-125,4,2,1,60,0,0
13065,-125,4,2,1,70,0,0
13259,-125,4,2,1,60,0,0
13453,-400,4,2,1,60,0,0
14033,-400,4,2,1,5,0,0
14227,-100,4,2,1,60,0,0
14420,-100,4,2,1,40,0,0
14614,-100,4,2,1,60,0,0
14807,-100,4,2,1,70,0,0
15291,-100,4,2,1,5,0,0
15388,-100,4,2,1,70,0,0
15775,-100,4,2,1,60,0,0
15969,-100,4,2,1,70,0,0
16549,-100,4,2,1,60,0,0
17324,-100,4,2,1,50,0,0
17517,-100,4,2,1,60,0,0
17711,-100,4,2,1,55,0,0
17904,-100,4,2,1,70,0,0
18098,-100,4,2,1,60,0,0
18388,-100,4,2,1,5,0,0
18485,-100,4,2,1,70,0,0
18872,-100,4,2,1,60,0,0
19162,-100,4,2,1,5,0,0
19259,-100,4,2,1,70,0,0
19646,-100,4,2,1,60,0,0
20227,-83.3333333333333,4,2,1,60,0,0
20517,-83.3333333333333,4,2,1,5,0,0
20614,-100,4,2,1,60,0,0
20807,-125,4,2,1,40,0,0
21195,-100,4,2,1,60,0,0
22162,-100,4,2,1,65,0,0
22356,-100,4,2,1,70,0,0
22743,-100,4,2,1,60,0,0
22936,-100,4,2,1,70,0,0
23614,-100,4,2,1,5,0,0
23711,-100,4,2,1,70,0,0
23904,-100,4,2,1,40,0,0
24291,-100,4,2,1,70,0,0
24485,-100,4,2,1,80,0,0
24678,-100,4,2,1,60,0,0
24872,-100,4,2,1,80,0,0
25065,-100,4,2,1,70,0,0
25259,-100,4,2,1,80,0,0
25453,-100,4,2,1,60,0,0
25646,-100,4,2,1,80,0,0
25840,-100,4,2,1,70,0,0
26324,-100,4,2,1,80,0,0
27001,-125,4,2,1,60,0,0
27388,-142.857142857143,4,2,1,60,0,0
27969,-142.857142857143,4,2,1,70,0,0
28936,-142.857142857143,4,2,1,60,0,0
29517,-142.857142857143,4,2,1,70,0,0
29904,-142.857142857143,4,2,1,50,0,0
30098,-142.857142857143,4,2,1,40,0,0
30485,-142.857142857143,4,2,1,50,0,0
31065,-142.857142857143,4,2,1,70,0,0
31259,-142.857142857143,4,2,1,60,0,0
31840,-142.857142857143,4,2,1,50,0,0
32033,-142.857142857143,4,2,1,60,0,0
32614,-142.857142857143,4,2,1,70,0,0
32807,-142.857142857143,4,2,1,60,0,0
33001,-142.857142857143,4,2,1,50,0,0
33388,-142.857142857143,4,2,1,40,0,0
33582,-142.857142857143,4,2,1,50,0,0
34162,-142.857142857143,4,2,1,60,0,0
34549,-142.857142857143,4,2,1,50,0,0
34936,-142.857142857143,4,2,1,40,0,0
35130,-142.857142857143,4,2,1,50,0,0
35711,-142.857142857143,4,2,1,60,0,0
36098,-142.857142857143,4,2,1,50,0,0
36291,-142.857142857143,4,2,1,60,0,0
36678,-142.857142857143,4,2,1,50,0,0
37259,-142.857142857143,4,2,1,70,0,0
37453,-142.857142857143,4,2,1,60,0,0
37646,-142.857142857143,4,2,1,70,0,0
37840,-142.857142857143,4,2,1,60,0,0
38227,-142.857142857143,4,2,1,70,0,0
38420,-142.857142857143,4,2,1,60,0,0
38807,-142.857142857143,4,2,1,40,0,0
39001,-83.3333333333334,4,2,1,30,0,0
39098,-83.3333333333334,4,2,1,33,0,0
39195,-83.3333333333334,4,2,1,36,0,0
39291,-83.3333333333334,4,2,1,39,0,0
39388,-83.3333333333334,4,2,1,42,0,0
39485,-83.3333333333334,4,2,1,45,0,0
39582,-83.3333333333334,4,2,1,48,0,0
39678,-83.3333333333334,4,2,1,51,0,0
39775,-111.111111111111,4,2,1,60,0,0
40065,-111.111111111111,4,2,1,5,0,0
40162,-111.111111111111,4,2,1,55,0,0
40743,-111.111111111111,4,2,1,50,0,0
40936,-111.111111111111,4,2,1,40,0,0
41130,-111.111111111111,4,2,1,50,0,0
41324,-111.111111111111,4,2,1,60,0,0
41711,-111.111111111111,4,2,1,50,0,0
41904,-111.111111111111,4,2,1,55,0,0
42098,-111.111111111111,4,2,1,65,0,0
42291,-111.111111111111,4,2,1,60,0,0
42485,-111.111111111111,4,2,1,50,0,0
42678,-111.111111111111,4,2,1,55,0,0
42872,-111.111111111111,4,2,1,60,0,0
43646,-111.111111111111,4,2,1,40,0,0
43840,-111.111111111111,4,2,1,60,0,0
44227,-111.111111111111,4,2,1,55,0,0
44420,-111.111111111111,4,2,1,60,0,0
44614,-111.111111111111,4,2,1,70,0,0
44711,-111.111111111111,4,2,1,65,0,0
44807,-111.111111111111,4,2,1,60,0,0
45001,-111.111111111111,4,2,1,50,0,0
45195,-111.111111111111,4,2,1,60,0,0
45291,-111.111111111111,4,2,1,55,0,0
45388,-111.111111111111,4,2,1,50,0,0
45582,-111.111111111111,4,2,1,60,0,0
45775,-111.111111111111,4,2,1,65,0,0
45969,-111.111111111111,4,2,1,70,0,0
46259,-111.111111111111,4,2,1,5,0,0
46356,-111.111111111111,4,2,1,60,0,0
46743,-111.111111111111,4,2,1,70,0,0
46936,-111.111111111111,4,2,1,60,0,0
47130,-111.111111111111,4,2,1,70,0,0
47324,-111.111111111111,4,2,1,60,0,0
47904,-111.111111111111,4,2,1,50,0,0
48098,-111.111111111111,4,2,1,60,0,0
48678,-111.111111111111,4,2,1,50,0,0
49065,-111.111111111111,4,2,1,60,0,0
49259,-111.111111111111,4,2,1,70,0,0
49453,-111.111111111111,4,2,1,60,0,0
49646,-111.111111111111,4,2,1,70,0,0
49840,-111.111111111111,4,2,1,65,0,0
50033,-111.111111111111,4,2,1,75,0,0
50227,-111.111111111111,4,2,1,65,0,0
50420,-111.111111111111,4,2,1,75,0,0
50614,-111.111111111111,4,2,1,70,0,0
50711,-111.111111111111,4,2,1,75,0,0
50807,-111.111111111111,4,2,1,80,0,0
50904,-111.111111111111,4,2,1,70,0,0
51001,-111.111111111111,4,2,1,60,0,0
51098,-111.111111111111,4,2,1,65,0,0
51195,-111.111111111111,4,2,1,70,0,0
51388,-111.111111111111,4,2,1,40,0,0
51582,-111.111111111111,4,2,1,50,0,0
51678,-111.111111111111,4,2,1,60,0,0
51775,-111.111111111111,4,2,1,70,0,0
51969,-111.111111111111,4,2,1,65,0,0
52065,-111.111111111111,4,2,1,60,0,0
52162,-111.111111111111,4,2,1,70,0,0
52259,-111.111111111111,4,2,1,75,0,0
52356,-111.111111111111,4,2,1,80,0,0
52453,-111.111111111111,4,2,1,70,0,0
52549,-111.111111111111,4,2,1,60,0,0
52646,-111.111111111111,4,2,1,65,0,0
52743,-111.111111111111,4,2,1,70,0,0
52936,-111.111111111111,4,2,1,40,0,0
53130,-111.111111111111,4,2,1,60,0,0
53227,-111.111111111111,4,2,1,65,0,0
53324,-111.111111111111,4,2,1,70,0,0
53517,-111.111111111111,4,2,1,60,0,0
53711,-111.111111111111,4,2,1,65,0,0
54485,-111.111111111111,4,2,1,30,0,0
55259,-90.9090909090909,4,2,1,70,0,1
55453,-90.9090909090909,4,2,1,70,0,0
55646,-90.9090909090909,4,2,1,65,0,0
56033,-90.9090909090909,4,2,1,60,0,0
56324,-90.9090909090909,4,2,1,5,0,0
56420,-90.9090909090909,4,2,1,65,0,0
56807,-90.9090909090909,4,2,1,55,0,0
57001,-90.9090909090909,4,2,1,65,0,0
57582,-90.9090909090909,4,2,1,55,0,0
57775,-90.9090909090909,4,2,1,65,0,0
58356,-90.9090909090909,4,2,1,60,0,0
58646,-90.9090909090909,4,2,1,5,0,0
58743,-90.9090909090909,4,2,1,60,0,0
58936,-90.9090909090909,4,2,1,65,0,0
59130,-90.9090909090909,4,2,1,55,0,0
59324,-90.9090909090909,4,2,1,65,0,0
59904,-90.9090909090909,4,2,1,60,0,0
60195,-90.9090909090909,4,2,1,5,0,0
60291,-90.9090909090909,4,2,1,60,0,0
60485,-90.9090909090909,4,2,1,70,0,0
60582,-90.9090909090909,4,2,1,65,0,0
60678,-90.9090909090909,4,2,1,60,0,0
60872,-90.9090909090909,4,2,1,70,0,0
61065,-90.9090909090909,4,2,1,65,0,0
61259,-90.9090909090909,4,2,1,75,0,0
61453,-90.9090909090909,4,2,1,60,0,0
61646,-90.9090909090909,4,2,1,65,0,0
62033,-90.9090909090909,4,2,1,70,0,0
62130,-90.9090909090909,4,2,1,65,0,0
62227,-90.9090909090909,4,2,1,55,0,0
62420,-90.9090909090909,4,2,1,65,0,0
63001,-90.9090909090909,4,2,1,60,0,0
63195,-90.9090909090909,4,2,1,70,0,0
63291,-90.9090909090909,4,2,1,65,0,0
63388,-90.9090909090909,4,2,1,60,0,0
63582,-90.9090909090909,4,2,1,70,0,0
63775,-90.9090909090909,4,2,1,60,0,0
63969,-90.9090909090909,4,2,1,70,0,0
64162,-90.9090909090909,4,2,1,65,0,0
64356,-90.9090909090909,4,2,1,75,0,0
64549,-90.9090909090909,4,2,1,70,0,0
64743,-90.9090909090909,4,2,1,75,0,0
64840,-90.9090909090909,4,2,1,70,0,0
64936,-90.9090909090909,4,2,1,65,0,0
65130,-90.9090909090909,4,2,1,70,0,0
65227,-90.9090909090909,4,2,1,60,0,0
65324,-90.9090909090909,4,2,1,50,0,0
65517,-90.9090909090909,4,2,1,60,0,0
65614,-90.9090909090909,4,2,1,50,0,0
65711,-90.9090909090909,4,2,1,60,0,0
66098,-90.9090909090909,4,2,1,70,0,0
66388,-90.9090909090909,4,2,1,5,0,0
66485,-90.9090909090909,4,2,1,60,0,0
66678,-90.9090909090909,4,2,1,70,0,0
66775,-90.9090909090909,4,2,1,65,0,0
66872,-90.9090909090909,4,2,1,60,0,0
67065,-90.9090909090909,4,2,1,70,0,0
67259,-90.9090909090909,4,2,1,75,0,0
67356,-90.9090909090909,4,2,1,65,0,0
67453,-90.9090909090909,4,2,1,70,0,0
67549,-90.9090909090909,4,2,1,60,0,0
67646,-90.9090909090909,4,2,1,70,0,1
67840,-90.9090909090909,4,2,1,70,0,0
68033,-90.9090909090909,4,2,1,60,0,0
68227,-90.9090909090909,4,2,1,65,0,0
68324,-90.9090909090909,4,2,1,60,0,0
68420,-90.9090909090909,4,2,1,50,0,0
68614,-90.9090909090909,4,2,1,60,0,0
68711,-90.9090909090909,4,2,1,65,0,0
68807,-90.9090909090909,4,2,1,70,0,0
69001,-90.9090909090909,4,2,1,65,0,0
69195,-90.9090909090909,4,2,1,70,0,0
69485,-90.9090909090909,4,2,1,5,0,0
69582,-90.9090909090909,4,2,1,65,0,0
69775,-90.9090909090909,4,2,1,75,0,0
69872,-90.9090909090909,4,2,1,70,0,0
69969,-90.9090909090909,4,2,1,60,0,0
70162,-90.9090909090909,4,2,1,70,0,0
70356,-90.9090909090909,4,2,1,60,0,0
70549,-90.9090909090909,4,2,1,70,0,0
70743,-90.9090909090909,4,2,1,60,0,0
70936,-90.9090909090909,4,2,1,70,0,0
71033,-90.9090909090909,4,2,1,65,0,0
71130,-90.9090909090909,4,2,1,60,0,0
71324,-90.9090909090909,4,2,1,70,0,0
71904,-90.9090909090909,4,2,1,65,0,0
72098,-90.9090909090909,4,2,1,75,0,0
72291,-90.9090909090909,4,2,1,70,0,0
72582,-90.9090909090909,4,2,1,5,0,0
72678,-90.9090909090909,4,2,1,65,0,0
72872,-90.9090909090909,4,2,1,60,0,0
73065,-90.9090909090909,4,2,1,65,0,0
73259,-90.9090909090909,4,2,1,75,0,0
73356,-90.9090909090909,4,2,1,70,0,0
73453,-90.9090909090909,4,2,1,65,0,0
73646,-90.9090909090909,4,2,1,60,0,0
74807,-90.9090909090909,4,2,1,70,0,0
75001,-90.9090909090909,4,2,1,60,0,0
75195,-90.9090909090909,4,2,1,70,0,0
75388,-90.9090909090909,4,2,1,60,0,0
75775,-90.9090909090909,4,2,1,65,0,0
75969,-90.9090909090909,4,2,1,70,0,0
76549,-90.9090909090909,4,2,1,75,0,0
76743,-90.9090909090909,4,2,1,70,0,0
76936,-83.3333333333333,4,2,1,60,0,0
78485,-90.9090909090909,4,2,1,60,0,0
78678,-90.9090909090909,4,2,1,70,0,0
78872,-90.9090909090909,4,2,1,60,0,0
79065,-90.9090909090909,4,2,1,70,0,0
79259,-90.9090909090909,4,2,1,50,0,0
79453,-90.9090909090909,4,2,1,60,0,0
79646,-90.9090909090909,4,2,1,50,0,0
80033,-100,4,2,1,60,0,0
80324,-100,4,2,1,5,0,0
80420,-100,4,2,1,60,0,0
81001,-100,4,2,1,70,0,0
81195,-100,4,2,1,60,0,0
81388,-100,4,2,1,70,0,0
81582,-100,4,2,1,60,0,0
81969,-100,4,2,1,55,0,0
82356,-100,4,2,1,65,0,0
82549,-100,4,2,1,75,0,0
82743,-100,4,2,1,70,0,0
82936,-100,4,2,1,80,0,0
83130,-100,4,2,1,60,0,0
83420,-100,4,2,1,5,0,0
83517,-100,4,2,1,65,0,0
83711,-100,4,2,1,75,0,0
83904,-100,4,2,1,65,0,0
84098,-100,4,2,1,75,0,0
84291,-100,4,2,1,60,0,0
84485,-100,4,2,1,70,0,0
84678,-100,4,2,1,65,0,0
84872,-100,4,2,1,75,0,0
85065,-100,4,2,1,65,0,0
85259,-100,4,2,1,70,0,0
85549,-100,4,2,1,5,0,0
85646,-100,4,2,1,70,0,0
85840,-100,4,2,1,60,0,0
85936,-100,4,2,1,70,0,0
86033,-100,4,2,1,60,0,0
86130,-100,4,2,1,70,0,0
86227,-100,4,2,1,65,0,0
86324,-100,4,2,1,62,0,0
86420,-100,4,2,1,59,0,0
86517,-100,4,2,1,56,0,0
86614,-100,4,2,1,59,0,0
86711,-100,4,2,1,62,0,0
86807,-100,4,2,1,65,0,0
87001,-100,4,2,1,60,0,0
87195,-100,4,2,1,65,0,0
87388,-100,4,2,1,70,0,0
87582,-100,4,2,1,65,0,0
87775,-100,4,2,1,70,0,0
87969,-100,4,2,1,75,0,0
88162,-100,4,2,1,70,0,0
88356,-90.9090909090909,4,2,1,65,0,0
88936,-90.9090909090909,4,2,1,60,0,0
89324,-100,4,2,1,70,0,0
89517,-100,4,2,1,75,0,0
89711,-100,4,2,1,70,0,0
89904,-100,4,2,1,75,0,0
90098,-100,4,2,1,65,0,0
90291,-100,4,2,1,75,0,0
90485,-100,4,2,1,70,0,0
90678,-100,4,2,1,65,0,0
90872,-100,4,2,1,70,0,0
91065,-100,4,2,1,75,0,0
91259,-100,4,2,1,65,0,0
91356,-100,4,2,1,80,0,0
91549,-100,4,2,1,70,0,0
92033,-125,4,2,1,60,0,0
92420,-100,4,2,1,70,0,0
92807,-100,4,2,1,60,0,0
93001,-100,4,2,1,65,0,0
93195,-100,4,2,1,55,0,0
93388,-100,4,2,1,65,0,0
93582,-100,4,2,1,60,0,0
93775,-100,4,2,1,65,0,0
94065,-100,4,2,1,5,0,0
94162,-100,4,2,1,65,0,0
94356,-100,4,2,1,60,0,0
94549,-100,4,2,1,65,0,0
94743,-100,4,2,1,55,0,0
94936,-100,4,2,1,65,0,0
95517,-100,4,2,1,55,0,0
95711,-100,4,2,1,65,0,0
95904,-100,4,2,1,60,0,0
96098,-100,4,2,1,65,0,0
96291,-100,4,2,1,55,0,0
96485,-100,4,2,1,60,0,0
97259,-100,4,2,1,65,0,0
97453,-100,4,2,1,60,0,0
97646,-100,4,2,1,65,0,0
97840,-100,4,2,1,55,0,0
98033,-100,4,2,1,65,0,0
98227,-100,4,2,1,60,0,0
98420,-100,4,2,1,65,0,0
98614,-100,4,2,1,60,0,0
98807,-100,4,2,1,65,0,0
99001,-100,4,2,1,60,0,0
99195,-100,4,2,1,65,0,0
99388,-100,4,2,1,60,0,0
99582,-100,4,2,1,65,0,0
99775,-100,4,2,1,60,0,0
99969,-100,4,2,1,65,0,0
100162,-100,4,2,1,55,0,0
100356,-100,4,2,1,65,0,0
100549,-100,4,2,1,60,0,0
100743,-100,4,2,1,65,0,0
100936,-100,4,2,1,55,0,0
101227,-100,4,2,1,5,0,0
101324,-100,4,2,1,60,0,0
101517,-100,4,2,1,65,0,0
101711,-100,4,2,1,60,0,0
101904,-100,4,2,1,70,0,0
102098,-100,4,2,1,60,0,0
102291,-100,4,2,1,70,0,0
102485,-100,4,2,1,65,0,0
102678,-100,4,2,1,75,0,0
102872,-100,4,2,1,65,0,0
103065,-100,4,2,1,75,0,0
103259,-100,4,2,1,70,0,0
103453,-100,4,2,1,65,0,0
103646,-100,4,2,1,60,0,0
103840,-100,4,2,1,65,0,0
104033,-100,4,2,1,50,0,0
104227,-100,4,2,1,65,0,0
104420,-100,4,2,1,60,0,0
104807,-100,4,2,1,65,0,0
105098,-100,4,2,1,5,0,0
105195,-100,4,2,1,60,0,0
105388,-100,4,2,1,70,0,0
105582,-100,4,2,1,60,0,0
105775,-100,4,2,1,70,0,0
105969,-100,4,2,1,60,0,0
106162,-100,4,2,1,65,0,0
106356,-100,4,2,1,60,0,0
106549,-100,4,2,1,65,0,0
106743,-100,4,2,1,60,0,0
106936,-100,4,2,1,70,0,0
107130,-100,4,2,1,60,0,0
107324,-100,4,2,1,70,0,0
107517,-100,4,2,1,60,0,0
107711,-100,4,2,1,65,0,0
107904,-100,4,2,1,60,0,0
108098,-100,4,2,1,70,0,0
108291,-100,4,2,1,60,0,0
108485,-100,4,2,1,70,0,0
108678,-100,4,2,1,50,0,0
108872,-100,4,2,1,70,0,0
109065,-100,4,2,1,60,0,0
109259,-100,4,2,1,70,0,0
109453,-100,4,2,1,65,0,0
109646,-100,4,2,1,75,0,0
109840,-100,4,2,1,65,0,0
110033,-100,4,2,1,70,0,0
110227,-100,4,2,1,75,0,0
110420,-100,4,2,1,70,0,0
110614,-100,4,2,1,80,0,0
110807,-100,4,2,1,75,0,0
111001,-100,4,2,1,70,0,0
111291,-100,4,2,1,5,0,0
111388,-100,4,2,1,65,0,0
111582,-100,4,2,1,75,0,0
111775,-100,4,2,1,70,0,0
111969,-100,4,2,1,80,0,0
112162,-100,4,2,1,65,0,0
112356,-100,4,2,1,75,0,0
112549,-100,4,2,1,70,0,0
112743,-100,4,2,1,80,0,0
112936,-100,4,2,1,75,0,0
113130,-100,4,2,1,70,0,0
113517,-100,4,2,1,60,0,0
113711,-100,4,2,1,65,0,0
113904,-100,4,2,1,75,0,0
114098,-100,4,2,1,70,0,0
114291,-100,4,2,1,75,0,0
114485,-100,4,2,1,70,0,0
114678,-100,4,2,1,75,0,0
114872,-100,4,2,1,65,0,0
115065,-100,4,2,1,70,0,0
115259,-100,4,2,1,65,0,0
115453,-100,4,2,1,80,0,0
115646,-100,4,2,1,70,0,0
115743,-100,4,2,1,75,0,0
115840,-100,4,2,1,80,0,0
115936,-100,4,2,1,70,0,0
116033,-100,4,2,1,60,0,0
116130,-100,4,2,1,65,0,0
116227,-100,4,2,1,70,0,0
116420,-100,4,2,1,65,0,0
116614,-100,4,2,1,75,0,0
116711,-100,4,2,1,70,0,0
116807,-100,4,2,1,65,0,0
117001,-100,4,2,1,70,0,0
117098,-100,4,2,1,65,0,0
117195,-100,4,2,1,75,0,0
117291,-100,4,2,1,80,0,0
117388,-100,4,2,1,85,0,0
117485,-100,4,2,1,75,0,0
117582,-100,4,2,1,65,0,0
117678,-100,4,2,1,60,0,0
117775,-100,4,2,1,70,0,0
117969,-100,4,2,1,50,0,0
118162,-100,4,2,1,60,0,0
118259,-100,4,2,1,65,0,0
118356,-100,4,2,1,70,0,0
118549,-100,4,2,1,75,0,0
118743,-100,4,2,1,60,0,0
119517,-111.111111111111,4,2,1,30,0,0
120291,-90.9090909090909,4,2,1,60,0,1
120485,-90.9090909090909,4,2,1,65,0,0
120678,-90.9090909090909,4,2,1,60,0,0
120872,-90.9090909090909,4,2,1,65,0,0
121065,-90.9090909090909,4,2,1,55,0,0
121356,-90.9090909090909,4,2,1,5,0,0
121453,-90.9090909090909,4,2,1,60,0,0
121646,-90.9090909090909,4,2,1,65,0,0
121840,-90.9090909090909,4,2,1,60,0,0
122033,-90.9090909090909,4,2,1,65,0,0
122227,-90.9090909090909,4,2,1,60,0,0
122420,-90.9090909090909,4,2,1,65,0,0
122614,-90.9090909090909,4,2,1,55,0,0
122807,-90.9090909090909,4,2,1,65,0,0
123001,-90.9090909090909,4,2,1,60,0,0
123195,-90.9090909090909,4,2,1,65,0,0
123388,-90.9090909090909,4,2,1,60,0,0
123678,-90.9090909090909,4,2,1,5,0,0
123775,-90.9090909090909,4,2,1,60,0,0
123969,-90.9090909090909,4,2,1,65,0,0
124162,-90.9090909090909,4,2,1,55,0,0
124356,-90.9090909090909,4,2,1,65,0,0
124549,-90.9090909090909,4,2,1,60,0,0
124743,-90.9090909090909,4,2,1,65,0,0
124936,-90.9090909090909,4,2,1,60,0,0
125227,-90.9090909090909,4,2,1,5,0,0
125324,-90.9090909090909,4,2,1,60,0,0
125517,-90.9090909090909,4,2,1,65,0,0
125711,-90.9090909090909,4,2,1,60,0,0
125904,-90.9090909090909,4,2,1,70,0,0
126098,-90.9090909090909,4,2,1,65,0,0
126291,-90.9090909090909,4,2,1,75,0,0
126485,-90.9090909090909,4,2,1,65,0,0
126775,-90.9090909090909,4,2,1,5,0,0
126872,-90.9090909090909,4,2,1,60,0,0
127065,-90.9090909090909,4,2,1,65,0,0
127259,-90.9090909090909,4,2,1,55,0,0
127453,-90.9090909090909,4,2,1,65,0,0
127646,-90.9090909090909,4,2,1,60,0,0
127840,-90.9090909090909,4,2,1,65,0,0
128033,-90.9090909090909,4,2,1,60,0,0
128324,-90.9090909090909,4,2,1,5,0,0
128420,-90.9090909090909,4,2,1,60,0,0
128614,-90.9090909090909,4,2,1,65,0,0
128807,-90.9090909090909,4,2,1,55,0,0
129001,-90.9090909090909,4,2,1,65,0,0
129195,-90.9090909090909,4,2,1,60,0,0
129388,-90.9090909090909,4,2,1,65,0,0
129582,-90.9090909090909,4,2,1,60,0,0
129775,-90.9090909090909,4,2,1,70,0,0
129872,-90.9090909090909,4,2,1,65,0,0
129969,-90.9090909090909,4,2,1,60,0,0
130162,-90.9090909090909,4,2,1,70,0,0
130259,-90.9090909090909,4,2,1,65,0,0
130356,-90.9090909090909,4,2,1,60,0,0
130549,-90.9090909090909,4,2,1,70,0,0
130646,-90.9090909090909,4,2,1,65,0,0
130743,-90.9090909090909,4,2,1,60,0,0
130936,-90.9090909090909,4,2,1,65,0,0
131130,-90.9090909090909,4,2,1,70,0,0
131420,-90.9090909090909,4,2,1,5,0,0
131517,-90.9090909090909,4,2,1,60,0,0
131711,-90.9090909090909,4,2,1,75,0,0
131904,-90.9090909090909,4,2,1,70,0,0
132098,-90.9090909090909,4,2,1,75,0,0
132291,-90.9090909090909,4,2,1,70,0,0
132388,-90.9090909090909,4,2,1,65,0,0
132485,-90.9090909090909,4,2,1,70,0,0
132582,-90.9090909090909,4,2,1,65,0,0
132678,-90.9090909090909,4,2,1,60,0,1
132872,-90.9090909090909,4,2,1,60,0,0
132969,-90.9090909090909,4,2,1,5,0,0
133065,-90.9090909090909,4,2,1,60,0,0
133259,-90.9090909090909,4,2,1,65,0,0
133453,-90.9090909090909,4,2,1,55,0,0
133646,-90.9090909090909,4,2,1,65,0,0
133840,-90.9090909090909,4,2,1,60,0,0
134033,-90.9090909090909,4,2,1,65,0,0
134227,-90.9090909090909,4,2,1,60,0,0
134517,-90.9090909090909,4,2,1,5,0,0
134614,-90.9090909090909,4,2,1,60,0,0
134807,-90.9090909090909,4,2,1,65,0,0
135001,-90.9090909090909,4,2,1,55,0,0
135195,-90.9090909090909,4,2,1,65,0,0
135388,-90.9090909090909,4,2,1,60,0,0
135582,-90.9090909090909,4,2,1,65,0,0
135775,-90.9090909090909,4,2,1,60,0,0
136065,-90.9090909090909,4,2,1,5,0,0
136162,-90.9090909090909,4,2,1,60,0,0
136356,-90.9090909090909,4,2,1,65,0,0
136549,-90.9090909090909,4,2,1,55,0,0
136743,-90.9090909090909,4,2,1,65,0,0
136936,-90.9090909090909,4,2,1,60,0,0
137130,-90.9090909090909,4,2,1,65,0,0
137324,-90.9090909090909,4,2,1,60,0,0
137614,-90.9090909090909,4,2,1,5,0,0
137711,-90.9090909090909,4,2,1,60,0,0
137904,-90.9090909090909,4,2,1,65,0,0
138098,-90.9090909090909,4,2,1,60,0,0
138291,-90.9090909090909,4,2,1,65,0,0
138485,-90.9090909090909,4,2,1,60,0,0
138678,-90.9090909090909,4,2,1,55,0,0
138872,-90.9090909090909,4,2,1,60,0,0
139840,-90.9090909090909,4,2,1,65,0,0
140033,-90.9090909090909,4,2,1,60,0,0
140227,-90.9090909090909,4,2,1,70,0,0
140420,-90.9090909090909,4,2,1,60,0,0
141195,-90.9090909090909,4,2,1,65,0,0
141775,-90.9090909090909,4,2,1,75,0,0
141969,-83.3333333333333,4,2,1,60,0,0
143711,-90.9090909090909,4,2,1,70,0,0
143904,-90.9090909090909,4,2,1,60,0,0
144098,-90.9090909090909,4,2,1,70,0,0
144291,-90.9090909090909,4,2,1,60,0,0
144485,-90.9090909090909,4,2,1,50,0,0
144678,-90.9090909090909,4,2,1,60,0,0
145065,-76.9230769230769,4,2,1,70,0,1
145259,-76.9230769230769,4,2,1,70,0,0
145356,-76.9230769230769,4,2,1,5,0,0
145453,-76.9230769230769,4,2,1,65,0,0
145646,-76.9230769230769,4,2,1,55,0,0
145840,-76.9230769230769,4,2,1,60,0,0
146033,-76.9230769230769,4,2,1,70,0,0
146614,-76.9230769230769,4,2,1,60,0,0
147001,-76.9230769230769,4,2,1,50,0,0
147195,-76.9230769230769,4,2,1,60,0,0
147582,-76.9230769230769,4,2,1,70,0,0
147775,-76.9230769230769,4,2,1,60,0,0
147969,-76.9230769230769,4,2,1,70,0,0
148162,-76.9230769230769,4,2,1,55,0,0
148743,-76.9230769230769,4,2,1,60,0,0
148936,-76.9230769230769,4,2,1,65,0,0
149130,-76.9230769230769,4,2,1,70,0,0
149227,-76.9230769230769,4,2,1,73,0,0
149324,-76.9230769230769,4,2,1,76,0,0
149420,-76.9230769230769,4,2,1,79,0,0
149517,-76.9230769230769,4,2,1,82,0,0
149614,-76.9230769230769,4,2,1,85,0,0
149711,-66.6666666666667,4,2,1,70,0,0
149904,-66.6666666666667,4,2,1,80,0,0
150195,-66.6666666666667,4,2,1,5,0,0
150291,-66.6666666666667,4,2,1,85,0,0
150582,-66.6666666666667,4,2,1,5,0,0
150678,-66.6666666666667,4,2,1,75,0,0
150872,-66.6666666666667,4,2,1,80,0,0
151065,-66.6666666666667,4,2,1,90,0,0
151259,-76.9230769230769,4,2,1,80,0,0
151453,-76.9230769230769,4,2,1,70,0,0
151646,-76.9230769230769,4,2,1,75,0,0
151840,-76.9230769230769,4,2,1,80,0,0
152033,-76.9230769230769,4,2,1,70,0,0
152324,-76.9230769230769,4,2,1,80,0,0
153195,-76.9230769230769,4,2,1,70,0,0
153388,-76.9230769230769,4,2,1,60,0,0
153582,-57.1428571428571,4,2,1,60,0,0
154356,-66.6666666666667,4,2,1,70,0,0
154646,-66.6666666666667,4,2,1,5,0,0
154743,-66.6666666666667,4,2,1,60,0,0
155130,-66.6666666666667,4,2,1,65,0,0
155324,-66.6666666666667,4,2,1,60,0,0
155420,-66.6666666666667,4,2,1,55,0,0
155517,-66.6666666666667,4,2,1,60,0,0
155711,-66.6666666666667,4,2,1,65,0,0
155904,-66.6666666666667,4,2,1,70,0,0
156098,-66.6666666666667,4,2,1,80,0,0
156291,-66.6666666666667,4,2,1,75,0,0
156388,-66.6666666666667,4,2,1,85,0,0
156582,-66.6666666666667,4,2,1,75,0,0
157453,-90.9090909090909,4,2,1,60,0,0
158227,-90.9090909090909,4,2,1,50,0,0
158324,-90.9090909090909,4,2,1,40,0,0
158517,-100,4,2,1,50,0,0
159001,-100,4,2,1,40,0,0
171388,-133.333333333333,4,2,1,40,0,0
171969,-133.333333333333,4,2,1,50,0,0
172162,-133.333333333333,4,2,1,60,0,0
172549,-133.333333333333,4,2,1,50,0,0
173324,-133.333333333333,4,2,1,40,0,0
173517,-133.333333333333,4,2,1,50,0,0
173711,-133.333333333333,4,2,1,60,0,0
174098,-133.333333333333,4,2,1,50,0,0
174485,-133.333333333333,4,2,1,40,0,0
175065,-133.333333333333,4,2,1,55,0,0
175646,-133.333333333333,4,2,1,60,0,0
176033,-133.333333333333,4,2,1,50,0,0
176420,-133.333333333333,4,2,1,60,0,0
176614,-133.333333333333,4,2,1,45,0,0
176807,-133.333333333333,4,2,1,55,0,0
177098,-133.333333333333,4,2,1,5,0,0
177195,-133.333333333333,4,2,1,60,0,0
177388,-133.333333333333,4,2,1,50,0,0
177582,-133.333333333333,4,2,1,55,0,0
177775,-133.333333333333,4,2,1,60,0,0
177969,-133.333333333333,4,2,1,45,0,0
178162,-133.333333333333,4,2,1,60,0,0
178356,-133.333333333333,4,2,1,50,0,0
178549,-133.333333333333,4,2,1,65,0,0
178743,-133.333333333333,4,2,1,60,0,0
178936,-133.333333333333,4,2,1,70,0,0
179130,-133.333333333333,4,2,1,60,0,0
179324,-133.333333333333,4,2,1,65,0,0
179517,-133.333333333333,4,2,1,60,0,0
179711,-133.333333333333,4,2,1,70,0,0
179904,-133.333333333333,4,2,1,60,0,0
180098,-133.333333333333,4,2,1,75,0,0
180291,-133.333333333333,4,2,1,65,0,0
180485,-133.333333333333,4,2,1,80,0,0
180678,-133.333333333333,4,2,1,50,0,0
180872,-133.333333333333,4,2,1,60,0,0
181065,-133.333333333333,4,2,1,55,0,0
181259,-133.333333333333,4,2,1,65,0,0
181453,-133.333333333333,4,2,1,60,0,0
181646,-133.333333333333,4,2,1,70,0,0
181840,-133.333333333333,4,2,1,65,0,0
182033,-133.333333333333,4,2,1,75,0,0
182227,-133.333333333333,4,2,1,70,0,0
182420,-133.333333333333,4,2,1,80,0,0
182614,-133.333333333333,4,2,1,75,0,0
182807,-133.333333333333,4,2,1,85,0,0
183001,-133.333333333333,4,2,1,80,0,0
183195,-133.333333333333,4,2,1,90,0,0
183388,-133.333333333333,4,2,1,80,0,0
183582,-133.333333333333,4,2,1,95,0,0
183775,-83.3333333333333,4,2,1,80,0,0
184549,-83.3333333333333,4,2,1,50,0,0
185324,-76.9230769230769,4,2,1,80,0,1
185517,-76.9230769230769,4,2,1,50,0,0
185711,-76.9230769230769,4,2,1,70,0,0
185904,-76.9230769230769,4,2,1,80,0,0
186098,-76.9230769230769,4,2,1,65,0,0
186388,-76.9230769230769,4,2,1,5,0,0
186485,-76.9230769230769,4,2,1,70,0,0
186678,-76.9230769230769,4,2,1,80,0,0
186872,-76.9230769230769,4,2,1,75,0,0
187065,-76.9230769230769,4,2,1,80,0,0
187259,-76.9230769230769,4,2,1,70,0,0
187453,-76.9230769230769,4,2,1,80,0,0
187646,-76.9230769230769,4,2,1,65,0,0
187840,-76.9230769230769,4,2,1,75,0,0
188033,-76.9230769230769,4,2,1,70,0,0
188227,-76.9230769230769,4,2,1,80,0,0
188420,-76.9230769230769,4,2,1,70,0,0
188614,-76.9230769230769,4,2,1,80,0,0
188807,-76.9230769230769,4,2,1,70,0,0
189001,-76.9230769230769,4,2,1,80,0,0
189195,-76.9230769230769,4,2,1,65,0,0
189388,-76.9230769230769,4,2,1,80,0,0
189582,-76.9230769230769,4,2,1,70,0,0
189775,-76.9230769230769,4,2,1,80,0,0
189969,-76.9230769230769,4,2,1,75,0,0
190259,-76.9230769230769,4,2,1,5,0,0
190356,-76.9230769230769,4,2,1,70,0,0
190549,-76.9230769230769,4,2,1,80,0,0
190743,-76.9230769230769,4,2,1,75,0,0
190936,-76.9230769230769,4,2,1,80,0,0
191130,-76.9230769230769,4,2,1,85,0,0
191324,-76.9230769230769,4,2,1,80,0,0
191517,-76.9230769230769,4,2,1,75,0,0
191711,-76.9230769230769,4,2,1,80,0,0
191904,-76.9230769230769,4,2,1,70,0,0
192098,-76.9230769230769,4,2,1,80,0,0
192291,-76.9230769230769,4,2,1,65,0,0
192582,-76.9230769230769,4,2,1,5,0,0
192678,-76.9230769230769,4,2,1,70,0,0
192872,-76.9230769230769,4,2,1,80,0,0
193065,-76.9230769230769,4,2,1,70,0,0
193259,-76.9230769230769,4,2,1,80,0,0
193453,-76.9230769230769,4,2,1,70,0,0
193646,-76.9230769230769,4,2,1,80,0,0
193840,-76.9230769230769,4,2,1,75,0,0
194033,-76.9230769230769,4,2,1,80,0,0
194227,-76.9230769230769,4,2,1,70,0,0
194420,-76.9230769230769,4,2,1,80,0,0
194614,-76.9230769230769,4,2,1,75,0,0
194807,-76.9230769230769,4,2,1,80,0,0
194904,-76.9230769230769,4,2,1,75,0,0
195001,-76.9230769230769,4,2,1,70,0,0
195195,-76.9230769230769,4,2,1,75,0,0
195291,-76.9230769230769,4,2,1,70,0,0
195388,-76.9230769230769,4,2,1,60,0,0
195582,-76.9230769230769,4,2,1,70,0,0
195678,-76.9230769230769,4,2,1,75,0,0
195775,-76.9230769230769,4,2,1,80,0,0
195969,-76.9230769230769,4,2,1,85,0,0
196162,-76.9230769230769,4,2,1,80,0,0
196453,-76.9230769230769,4,2,1,5,0,0
196549,-76.9230769230769,4,2,1,75,0,0
196743,-76.9230769230769,4,2,1,85,0,0
196840,-76.9230769230769,4,2,1,83,0,0
196936,-76.9230769230769,4,2,1,80,0,0
197130,-76.9230769230769,4,2,1,70,0,0
197324,-76.9230769230769,4,2,1,80,0,0
197517,-76.9230769230769,4,2,1,75,0,0
197711,-76.9230769230769,4,2,1,70,0,1
197904,-76.9230769230769,4,2,1,70,0,0
198001,-76.9230769230769,4,2,1,5,0,0
198098,-76.9230769230769,4,2,1,75,0,0
198291,-76.9230769230769,4,2,1,80,0,0
198485,-76.9230769230769,4,2,1,65,0,0
198678,-76.9230769230769,4,2,1,80,0,0
198872,-76.9230769230769,4,2,1,70,0,0
199065,-76.9230769230769,4,2,1,80,0,0
199259,-76.9230769230769,4,2,1,75,0,0
199549,-76.9230769230769,4,2,1,5,0,0
199646,-76.9230769230769,4,2,1,70,0,0
199840,-76.9230769230769,4,2,1,80,0,0
200033,-76.9230769230769,4,2,1,75,0,0
200227,-76.9230769230769,4,2,1,80,0,0
200420,-76.9230769230769,4,2,1,70,0,0
200614,-76.9230769230769,4,2,1,80,0,0
200807,-76.9230769230769,4,2,1,75,0,1
201001,-76.9230769230769,4,2,1,80,0,0
201195,-76.9230769230769,4,2,1,85,0,0
201388,-76.9230769230769,4,2,1,90,0,0
201582,-76.9230769230769,4,2,1,80,0,0
201775,-76.9230769230769,4,2,1,85,0,0
201969,-76.9230769230769,4,2,1,90,0,0
202162,-76.9230769230769,4,2,1,85,0,0
202356,-76.9230769230769,4,2,1,95,0,1
202549,-76.9230769230769,4,2,1,99,0,0
202743,-76.9230769230769,4,2,1,90,0,0
202936,-76.9230769230769,4,2,1,93,0,0
203130,-76.9230769230769,4,2,1,85,0,1
203324,-76.9230769230769,4,2,1,88,0,0
203517,-76.9230769230769,4,2,1,95,0,0
203711,-76.9230769230769,4,2,1,90,0,0
203904,-76.9230769230769,4,2,1,80,0,1
204098,-76.9230769230769,4,2,1,75,0,0
204291,-83.3333333333333,4,2,1,60,0,0
204485,-83.3333333333333,4,2,1,70,0,0
204678,-83.3333333333333,4,2,1,75,0,0
204969,-83.3333333333333,4,2,1,5,0,0
205065,-83.3333333333333,4,2,1,65,0,0
205259,-83.3333333333333,4,2,1,70,0,0
205453,-83.3333333333333,4,2,1,65,0,0
205646,-83.3333333333333,4,2,1,70,0,0
205840,-83.3333333333333,4,2,1,60,0,0
206033,-83.3333333333333,4,2,1,70,0,0
206227,-83.3333333333333,4,2,1,75,0,0
206517,-83.3333333333333,4,2,1,5,0,0
206614,-83.3333333333333,4,2,1,65,0,0
206807,-83.3333333333333,4,2,1,75,0,0
207001,-83.3333333333333,4,2,1,60,0,1
207195,-83.3333333333333,4,2,1,70,0,0
207388,-83.3333333333333,4,2,1,60,0,0
207582,-83.3333333333333,4,2,1,70,0,0
207775,-83.3333333333333,4,2,1,60,0,0
207872,-83.3333333333333,4,2,1,62,0,0
207969,-83.3333333333333,4,2,1,64,0,0
208065,-83.3333333333333,4,2,1,66,0,0
208162,-83.3333333333333,4,2,1,68,0,0
208356,-83.3333333333333,4,2,1,75,0,0
208549,-83.3333333333333,4,2,1,70,0,1
208743,-83.3333333333333,4,2,1,80,0,0
208936,-83.3333333333333,4,2,1,75,0,0
209130,-83.3333333333333,4,2,1,85,0,0
209324,-83.3333333333333,4,2,1,90,0,0
209420,-83.3333333333333,4,2,1,95,0,0
209711,-83.3333333333333,4,2,1,80,0,0
209807,-83.3333333333333,4,2,1,90,0,0
210098,-83.3333333333333,4,2,1,75,0,0
213195,500,4,2,1,50,1,0
213195,-142.857142857143,4,2,1,50,0,0
213695,-142.857142857143,4,2,1,30,0,0
214195,-142.857142857143,4,2,1,50,0,0
214695,-142.857142857143,4,2,1,45,0,0
214945,-142.857142857143,4,2,1,55,0,0
215195,-142.857142857143,4,2,1,60,0,0
215695,-142.857142857143,4,2,1,40,0,0
216195,-142.857142857143,4,2,1,60,0,0
216695,-142.857142857143,4,2,1,55,0,0
216945,-142.857142857143,4,2,1,65,0,0
217195,-142.857142857143,4,2,1,60,0,0
217945,-142.857142857143,4,2,1,50,0,0
218195,-142.857142857143,4,2,1,55,0,0
218695,-142.857142857143,4,2,1,50,0,0
218945,-142.857142857143,4,2,1,47,0,0
219195,-142.857142857143,4,2,1,45,0,0
219945,-142.857142857143,4,2,1,40,0,0
220195,-142.857142857143,4,2,1,45,0,0
220945,-142.857142857143,4,2,1,40,0,0
221195,-142.857142857143,4,2,1,35,0,0
222195,618.556701030928,4,2,1,40,1,0
222195,-142.857142857143,4,2,1,40,0,0
222504,674.157303370787,4,2,1,30,1,0
222841,697.674418604651,4,2,1,30,1,0
222841,-142.857142857143,4,2,1,30,0,0
223189,826.446280991736,4,2,1,30,1,0
223602,571.428571428571,4,2,1,25,1,0
223602,-100,4,2,1,25,0,0
224030,-100,4,2,1,5,0,0

[Colours]
Combo1 : 128,0,128
Combo2 : 128,128,255
Combo3 : 128,0,64
Combo4 : 128,128,255

[HitObjects]
56,292,1066,6,0,P|119:293|183:298,1,127.500004863739,2|0,0:0|0:0,0:0:0:0:
356,341,1840,2,0,P|352:305|351:265,1,63.7500024318696,2|0,0:0|0:0,0:0:0:0:
374,191,2227,1,2,0:0:0:0:
178,71,2614,6,0,P|192:133|195:197,1,127.500004863739,2|0,0:0|0:0,0:0:0:0:
178,286,3195,1,2,0:0:0:0:
169,281,3775,2,0,P|118:272|87:272,1,63.7500024318696,2|0,0:0|0:0,0:0:0:0:
246,332,4162,6,0,P|283:310|374:321,1,127.500004863739,2|0,0:0|0:0,0:0:0:0:
232,209,4743,2,0,P|293:219|350:192,1,127.500004863739,2|0,0:0|0:0,0:0:0:0:
282,122,5324,1,2,0:0:0:0:
282,122,5711,6,0,P|283:69|285:51,1,63.7500024318696,2|0,0:0|0:0,0:0:0:0:
432,162,6098,2,0,P|431:215|429:233,1,63.7500024318696,2|0,0:0|0:0,0:0:0:0:
202,153,6485,6,0,P|203:100|205:82,1,63.7500024318696,2|0,0:0|0:0,0:0:0:0:
352,193,6872,2,0,P|351:246|349:264,1,63.7500024318696,2|0,0:0|0:0,0:0:0:0:
122,184,7259,5,4,1:0:0:0:
271,219,7453,1,2,0:0:0:0:
271,248,7549,1,0,0:0:0:0:
268,277,7646,1,0,1:0:0:0:
212,159,7840,1,2,0:0:0:0:
107,271,8033,5,0,0:0:0:0:
271,219,8227,1,2,0:0:0:0:
144,102,8420,1,0,0:0:0:0:
271,219,8614,1,2,0:0:0:0:
424,224,8807,5,4,1:0:0:0:
271,219,9001,1,2,0:0:0:0:
263,247,9098,1,0,0:0:0:0:
258,276,9195,1,0,1:0:0:0:
343,176,9388,1,2,0:0:0:0:
415,311,9582,5,0,0:0:0:0:
271,219,9775,1,2,0:0:0:0:
423,139,9969,1,0,0:0:0:0:
271,219,10162,1,2,0:0:0:0:
311,82,10356,5,4,1:0:0:0:
278,92,10453,1,0,0:0:0:0:
244,91,10549,1,2,0:0:0:0:
213,79,10646,1,0,0:0:0:0:
187,57,10743,1,2,0:0:0:0:
337,172,10936,5,2,0:0:0:0:
337,172,11033,1,0,0:0:0:0:
337,172,11130,1,4,1:0:0:0:
136,144,11324,1,2,0:0:0:0:
131,177,11420,1,0,0:0:0:0:
113,206,11517,2,0,P|105:246|112:279,1,68,2|2,0:0|0:0,0:0:0:0:
120,304,11807,1,0,0:0:0:0:
141,330,11904,5,4,0:0:0:0:
326,242,12098,1,0,1:0:0:0:
186,242,12291,1,4,0:0:0:0:
371,330,12485,1,0,1:0:0:0:
432,96,12678,5,4,0:0:0:0:
387,99,12775,5,0,0:0:0:0:
343,102,12872,5,2,0:0:0:0:
299,105,12969,5,2,0:0:0:0:
255,108,13065,5,4,0:0:0:0:
211,111,13162,5,0,0:0:0:0:
167,114,13259,5,4,1:0:0:0:
123,118,13356,5,2,0:0:0:0:
79,121,13453,6,2,L|71:197,1,74.375,6|0,1:0|0:0,1:0:0:0:
19,259,14227,5,2,0:0:0:0:
26,283,14324,1,2,0:0:0:0:
31,307,14420,2,0,P|32:326|28:341,3,21.25,8|0|8|0,1:3|1:0|1:3|1:0,0:0:0:0:
5,364,14614,6,0,P|29:360|53:359,1,42.5,0|8,1:0|1:3,0:0:0:0:
143,320,14807,2,0,P|168:323|189:328,1,42.5,0|8,1:0|1:3,0:0:0:0:
279,378,15001,6,0,P|270:319|275:247,1,127.5,4|0,0:0|0:0,0:0:0:0:
301,177,15388,1,8,0:0:0:0:
415,231,15582,1,2,0:0:0:0:
415,231,15678,1,0,0:0:0:0:
415,231,15775,1,2,0:3:0:0:
219,195,15969,1,2,0:0:0:0:
347,100,16162,1,10,0:0:0:0:
358,299,16356,1,2,0:0:0:0:
137,213,16549,5,6,0:0:0:0:
219,195,16743,1,2,0:0:0:0:
223,178,16840,1,0,0:0:0:0:
227,160,16936,1,8,0:2:0:0:
274,251,17130,1,2,0:0:0:0:
231,144,17324,1,6,0:0:0:0:
188,334,17517,5,6,0:0:0:0:
448,192,17711,1,12,0:0:0:0:
188,50,17904,1,6,0:0:0:0:
336,115,18098,6,0,P|327:220|320:248,1,127.5,6|0,0:0|0:0,0:0:0:0:
305,276,18485,1,14,0:0:0:0:
94,222,18678,1,2,0:0:0:0:
94,222,18775,1,0,0:0:0:0:
94,222,18872,2,0,B|126:186|126:186|229:178,1,127.5,6|0,0:0|0:0,0:0:0:0:
243,177,19259,1,14,0:0:0:0:
73,127,19453,1,2,0:0:0:0:
184,293,19646,5,6,0:0:0:0:
188,97,19840,1,2,0:0:0:0:
188,97,19936,1,2,0:0:0:0:
188,97,20033,2,0,L|135:95,1,42.5,8|0,0:0|0:0,0:0:0:0:
73,127,20227,2,0,B|108:171|108:171|208:178,1,152.999995330811,6|0,0:0|0:0,0:0:0:0:
243,177,20614,5,6,0:0:0:0:
116,297,20807,2,0,L|206:291,1,68,4|8,0:3|0:3,0:0:0:0:
329,355,21195,5,6,0:0:0:0:
425,276,21388,1,2,0:0:0:0:
425,276,21485,1,0,0:0:0:0:
425,276,21582,2,0,P|431:231|435:192,1,85,8|2,0:0|0:0,0:0:0:0:
498,344,21969,1,6,0:0:0:0:
307,234,22162,1,2,0:0:0:0:
504,135,22356,1,14,0:0:0:0:
508,170,22743,5,6,0:0:0:0:
466,178,22840,1,2,0:0:0:0:
424,173,22936,1,2,0:0:0:0:
386,154,23033,1,0,0:0:0:0:
356,124,23130,1,8,0:0:0:0:
289,189,23324,2,0,P|223:173|163:195,1,127.5,6|0,0:0|0:0,0:0:0:0:
144,221,23711,1,8,0:0:0:0:
234,75,23904,2,0,P|195:91|141:87,1,85,0|8,1:0|0:3,0:0:0:0:
61,60,24291,5,6,0:0:0:0:
46,195,24485,1,2,0:0:0:0:
63,191,24582,1,0,0:0:0:0:
80,187,24678,1,2,0:3:0:0:
37,313,24872,1,2,0:0:0:0:
187,134,25065,6,0,P|189:181|192:232,1,85,6|2,0:0|0:0,0:0:0:0:
191,218,25356,1,0,0:0:0:0:
191,218,25453,1,0,0:3:0:0:
283,175,25646,1,6,0:0:0:0:
145,311,25840,5,6,0:0:0:0:
355,350,26033,1,6,0:0:0:0:
278,266,26227,1,6,0:0:0:0:
251,273,26324,1,6,0:0:0:0:
208,159,26517,6,2,B|239:181|256:169|256:169|288:182|349:166,1,127.5,6|0,0:0|1:0,1:0:0:0:
299,27,27001,2,2,P|289:75|289:100,1,68,2|2,0:0|0:3,1:0:0:0:
411,196,27388,6,0,P|412:148|402:118,2,59.4999981842042,2|0|0,0:0|0:0|0:0,0:0:0:0:
346,252,27969,1,2,0:0:0:0:
346,252,28936,6,0,P|345:300|355:330,2,59.4999981842042,2|0|2,0:0|0:0|0:0,0:0:0:0:
411,196,29517,2,0,P|377:203|304:163,1,118.999996368408,2|2,0:0|0:0,0:0:0:0:
374,61,30098,2,0,P|378:90|376:120,1,59.4999981842042,2|0,0:0|0:0,0:0:0:0:
305,165,30485,6,0,L|241:169,1,59.4999981842042,2|0,0:0|0:0,0:0:0:0:
211,92,30872,2,0,L|270:88,1,59.4999981842042,0|2,0:0|0:0,0:0:0:0:
159,167,31259,1,0,0:0:0:0:
74,138,31453,2,0,B|62:120|70:98|70:98|52:72|57:17,1,118.999996368408,2|2,0:0|0:0,0:0:0:0:
159,167,32033,6,0,L|150:238,1,59.4999981842042,2|0,0:0|0:0,0:0:0:0:
160,332,32420,1,0,0:0:0:0:
32,287,32614,1,2,0:0:0:0:
32,287,32807,2,0,P|66:282|93:285,1,59.4999981842042,0|2,0:0|0:0,0:0:0:0:
160,332,33195,2,0,P|189:327|218:329,1,59.4999981842042,0|2,0:0|0:0,0:0:0:0:
290,372,33582,5,2,0:0:0:0:
371,354,33775,1,0,0:0:0:0:
312,294,33969,1,0,0:0:0:0:
381,357,34162,2,0,P|383:300|375:235,1,118.999996368408,2|2,0:0|0:0,0:0:0:0:
296,210,34743,2,0,P|299:175|305:145,1,59.4999981842042,0|2,0:0|0:0,0:0:0:0:
403,58,35130,5,2,0:0:0:0:
321,73,35324,1,0,0:0:0:0:
249,31,35517,1,0,0:0:0:0:
399,67,35711,2,0,B|402:108|413:140|413:140|407:160|402:185,1,118.999996368408,2|2,0:0|0:0,0:0:0:0:
355,251,36291,2,0,P|319:245|290:245,1,59.4999981842042,0|2,0:0|0:0,0:0:0:0:
145,310,36678,5,2,0:0:0:0:
215,265,36872,2,0,L|222:195,1,59.4999981842042
321,323,37259,1,2,0:0:0:0:
219,348,37453,5,0,0:0:0:0:
296,244,37646,1,2,0:0:0:0:
397,283,37840,2,0,L|407:351,1,59.4999981842042,0|2,0:0|0:0,0:0:0:0:
220,205,38227,5,2,0:0:0:0:
296,244,38420,1,0,0:0:0:0:
371,208,38614,2,0,P|378:170|382:138,1,59.4999981842042,2|2,0:0|0:0,0:0:0:0:
154,148,39001,6,0,P|131:147|113:151,14,25.4999992218018
71,98,39775,6,0,P|81:154|87:211,1,114.749996498108,4|0,1:0|0:0,0:0:0:0:
81,249,40162,1,8,0:0:0:0:
184,217,40356,2,0,B|241:210|285:211|285:211|328:241,1,152.999995330811,0|0,1:0|1:0,0:0:0:0:
419,119,40936,2,0,P|420:165|416:196,1,76.4999976654053,8|2,0:0|0:0,0:0:0:0:
316,332,41324,5,4,0:0:0:0:
405,282,41517,1,2,0:0:0:0:
420,284,41614,1,0,0:0:0:0:
435,287,41711,1,8,0:0:0:0:
316,332,41904,1,0,1:0:0:0:
339,198,42098,2,0,P|377:195|415:195,1,76.4999976654053,2|0,0:0|1:0,0:0:0:0:
244,247,42485,2,0,P|236:207|235:164,1,76.4999976654053,8|2,0:0|0:0,0:0:0:0:
208,345,42872,5,6,0:0:0:0:
170,351,42969,1,0,0:0:0:0:
132,348,43065,1,2,0:0:0:0:
96,336,43162,1,0,0:0:0:0:
63,316,43259,1,8,0:0:0:0:
164,203,43453,1,0,1:2:0:0:
162,218,43549,1,0,0:0:0:0:
159,233,43646,1,2,0:3:0:0:
37,191,43840,1,0,1:2:0:0:
34,176,43936,1,0,0:0:0:0:
32,160,44033,2,0,P|29:119|26:72,1,76.4999976654053,8|2,0:0|0:0,0:0:0:0:
249,134,44420,5,6,0:0:0:0:
134,120,44614,1,2,0:0:0:0:
134,120,44711,1,0,0:0:0:0:
134,120,44807,1,8,0:0:0:0:
349,70,45001,1,12,0:0:0:0:
183,204,45195,5,6,0:0:0:0:
183,204,45291,1,0,0:0:0:0:
183,204,45388,1,8,0:0:0:0:
253,32,45582,1,12,0:0:0:0:
412,144,45775,5,8,0:0:0:0:
412,144,45872,1,8,0:0:0:0:
412,144,45969,2,0,P|417:198|420:263,1,114.749996498108,6|0,0:0|0:0,0:0:0:0:
416,296,46356,1,8,0:0:0:0:
231,272,46549,1,2,0:0:0:0:
328,218,46743,5,2,0:0:0:0:
277,375,46936,1,2,0:0:0:0:
129,303,47130,2,0,P|125:266|122:212,1,76.4999976654053,10|2,0:0|0:0,0:0:0:0:
299,121,47517,5,6,0:0:0:0:
197,158,47711,1,2,0:0:0:0:
194,143,47807,1,2,0:0:0:0:
192,128,47904,1,8,2:3:0:0:
384,183,48098,1,4,3:0:0:0:
396,194,48485,1,8,3:0:0:0:
368,55,48678,2,0,P|331:57|278:62,1,76.4999976654053,8|2,0:0|0:0,0:0:0:0:
78,323,49065,5,4,2:0:0:0:
240,298,49259,1,2,2:0:0:0:
214,136,49453,1,8,2:0:0:0:
52,161,49646,1,2,2:0:0:0:
165,343,49840,5,4,2:0:0:0:
32,246,50033,1,2,2:0:0:0:
128,114,50227,1,8,2:0:0:0:
261,210,50420,1,2,2:0:0:0:
78,323,50614,5,4,0:0:0:0:
103,284,50711,1,0,0:0:0:0:
143,262,50807,1,2,0:0:0:0:
188,264,50904,1,0,0:0:0:0:
228,285,51001,1,2,0:0:0:0:
273,292,51098,1,2,0:0:0:0:
316,275,51195,2,0,P|336:242|343:192,1,76.4999976654053,6|0,0:0|0:0,0:0:0:0:
158,40,51582,1,2,0:0:0:0:
172,83,51678,1,2,0:0:0:0:
206,113,51775,2,0,P|248:117|296:111,1,76.4999976654053,2|2,0:0|0:0,0:0:0:0:
324,95,52065,1,2,0:0:0:0:
354,60,52162,5,4,0:0:0:0:
360,105,52259,1,0,0:0:0:0:
387,141,52356,1,2,0:0:0:0:
429,158,52453,1,0,0:0:0:0:
462,188,52549,1,6,0:0:0:0:
478,231,52646,1,2,0:0:0:0:
486,276,52743,2,0,P|481:320|468:352,1,76.4999976654053,12|2,0:0|0:0,0:0:0:0:
194,324,53130,1,6,0:0:0:0:
226,291,53227,1,2,0:0:0:0:
269,274,53324,2,0,P|315:274|364:291,1,76.4999976654053,10|6,0:0|0:0,0:0:0:0:
47,351,53711,5,6,0:0:0:0:
27,335,54485,1,2,1:0:0:0:
4,314,54582,2,0,L|77:308,1,38.2499988327027,2|0,1:0|0:0,0:0:0:0:
153,242,54775,2,0,L|80:236,1,38.2499988327027,2|0,1:0|0:0,0:0:0:0:
11,210,54969,1,2,1:0:0:0:
34,190,55065,2,0,L|39:145,1,38.2499988327027,2|2,1:0|1:0,0:0:0:0:
156,44,55259,6,0,L|163:159,1,93.5000028533936,4|2,0:0|0:0,0:0:0:0:
312,211,55646,1,8,0:0:0:0:
134,265,55840,1,2,0:0:0:0:
248,94,56033,2,0,B|341:103|341:103|387:132,1,140.25000428009,2|0,0:3|0:0,0:0:0:0:
428,157,56420,2,0,P|418:101|423:64,1,93.5000028533936,8|2,0:0|0:0,0:0:0:0:
469,268,56807,6,0,P|473:314|463:359,1,93.5000028533936,4|2,0:0|0:0,0:0:0:0:
219,334,57195,2,0,P|262:329|343:321,1,93.5000028533936,8|2,0:0|0:0,0:0:0:0:
367,315,57485,1,2,0:0:0:0:
367,315,57582,1,2,0:3:0:0:
200,206,57775,1,2,0:0:0:0:
378,114,57969,2,0,P|377:160|374:207,1,93.5000028533936,8|2,0:0|0:0,0:0:0:0:
104,288,58356,6,0,B|64:256|64:256|47:209|56:145,1,140.25000428009,4|0,0:0|0:0,0:0:0:0:
69,117,58743,1,8,0:0:0:0:
291,189,58936,1,2,0:0:0:0:
290,212,59033,1,0,0:0:0:0:
286,234,59130,1,2,0:3:0:0:
200,101,59324,1,2,0:0:0:0:
414,128,59517,2,0,P|419:175|422:232,1,93.5000028533936,10|2,0:0|0:0,0:0:0:0:
184,350,59904,6,0,B|218:315|218:315|287:309|351:331,1,140.25000428009,4|0,0:0|0:0,0:0:0:0:
357,346,60291,1,8,0:0:0:0:
199,221,60485,1,2,0:0:0:0:
199,221,60582,1,0,0:0:0:0:
199,221,60678,2,0,P|192:175|189:129,1,93.5000028533936,6|2,0:0|0:0,0:0:0:0:
411,72,61065,2,0,P|407:119|399:165,1,93.5000028533936,14|2,0:0|0:0,0:0:0:0:
81,283,61453,6,0,P|64:235|55:183,1,93.5000028533936,4|2,0:0|0:0,0:0:0:0:
309,71,61840,2,0,P|300:117|285:161,1,93.5000028533936,8|2,0:0|0:0,0:0:0:0:
285,161,62130,1,2,0:0:0:0:
285,161,62227,1,2,0:3:0:0:
149,81,62420,1,2,0:0:0:0:
399,165,62614,2,0,P|402:216|404:264,1,93.5000028533936,8|2,0:0|0:0,0:0:0:0:
184,350,63001,5,6,0:0:0:0:
260,246,63195,1,2,0:0:0:0:
283,244,63291,1,0,0:0:0:0:
306,243,63388,1,8,0:0:0:0:
184,350,63582,1,2,0:0:0:0:
205,145,63775,2,0,P|259:139|299:139,1,93.5000028533936,6|2,0:0|0:0,0:0:0:0:
76,235,64162,2,0,P|60:188|52:141,1,93.5000028533936,8|2,0:0|0:0,0:0:0:0:
386,189,64549,5,6,0:0:0:0:
205,145,64743,1,2,0:0:0:0:
203,122,64840,1,0,0:0:0:0:
202,99,64936,1,8,0:0:0:0:
258,267,65130,1,2,0:0:0:0:
239,280,65227,1,0,0:0:0:0:
219,292,65324,1,2,0:3:0:0:
345,169,65517,1,2,0:0:0:0:
365,178,65614,1,0,0:0:0:0:
386,189,65711,2,0,P|396:237|399:290,1,93.5000028533936,8|2,0:0|0:0,0:0:0:0:
297,83,66098,6,0,B|335:51|335:51|372:41|439:63,1,140.25000428009,4|0,0:0|0:0,0:0:0:0:
468,91,66485,1,8,0:0:0:0:
201,172,66678,1,2,0:0:0:0:
201,172,66775,1,2,0:0:0:0:
201,172,66872,2,0,P|173:127|167:85,1,93.5000028533936,6|2,0:0|0:0,0:0:0:0:
386,189,67259,1,14,0:0:0:0:
389,235,67356,1,2,0:0:0:0:
376,280,67453,1,0,1:0:0:0:
349,317,67549,1,2,0:0:0:0:
310,343,67646,6,0,P|259:340|213:336,1,93.5000028533936,4|2,0:0|0:0,0:0:0:0:
106,165,68033,1,8,0:0:0:0:
276,187,68227,1,2,0:0:0:0:
275,210,68324,1,0,0:0:0:0:
273,233,68420,1,2,0:3:0:0:
112,304,68614,1,2,1:2:0:0:
110,281,68711,1,2,0:0:0:0:
109,258,68807,2,0,P|106:208|105:152,1,93.5000028533936,8|2,0:0|0:0,0:0:0:0:
377,69,69195,6,0,B|415:99|415:99|427:152|413:204,1,140.25000428009,4|0,0:0|0:0,0:0:0:0:
392,237,69582,1,8,0:0:0:0:
209,176,69775,1,2,0:0:0:0:
208,153,69872,1,2,0:0:0:0:
206,130,69969,1,2,0:3:0:0:
320,151,70162,1,2,0:0:0:0:
153,272,70356,2,0,P|123:238|102:189,1,93.5000028533936,8|2,0:0|0:0,0:0:0:0:
176,21,70743,5,4,0:0:0:0:
320,151,70936,1,2,0:0:0:0:
319,174,71033,1,2,0:0:0:0:
317,197,71130,1,8,0:0:0:0:
281,50,71324,2,0,P|326:39|425:146,1,187.000005706787,2|2,0:0|0:0,0:0:0:0:
210,222,71904,2,0,P|207:175|205:129,1,93.5000028533936,6|2,0:0|0:0,0:0:0:0:
445,266,72291,6,0,B|428:315|387:334|387:334|335:326,1,140.25000428009,6|0,0:0|0:0,0:0:0:0:
289,302,72678,2,0,P|242:303|180:307,1,93.5000028533936,8|2,0:0|0:0,0:0:0:0:
339,219,73065,1,6,0:0:0:0:
114,367,73259,1,2,0:0:0:0:
114,367,73356,1,2,0:0:0:0:
114,367,73453,2,0,P|104:333|101:276,1,93.5000028533936,10|2,0:0|1:2,0:0:0:0:
241,98,73840,6,0,P|229:150|112:134,1,187.000005706787,4|2,0:0|0:0,0:0:0:0:
155,54,74420,1,0,0:0:0:0:
339,73,74614,2,0,P|340:125|331:178,1,93.5000028533936,0|2,0:0|0:0,0:0:0:0:
171,248,75001,2,0,P|223:247|276:256,1,93.5000028533936,0|2,0:0|0:0,0:0:0:0:
414,360,75388,6,0,P|385:313|472:218,1,187.000005706787,4|2,0:0|0:0,0:0:0:0:
319,34,76162,2,0,P|348:81|261:176,1,187.000005706787,4|2,0:0|0:0,0:0:0:0:
148,178,76743,5,2,0:0:0:0:
148,178,76840,1,2,0:0:0:0:
148,178,76936,2,0,B|135:123|174:28|174:28|23:83|3:244|90:371|251:359|251:359|179:302|162:242,1,815.999975097657,4|4,0:0|0:0,0:0:0:0:
281,176,78678,5,2,0:0:0:0:
222,119,78872,1,0,1:2:0:0:
258,257,79065,1,2,0:0:0:0:
360,157,79259,1,6,0:0:0:0:
391,150,79356,1,2,0:0:0:0:
424,155,79453,1,10,0:0:0:0:
452,171,79549,1,10,0:0:0:0:
474,195,79646,2,2,P|487:245|481:289,1,93.5000028533936,4|2,0:0|0:0,1:0:0:0:
423,362,80033,6,0,P|363:338|295:344,1,127.5,4|0,0:0|0:0,0:0:0:0:
253,369,80420,2,0,L|168:362,1,85,8|2,0:0|0:0,0:0:0:0:
293,203,80807,1,6,0:0:0:0:
391,249,81001,1,2,0:0:0:0:
189,253,81195,2,0,P|179:211|181:167,1,85,8|2,0:0|0:0,0:0:0:0:
357,92,81582,6,0,P|294:107|212:41,2,170,6|8|2,0:0|0:0|0:0,0:0:0:0:
128,80,82549,1,2,0:0:0:0:
304,15,82743,1,10,0:0:0:0:
407,173,82936,1,2,0:0:0:0:
304,15,83130,6,0,P|271:53|273:129,1,127.5,6|0,0:0|0:0,0:0:0:0:
303,169,83517,1,14,0:0:0:0:
441,87,83711,1,2,0:0:0:0:
441,87,83807,1,2,0:0:0:0:
441,87,83904,2,0,L|357:92,1,85,6|2,0:0|0:0,0:0:0:0:
94,160,84291,2,0,L|178:164,1,85,12|2,0:0|0:0,0:0:0:0:
331,284,84678,5,6,0:0:0:0:
289,182,84872,1,2,0:0:0:0:
289,182,84969,1,2,0:0:0:0:
289,182,85065,1,8,0:0:0:0:
440,247,85259,2,0,B|449:289|449:289|443:338|415:364,1,127.5,6|0,0:0|0:0,0:0:0:0:
368,384,85646,1,8,0:0:0:0:
234,306,85840,2,0,P|235:284|240:255,3,42.5,0|2|0|2,1:0|0:0|1:0|0:0,0:0:0:0:
289,182,86227,5,6,0:0:0:0:
258,211,86324,1,0,0:0:0:0:
219,227,86420,1,2,0:0:0:0:
177,228,86517,1,2,0:0:0:0:
137,213,86614,2,0,P|115:211|90:214,3,42.5,8|0|2|0,0:0|0:0|0:0|0:0,0:0:0:0:
200,135,87001,6,0,P|203:118|206:91,1,42.5,4|0,1:0|0:0,0:0:0:0:
122,308,87195,2,0,P|123:329|128:349,1,42.5,2|0,0:0|0:0,0:0:0:0:
137,213,87388,2,0,P|84:216|42:241,1,85,14|2,0:0|0:0,0:0:0:0:
234,306,87775,5,6,0:0:0:0:
263,275,87872,1,0,0:0:0:0:
279,236,87969,1,2,0:0:0:0:
280,194,88065,1,2,0:0:0:0:
265,154,88162,2,0,P|263:132|266:106,1,42.5,8|2,0:0|0:0,0:0:0:0:
321,20,88356,6,2,P|380:19|367:119,1,187.000005706787,6|0,0:0|1:2,1:0:0:0:
92,208,88936,2,2,P|141:201|189:220,1,93.5000028533936,2|2,0:0|1:0,1:0:0:0:
451,324,89324,5,6,1:0:0:0:
466,189,89517,1,2,0:0:0:0:
449,193,89614,1,0,0:0:0:0:
432,197,89711,1,2,1:0:0:0:
475,71,89904,1,2,1:0:0:0:
325,250,90098,6,0,P|323:203|320:152,1,85,6|2,1:0|0:0,0:0:0:0:
321,166,90388,1,0,0:0:0:0:
321,166,90485,1,2,1:0:0:0:
229,209,90678,1,6,1:0:0:0:
367,73,90872,5,6,0:0:0:0:
157,34,91065,1,6,0:0:0:0:
234,118,91259,1,6,0:0:0:0:
261,111,91356,1,6,0:0:0:0:
304,225,91549,6,2,B|273:203|256:215|256:215|224:202|163:218,1,127.5,6|0,0:0|1:0,1:0:0:0:
213,357,92033,2,2,P|223:309|222:279,1,68,2|2,0:0|0:3,1:0:0:0:
127,130,92420,5,6,0:0:0:0:
75,271,92614,1,2,0:0:0:0:
91,269,92711,1,2,0:0:0:0:
107,267,92807,1,8,0:0:0:0:
250,159,93001,1,2,0:0:0:0:
127,130,93195,1,2,0:3:0:0:
222,290,93388,2,0,P|259:286|311:285,1,85,2|8,0:0|0:0,0:0:0:0:
437,199,93775,6,0,B|463:237|463:237|471:271|462:322,1,127.5,2|0,0:0|0:0,0:0:0:0:
443,364,94162,1,2,0:0:0:0:
329,183,94356,2,0,P|348:137|378:102,1,85,8|2,0:0|0:0,0:0:0:0:
340,295,94743,1,2,0:3:0:0:
222,275,94936,2,0,B|197:242|197:242|200:207|200:207|172:175|167:117,1,170,2|2,0:0|0:0,0:0:0:0:
296,58,95517,6,0,B|286:102|286:102|259:133,1,85,2|2,0:3|0:0,0:0:0:0:
121,235,95904,1,8,0:0:0:0:
294,217,96098,1,2,0:0:0:0:
167,120,96291,1,2,0:3:0:0:
305,226,96485,2,0,B|211:205|234:276|144:254,1,170,2|2,0:0|0:0,0:0:0:0:
277,298,97065,6,0,P|290:342|294:384,1,85,2|2,1:2|0:0,0:0:0:0:
173,183,97453,2,0,P|177:140|189:100,1,85,10|2,0:0|0:0,0:0:0:0:
133,328,97840,2,0,P|85:332|46:329,2,85,2|2|10,0:3|0:0|0:0,0:0:0:0:
251,216,98420,1,2,0:0:0:0:
80,147,98614,6,0,P|77:189|87:230,1,85,6|2,0:0|0:0,0:0:0:0:
306,147,99001,1,8,0:0:0:0:
173,183,99195,1,2,0:0:0:0:
334,227,99388,1,2,0:3:0:0:
278,67,99582,1,2,0:0:0:0:
261,66,99678,1,2,0:0:0:0:
243,65,99775,1,8,0:0:0:0:
251,216,99969,1,2,0:0:0:0:
391,161,100162,6,0,P|389:119|387:73,1,85,0|2,1:0|0:0,0:0:0:0:
251,216,100549,2,0,P|249:258|247:300,1,85,8|2,0:0|0:0,0:0:0:0:
106,180,100936,2,0,B|96:138|96:138|100:97|133:62,1,127.5,0|2,1:0|0:0,0:0:0:0:
179,42,101324,2,0,L|291:47,1,85,8|2,0:0|0:0,0:0:0:0:
334,227,101711,5,6,0:0:0:0:
188,135,101904,1,2,0:0:0:0:
306,108,102098,1,8,0:0:0:0:
215,252,102291,1,2,0:0:0:0:
175,124,102485,5,2,0:3:0:0:
348,233,102678,1,2,0:0:0:0:
315,92,102872,1,8,0:0:0:0:
207,262,103065,1,2,0:0:0:0:
396,147,103259,5,6,0:0:0:0:
427,174,103356,1,0,0:0:0:0:
445,213,103453,1,2,0:0:0:0:
444,255,103549,1,2,0:0:0:0:
426,293,103646,1,10,0:0:0:0:
227,222,103840,1,2,0:0:0:0:
227,222,103936,1,2,0:0:0:0:
227,222,104033,1,0,1:0:0:0:
348,233,104227,1,2,0:0:0:0:
137,306,104420,1,14,0:0:0:0:
154,323,104807,6,0,P|150:278|151:192,1,127.5,6|2,0:0|0:0,0:0:0:0:
160,155,105195,1,8,0:0:0:0:
348,233,105388,1,2,1:2:0:0:
234,257,105582,5,2,0:0:0:0:
315,145,105775,1,0,1:2:0:0:
443,192,105969,2,0,P|453:234|444:275,1,85,10|2,0:0|0:0,0:0:0:0:
240,178,106356,5,4,0:0:0:0:
348,233,106549,1,2,0:0:0:0:
347,250,106646,1,2,0:0:0:0:
344,266,106743,1,8,0:0:0:0:
227,298,106936,1,2,1:2:0:0:
129,229,107130,2,0,P|121:188|119:145,1,85,2|0,0:0|1:2,0:0:0:0:
227,298,107517,2,0,P|192:330|140:347,1,85,8|2,0:0|0:0,0:0:0:0:
240,178,107904,5,6,0:0:0:0:
282,178,108001,1,0,0:0:0:0:
324,181,108098,1,2,0:0:0:0:
367,185,108195,1,0,0:0:0:0:
409,192,108291,1,8,0:0:0:0:
325,305,108485,1,0,1:2:0:0:
320,288,108582,1,2,0:0:0:0:
317,271,108678,1,2,0:3:0:0:
494,196,108872,1,0,1:2:0:0:
491,213,108969,1,2,0:0:0:0:
486,230,109065,1,8,0:0:0:0:
367,105,109259,1,2,0:0:0:0:
388,199,109453,5,6,0:0:0:0:
459,127,109646,1,2,0:0:0:0:
459,127,109743,1,2,0:0:0:0:
459,127,109840,1,8,0:0:0:0:
290,168,110033,1,6,0:0:0:0:
412,289,110227,5,6,0:0:0:0:
412,289,110324,1,2,0:0:0:0:
412,289,110420,1,0,1:2:0:0:
367,105,110614,1,6,0:0:0:0:
203,198,110807,5,2,1:2:0:0:
203,198,110904,1,0,0:0:0:0:
203,198,111001,2,0,B|116:192|116:192|80:166,1,127.5,6|0,0:0|0:0,0:0:0:0:
51,141,111388,1,8,0:0:0:0:
159,99,111582,1,2,0:0:0:0:
123,280,111775,5,6,0:0:0:0:
256,120,111969,1,2,0:0:0:0:
277,267,112162,1,10,0:0:0:0:
203,198,112356,1,2,0:0:0:0:
344,73,112549,5,6,0:0:0:0:
377,203,112743,1,2,0:0:0:0:
377,203,112840,1,2,0:0:0:0:
377,203,112936,1,8,2:3:0:0:
418,329,113130,1,4,2:3:0:0:
422,340,113517,1,8,0:3:0:0:
291,332,113711,2,0,P|293:291|298:247,1,85,8|2,0:0|0:0,0:0:0:0:
434,61,114098,5,4,2:0:0:0:
272,86,114291,1,2,2:0:0:0:
298,248,114485,1,8,2:0:0:0:
460,223,114678,1,2,2:0:0:0:
347,41,114872,5,4,2:0:0:0:
480,138,115065,1,2,2:0:0:0:
384,270,115259,1,8,2:0:0:0:
251,174,115453,1,2,2:0:0:0:
460,223,115646,5,6,2:0:0:0:
474,267,115743,1,0,0:0:0:0:
464,312,115840,1,2,0:0:0:0:
433,347,115936,1,0,0:0:0:0:
388,362,116033,1,2,0:0:0:0:
342,351,116130,1,2,0:0:0:0:
306,320,116227,2,0,P|245:316|209:323,1,85,6|0,0:0|0:0,0:0:0:0:
56,376,116614,1,2,0:0:0:0:
26,339,116711,1,2,0:0:0:0:
16,293,116807,2,0,P|9:254|14:201,1,85,6|2,0:0|0:0,0:0:0:0:
30,165,117098,1,2,0:0:0:0:
61,129,117195,5,6,0:0:0:0:
45,86,117291,1,0,0:0:0:0:
60,42,117388,1,2,0:0:0:0:
99,18,117485,1,0,0:0:0:0:
144,24,117582,1,14,0:0:0:0:
184,46,117678,1,2,0:0:0:0:
230,52,117775,2,0,P|289:48|320:28,1,85,6|0,0:0|0:0,0:0:0:0:
384,270,118162,1,6,0:0:0:0:
414,233,118259,1,0,0:0:0:0:
424,187,118356,2,0,P|431:148|426:95,1,85,2|6,0:0|0:0,0:0:0:0:
114,84,118743,5,6,0:0:0:0:
134,100,119517,1,2,1:0:0:0:
157,121,119614,2,0,L|84:127,1,38.2499988327027,2|0,1:0|0:0,0:0:0:0:
8,193,119807,2,0,L|81:199,1,38.2499988327027,2|0,1:0|0:0,0:0:0:0:
150,225,120001,1,2,1:0:0:0:
127,245,120098,2,0,L|122:294,1,38.2499988327027,2|2,1:0|1:0,0:0:0:0:
246,186,120291,6,0,P|252:245|257:284,1,93.5000028533936,4|2,0:0|0:0,0:0:0:0:
416,216,120678,1,8,0:0:0:0:
353,118,120872,1,2,0:0:0:0:
355,302,121065,2,0,B|400:320|400:320|471:308|505:279,1,140.25000428009,2|0,0:3|0:0,0:0:0:0:
511,245,121453,2,0,P|506:198|500:152,1,93.5000028533936,8|2,0:0|0:0,0:0:0:0:
246,186,121840,6,0,P|295:189|347:190,1,93.5000028533936,4|2,0:0|0:0,0:0:0:0:
301,84,122227,1,8,0:0:0:0:
153,136,122420,1,2,0:0:0:0:
153,136,122517,1,2,0:0:0:0:
153,136,122614,2,0,P|142:185|151:232,1,93.5000028533936,2|2,0:3|0:0,0:0:0:0:
200,43,123001,2,0,P|153:33|99:47,1,93.5000028533936,8|2,0:0|0:0,0:0:0:0:
84,297,123388,6,0,B|125:321|125:321|171:326|221:291,1,140.25000428009,4|0,0:0|0:0,0:0:0:0:
248,256,123775,1,8,0:0:0:0:
135,145,123969,1,2,0:0:0:0:
136,168,124065,1,0,0:0:0:0:
140,190,124162,1,2,0:3:0:0:
248,256,124356,1,2,0:0:0:0:
346,175,124549,2,0,P|343:124|332:84,1,93.5000028533936,8|2,0:0|0:0,0:0:0:0:
70,137,124936,6,0,B|119:143|119:143|156:130|156:130|207:134,1,140.25000428009,6|0,0:0|0:0,0:0:0:0:
263,140,125324,1,8,0:0:0:0:
137,310,125517,1,2,0:0:0:0:
137,310,125614,1,0,0:0:0:0:
137,310,125711,2,0,P|119:267|115:221,1,93.5000028533936,6|2,0:0|0:0,0:0:0:0:
369,121,126098,2,0,P|365:167|347:210,1,93.5000028533936,14|2,0:0|0:0,0:0:0:0:
127,114,126485,6,0,P|146:64|261:51,1,140.25000428009,6|0,0:0|0:0,0:0:0:0:
277,48,126872,1,8,0:0:0:0:
171,205,127065,1,2,0:0:0:0:
171,205,127162,1,0,0:0:0:0:
171,205,127259,2,0,P|124:203|78:200,1,93.5000028533936,2|2,0:3|0:0,0:0:0:0:
298,169,127646,2,0,P|303:218|293:261,1,93.5000028533936,8|2,0:0|0:0,0:0:0:0:
158,69,128033,6,0,B|114:54|114:54|57:67|34:118,1,140.25000428009,6|0,0:0|0:0,0:0:0:0:
19,160,128420,1,8,0:0:0:0:
169,225,128614,1,2,0:0:0:0:
173,203,128711,1,0,0:0:0:0:
174,180,128807,1,6,0:0:0:0:
61,264,129001,1,2,0:0:0:0:
293,260,129195,2,0,P|303:215|298:169,1,93.5000028533936,8|2,0:0|0:0,0:0:0:0:
104,139,129582,5,6,0:0:0:0:
285,95,129775,1,2,0:0:0:0:
287,72,129872,1,0,0:0:0:0:
288,49,129969,1,8,0:0:0:0:
232,217,130162,1,2,0:0:0:0:
251,230,130259,1,0,0:0:0:0:
271,242,130356,1,2,0:3:0:0:
145,119,130549,1,2,0:0:0:0:
125,128,130646,1,0,0:0:0:0:
104,139,130743,2,0,P|94:187|91:240,1,93.5000028533936,8|2,0:0|0:0,0:0:0:0:
343,354,131130,6,0,B|383:341|383:341|412:307|424:243,1,140.25000428009,6|0,0:0|0:0,0:0:0:0:
423,196,131517,1,8,0:0:0:0:
218,144,131711,1,2,0:0:0:0:
218,144,131807,1,2,0:0:0:0:
218,144,131904,2,0,P|221:193|224:245,1,93.5000028533936,6|2,0:0|0:0,0:0:0:0:
422,104,132291,1,14,0:0:0:0:
402,62,132388,1,2,0:0:0:0:
364,35,132485,1,0,1:0:0:0:
318,30,132582,1,2,0:0:0:0:
276,49,132678,6,0,B|233:47|233:47|187:67|134:44,1,140.25000428009,6|0,0:0|0:0,0:0:0:0:
91,16,133065,2,0,P|94:64|88:115,1,93.5000028533936,8|2,0:0|0:0,0:0:0:0:
223,237,133453,2,0,P|220:189|226:138,1,93.5000028533936,2|2,0:3|0:0,0:0:0:0:
412,180,133840,2,0,L|318:185,1,93.5000028533936,8|2,0:0|0:0,0:0:0:0:
112,291,134227,6,0,B|166:295|166:295|186:312|186:312|245:317,1,140.25000428009,6|0,0:0|0:0,0:0:0:0:
295,346,134614,2,0,B|304:302|304:302|300:254,1,93.5000028533936,8|2,0:0|0:0,0:0:0:0:
300,254,134904,1,2,0:0:0:0:
300,254,135001,1,2,0:3:0:0:
145,190,135195,1,2,0:0:0:0:
217,38,135388,2,0,B|208:82|208:82|212:130,1,93.5000028533936,8|2,0:0|0:0,0:0:0:0:
449,151,135775,6,0,P|424:92|350:75,1,140.25000428009,6|0,0:0|0:0,0:0:0:0:
301,90,136162,1,8,0:0:0:0:
337,287,136356,1,2,0:0:0:0:
337,287,136453,1,0,0:0:0:0:
337,287,136549,2,0,P|385:282|427:256,1,93.5000028533936,2|2,0:3|0:0,0:0:0:0:
194,245,136936,2,0,P|196:299|199:339,1,93.5000028533936,12|2,0:0|0:0,0:0:0:0:
108,113,137324,6,0,B|60:129|60:129|37:178|33:243,1,140.25000428009,6|0,0:0|0:0,0:0:0:0:
34,270,137711,1,8,0:0:0:0:
234,241,137904,1,2,0:0:0:0:
234,241,138001,1,2,0:0:0:0:
234,241,138098,1,6,0:0:0:0:
129,206,138291,1,2,0:0:0:0:
306,300,138485,2,0,B|320:259|320:259|323:208,1,93.5000028533936,6|0,0:0|1:0,0:0:0:0:
271,98,138872,6,0,P|283:150|400:134,1,187.000005706787,4|2,0:0|0:0,0:0:0:0:
357,54,139453,1,0,0:0:0:0:
173,73,139646,2,0,P|172:125|181:178,1,93.5000028533936,0|2,0:0|0:0,0:0:0:0:
341,248,140033,2,0,P|289:247|236:256,1,93.5000028533936,0|2,0:0|0:0,0:0:0:0:
98,360,140420,6,0,P|127:313|40:218,1,187.000005706787,4|2,0:0|0:0,0:0:0:0:
193,34,141195,2,0,P|164:81|251:176,1,187.000005706787,4|2,0:0|0:0,0:0:0:0:
364,178,141775,5,2,0:0:0:0:
364,178,141872,1,2,0:0:0:0:
364,178,141969,2,0,B|377:123|338:28|338:28|489:83|509:244|422:371|261:359|261:359|333:302|350:242,1,815.999975097657,4|4,0:0|0:0,0:0:0:0:
231,176,143711,5,2,0:0:0:0:
290,119,143904,1,0,1:2:0:0:
254,257,144098,1,2,0:0:0:0:
152,157,144291,1,6,0:0:0:0:
121,150,144388,1,2,0:0:0:0:
88,155,144485,1,10,0:0:0:0:
60,171,144582,1,10,0:0:0:0:
38,195,144678,2,2,P|25:245|31:289,1,93.5000028533936,4|2,0:0|0:0,1:0:0:0:
258,332,145065,6,2,B|264:272|264:272|241:239|241:239|246:173,1,165.749992412568,6|0,0:0|0:0,1:0:0:0:
178,297,145453,2,0,L|119:305,1,55.2499974708558,2|0,1:0|0:0,0:0:0:0:
328,215,145646,2,0,L|387:223,1,55.2499974708558,2|0,1:0|0:0,0:0:0:0:
165,127,145840,2,0,P|204:87|267:88,1,110.499994941712,2|2,0:3|0:0,0:0:0:0:
361,133,146130,1,0,0:0:0:0:
361,133,146227,2,0,L|353:19,1,110.499994941712,8|2,0:0|0:0,0:0:0:0:
328,215,146614,6,0,L|387:223,1,55.2499974708558,2|0,1:0|0:0,0:0:0:0:
184,169,146807,2,0,L|129:161,1,55.2499974708558,2|0,1:0|0:0,0:0:0:0:
233,264,147001,2,0,L|225:318,1,55.2499974708558,10|0,1:2|0:0,0:0:0:0:
279,120,147195,2,0,L|287:61,1,55.2499974708558,2|0,1:0|0:0,0:0:0:0:
60,107,147388,6,0,P|42:158|54:211,1,110.499994941712,6|2,0:0|0:0,0:0:0:0:
452,277,147775,2,0,P|469:225|457:172,1,110.499994941712,10|2,0:0|0:0,0:0:0:0:
149,334,148162,5,4,1:0:0:0:
149,334,148259,1,2,0:0:0:0:
149,334,148356,2,0,L|225:325,1,55.2499974708558,2|0,0:0|0:0,0:0:0:0:
328,215,148549,2,0,L|334:160,1,55.2499974708558,10|0,0:0|0:0,0:0:0:0:
177,160,148743,2,0,L|184:215,1,55.2499974708558,10|0,0:0|0:0,0:0:0:0:
363,334,148936,1,4,1:0:0:0:
426,127,149130,1,10,0:0:0:0:
404,95,149227,1,0,0:0:0:0:
373,72,149324,1,6,0:0:0:0:
335,63,149420,1,2,0:0:0:0:
297,67,149517,1,6,0:0:0:0:
261,82,149614,1,2,0:0:0:0:
223,72,149711,6,0,P|227:115|234:143,1,63.7500024318696,6|0,0:0|0:0,0:0:0:0:
371,207,149904,2,2,B|316:198|316:198|292:230|247:252|185:233,1,191.250007295609,6|0,0:0|0:0,1:0:0:0:
88,322,150291,2,2,B|136:282|136:282|154:213|126:151,1,191.250007295609,6|2,0:0|0:0,1:0:0:0:
70,90,150678,5,4,1:0:0:0:
256,352,150872,1,0,1:0:0:0:
442,90,151065,2,0,P|447:58|449:26,1,63.7500024318696,6|0,0:0|0:0,0:0:0:0:
332,101,151259,6,0,P|351:155|398:189,1,110.499994941712,6|0,0:0|0:0,0:0:0:0:
495,188,151549,1,2,0:0:0:0:
495,188,151646,2,0,P|484:217|478:247,1,55.2499974708558,0|0,1:0|0:0,0:0:0:0:
404,339,151840,2,0,P|397:312|388:286,1,55.2499974708558,2|0,0:0|0:0,0:0:0:0:
235,336,152033,6,0,L|301:341,1,55.2499974708558,6|0,0:0|0:0,0:0:0:0:
244,236,152227,1,0,0:0:0:0:
244,236,152324,1,2,0:0:0:0:
244,236,152420,2,0,L|331:230,1,55.2499974708558,0|0,1:0|0:0,0:0:0:0:
150,279,152614,2,0,P|143:253|140:224,1,55.2499974708558,2|0,0:0|0:0,0:0:0:0:
238,44,152807,6,0,P|245:86|201:147,1,110.499994941712,6|2,0:0|0:0,0:0:0:0:
156,153,153098,1,0,0:0:0:0:
112,118,153195,2,0,P|105:76|149:15,1,110.499994941712,0|6,1:0|0:0,0:0:0:0:
371,175,153582,6,0,B|311:183|311:183|304:120|339:64|428:60|428:60|482:103|486:165|435:228,1,446.250017023087,6|2,0:0|0:0,0:0:0:0:
491,347,154356,6,0,B|446:312|387:315|387:315|366:290|366:290|306:294,1,191.250007295609,6|0,0:0|0:0,0:0:0:0:
236,359,154743,2,0,P|162:340|111:344,1,127.500004863739,8|2,0:0|0:0,0:0:0:0:
106,219,155130,1,6,0:0:0:0:
150,242,155227,1,2,0:0:0:0:
201,243,155324,1,2,0:0:0:0:
246,220,155420,1,2,1:2:0:0:
278,180,155517,1,10,0:0:0:0:
166,127,155711,5,4,1:0:0:0:
166,127,155807,1,2,0:0:0:0:
166,127,155904,1,6,0:0:0:0:
236,359,156098,1,6,0:0:0:0:
402,184,156291,1,2,0:0:0:0:
398,152,156388,1,6,0:0:0:0:
94,169,156582,6,2,B|127:214|186:221|228:183|228:183|211:240|234:279|234:279|283:251|344:253|387:275|412:338,1,446.250017023087,6|2,0:0|0:0,1:0:0:0:
166,127,157453,6,0,B|130:201|151:317|183:332|202:342|202:342|220:351|234:353|256:352|266:342|276:338|276:338|293:330|317:326|339:347,1,374.000011413575,6|4,0:0|0:0,0:0:0:0:
333,342,158324,1,4,0:0:0:0:
235,277,158517,2,0,P|221:230|230:174,1,85,4|4,0:0|0:0,0:0:0:0:
340,221,158807,1,4,0:0:0:0:
340,221,158904,2,0,L|283:225,1,42.5,4|6,0:0|0:0,0:0:0:0:
110,299,171388,6,0,B|144:288|177:290|177:290|192:313|228:315,1,127.500004863739,6|0,0:0|0:0,0:0:0:0:
307,291,171969,1,2,0:0:0:0:
365,348,172162,2,0,P|387:289|364:231,1,127.500004863739,2|0,0:0|0:0,0:0:0:0:
109,182,172936,6,0,B|143:171|176:173|176:173|191:196|227:198,1,127.500004863739,2|0,0:0|0:0,0:0:0:0:
306,174,173517,1,2,0:0:0:0:
365,231,173711,2,0,P|387:172|364:114,1,127.500004863739,2|2,0:0|0:0,0:0:0:0:
108,65,174485,5,6,0:0:0:0:
108,65,175065,2,0,B|142:54|175:56|175:56|190:79|226:81,1,127.500004863739,2|0,0:0|0:0,0:0:0:0:
305,57,175646,1,2,0:0:0:0:
140,138,176033,6,0,B|114:158|114:158|96:202|117:258,1,127.500004863739,6|2,0:0|0:0,0:0:0:0:
170,311,176614,1,2,0:0:0:0:
243,273,176807,2,0,P|281:266|337:278,1,95.6250036478044,6|0,0:0|0:0,0:0:0:0:
371,299,177195,2,0,P|366:255|371:229,1,63.7500024318696,6|2,0:0|1:2,0:0:0:0:
377,135,177582,6,0,L|314:138,1,63.7500024318696,6|2,0:0|0:0,0:0:0:0:
199,70,177969,2,0,L|202:134,1,63.7500024318696,0|2,1:0|0:0,0:0:0:0:
134,248,178356,2,0,L|198:246,1,63.7500024318696,0|2,0:0|0:0,0:0:0:0:
312,313,178743,2,0,L|310:250,1,63.7500024318696,8|2,0:0|0:0,0:0:0:0:
314,138,179130,6,0,L|377:135,1,63.7500024318696,6|2,0:0|0:0,0:0:0:0:
202,134,179517,2,0,L|199:70,1,63.7500024318696,0|2,1:0|0:0,0:0:0:0:
198,246,179904,2,0,L|134:248,1,63.7500024318696,0|2,0:0|0:0,0:0:0:0:
310,250,180291,2,0,L|312:313,1,63.7500024318696,8|2,0:0|0:0,0:0:0:0:
202,134,180678,5,6,0:0:0:0:
314,138,180872,1,2,0:0:0:0:
198,246,181065,1,2,0:0:0:0:
310,250,181259,1,2,0:0:0:0:
191,122,181453,5,6,0:0:0:0:
325,127,181646,1,2,0:0:0:0:
186,256,181840,1,2,0:0:0:0:
320,261,182033,1,2,0:0:0:0:
178,108,182227,5,6,0:0:0:0:
339,114,182420,1,2,0:0:0:0:
172,269,182614,1,6,0:0:0:0:
333,275,182807,1,2,0:0:0:0:
162,91,183001,5,6,0:0:0:0:
356,98,183195,1,2,0:0:0:0:
155,285,183388,1,6,0:0:0:0:
349,292,183582,1,2,0:0:0:0:
204,195,183775,6,2,B|173:178|135:177|103:197|103:197|106:146|136:98|200:81|245:107,1,305.999990661621,6|2,0:0|0:0,1:0:0:0:
197,357,184549,1,2,1:0:0:0:
166,334,184646,2,0,P|158:309|154:279,1,50.9999984436036,2|0,1:0|0:0,0:0:0:0:
294,249,184840,2,0,P|276:268|252:286,1,50.9999984436036,2|0,1:0|0:0,0:0:0:0:
121,196,185033,1,2,1:0:0:0:
156,180,185130,2,0,P|181:185|209:197,1,50.9999984436036,2|2,1:0|1:0,0:0:0:0:
360,311,185324,6,0,P|383:258|370:202,1,110.499994941712,6|2,0:0|0:0,0:0:0:0:
155,285,185711,1,8,0:0:0:0:
295,153,185904,1,2,0:0:0:0:
141,22,186098,2,0,B|129:79|154:131|154:131|179:121|217:123,1,165.749992412568,2|0,0:3|0:0,0:0:0:0:
295,153,186485,2,0,P|338:122|399:123,1,110.499994941712,8|2,0:0|0:0,0:0:0:0:
187,223,186872,5,4,0:0:0:0:
373,207,187065,1,2,0:0:0:0:
262,58,187259,1,8,0:0:0:0:
132,164,187453,1,2,0:0:0:0:
132,164,187549,1,2,0:0:0:0:
132,164,187646,2,0,P|109:216|123:272,1,110.499994941712,2|2,0:3|0:0,0:0:0:0:
373,207,188033,2,0,P|323:208|258:213,1,110.499994941712,8|2,0:0|0:0,0:0:0:0:
138,378,188420,5,4,0:0:0:0:
327,309,188614,1,2,0:0:0:0:
327,309,188711,1,0,0:0:0:0:
327,309,188807,1,8,0:0:0:0:
187,223,189001,1,2,0:0:0:0:
387,250,189195,2,0,P|410:302|396:358,1,110.499994941712,2|2,0:3|0:0,0:0:0:0:
309,87,189582,2,0,P|342:41|398:25,1,110.499994941712,8|2,0:0|0:0,0:0:0:0:
187,223,189969,6,0,B|146:219|146:219|114:229|114:229|85:226|54:180|56:142,1,165.749992412568,4|0,0:0|0:0,0:0:0:0:
66,87,190356,1,8,0:0:0:0:
268,167,190549,1,2,0:0:0:0:
268,167,190646,1,2,0:0:0:0:
268,167,190743,1,6,0:0:0:0:
97,284,190936,1,2,0:0:0:0:
183,84,191130,1,14,0:0:0:0:
382,181,191324,5,2,0:0:0:0:
382,181,191420,1,2,0:0:0:0:
382,181,191517,2,0,P|392:238|379:295,1,110.499994941712,4|2,0:0|0:0,0:0:0:0:
182,191,191904,2,0,P|172:134|185:77,1,110.499994941712,8|2,0:0|0:0,0:0:0:0:
242,324,192291,2,0,B|191:348|191:348|136:348|89:311,1,165.749992412568,2|0,0:3|0:0,0:0:0:0:
38,245,192678,2,0,P|27:192|40:138,1,110.499994941712,8|2,0:0|0:0,0:0:0:0:
345,80,193065,6,0,P|375:126|382:181,1,110.499994941712,4|2,0:0|0:0,0:0:0:0:
162,278,193453,1,8,0:0:0:0:
245,166,193646,1,2,0:0:0:0:
266,164,193743,1,0,0:0:0:0:
287,161,193840,1,6,0:0:0:0:
191,40,194033,1,2,0:0:0:0:
382,181,194227,2,0,P|429:160|466:113,1,110.499994941712,8|2,0:0|0:0,0:0:0:0:
134,153,194614,5,4,0:0:0:0:
355,59,194807,1,2,0:0:0:0:
368,34,194904,1,0,0:0:0:0:
370,6,195001,1,8,0:0:0:0:
328,295,195195,1,2,0:0:0:0:
343,318,195291,1,0,0:0:0:0:
366,334,195388,1,2,0:3:0:0:
134,153,195582,1,2,0:0:0:0:
106,154,195678,1,2,0:0:0:0:
81,166,195775,2,0,P|71:226|77:278,1,110.499994941712,8|2,0:0|0:0,0:0:0:0:
415,253,196162,6,0,B|384:207|384:207|331:191|265:199,1,165.749992412568,6|0,0:0|0:0,0:0:0:0:
187,229,196549,1,8,0:0:0:0:
331,109,196743,1,2,0:0:0:0:
331,109,196840,1,0,0:0:0:0:
331,109,196936,2,0,P|337:52|321:-1,1,110.499994941712,12|2,0:0|0:0,0:0:0:0:
47,111,197324,1,14,0:0:0:0:
51,165,197420,1,2,0:0:0:0:
82,210,197517,1,0,1:0:0:0:
132,233,197614,1,2,0:0:0:0:
187,229,197711,6,0,B|281:212|245:270|345:254,1,165.749992412568,6|0,0:0|0:0,0:0:0:0:
424,209,198098,2,0,P|453:166|466:106,1,110.499994941712,8|2,0:0|0:0,0:0:0:0:
106,45,198485,2,0,P|109:99|131:149,1,110.499994941712,2|2,0:3|0:0,0:0:0:0:
349,68,198872,2,0,P|292:68|225:76,1,110.499994941712,8|2,0:0|0:0,0:0:0:0:
24,205,199259,6,0,B|3:264|17:326|17:326|77:344,1,165.749992412568,4|0,0:0|0:0,0:0:0:0:
149,360,199646,2,0,P|198:335|253:334,1,110.499994941712,8|2,0:0|0:0,0:0:0:0:
253,334,199936,1,2,0:0:0:0:
253,334,200033,1,6,0:0:0:0:
125,266,200227,1,2,0:0:0:0:
351,278,200420,2,0,P|365:335|354:388,1,110.499994941712,8|2,0:0|0:0,0:0:0:0:
249,146,200807,6,0,P|303:134|360:124,1,110.499994941712,6|2,1:2|0:0,0:0:0:0:
253,334,201195,1,12,0:0:0:0:
51,218,201388,1,2,0:0:0:0:
51,218,201485,1,2,0:0:0:0:
51,218,201582,2,0,P|36:162|37:109,1,110.499994941712,6|0,0:0|0:0,0:0:0:0:
287,44,201969,1,14,0:0:0:0:
482,212,202162,1,0,1:0:0:0:
253,334,202356,5,6,1:2:0:0:
405,98,202549,1,2,0:0:0:0:
405,98,202646,1,0,0:0:0:0:
405,98,202743,1,12,0:0:0:0:
202,172,202936,1,2,0:0:0:0:
482,212,203130,5,6,1:2:0:0:
287,44,203324,1,2,0:0:0:0:
36,109,203517,1,6,0:0:0:0:
295,22,203711,1,0,1:0:0:0:
8,228,203904,6,0,P|16:289|36:335,1,110.499994941712,6|2,0:0|0:0,0:0:0:0:
150,382,204291,1,8,0:0:0:0:
198,229,204485,1,2,0:0:0:0:
327,327,204678,2,0,B|368:322|368:322|399:340|399:340|436:338|470:302,1,152.999995330811,4|0,1:0|0:0,0:0:0:0:
494,289,205065,2,0,P|505:237|499:189,1,101.999996887207,8|2,0:0|0:0,0:0:0:0:
198,229,205453,6,0,P|265:252|307:246,1,101.999996887207,4|2,0:0|0:0,0:0:0:0:
175,138,205840,1,8,0:0:0:0:
130,297,206033,1,2,0:0:0:0:
265,157,206227,6,0,P|260:97|148:50,1,152.999995330811,6|0,0:0|0:0,0:0:0:0:
156,54,206614,1,8,0:0:0:0:
351,28,206807,1,2,0:0:0:0:
175,138,207001,5,4,1:0:0:0:
256,16,207195,1,2,0:0:0:0:
336,184,207388,5,0,1:0:0:0:
255,62,207582,1,2,0:0:0:0:
80,152,207775,5,4,1:0:0:0:
92,185,207872,1,0,0:0:0:0:
115,212,207969,1,0,1:0:0:0:
146,228,208065,1,0,0:0:0:0:
182,233,208162,1,0,1:0:0:0:
336,184,208356,1,2,0:0:0:0:
175,138,208549,5,4,1:0:0:0:
124,310,208743,1,2,0:0:0:0:
336,184,208936,5,4,1:0:0:0:
115,212,209130,1,2,0:0:0:0:
362,276,209324,5,4,1:0:0:0:
394,260,209420,1,2,0:0:0:0:
418,234,209517,1,2,0:0:0:0:
431,201,209614,1,0,0:0:0:0:
431,166,209711,1,4,1:0:0:0:
418,133,209807,1,2,0:0:0:0:
394,107,209904,1,2,0:0:0:0:
362,91,210001,1,0,0:0:0:0:
327,86,210098,5,6,1:2:0:0:
336,184,213195,6,0,B|348:141|335:115|335:115|348:64,1,118.999996368408,2|2,0:0|0:0,0:0:0:0:
176,184,214195,2,0,B|164:141|177:115|177:115|164:64,1,118.999996368408,2|2,0:0|0:0,0:0:0:0:
256,152,214945,1,2,0:0:0:0:
214,269,215195,6,0,B|185:254|185:254|137:270|128:315,1,118.999996368408,2|2,0:0|0:0,0:0:0:0:
298,269,216195,2,0,B|327:254|327:254|375:270|384:315,1,118.999996368408,2|2,0:0|0:0,0:0:0:0:
256,340,216945,1,2,0:0:0:0:
155,259,217195,6,0,P|148:212|150:181,1,59.4999981842042,2|0,0:0|0:0,0:0:0:0:
357,125,217695,2,0,P|364:172|362:203,1,59.4999981842042,0|2,0:0|0:0,0:0:0:0:
225,90,218195,2,0,P|228:50|296:7,1,118.999996368408,2|2,0:0|0:0,0:0:0:0:
256,192,218945,1,2,0:0:0:0:
94,120,219195,6,0,L|25:115,1,59.4999981842042,2|0,0:0|0:0,0:0:0:0:
256,192,219695,2,0,L|315:196,1,59.4999981842042,0|2,0:0|0:0,0:0:0:0:
136,238,220195,6,0,L|131:307,1,59.4999981842042,2|0,0:0|0:0,0:0:0:0:
208,76,220695,2,0,L|212:16,1,59.4999981842042,0|2,0:0|0:0,0:0:0:0:
387,149,221195,6,0,P|399:181|398:221,1,59.4999981842042,2|0,0:0|0:0,0:0:0:0:
264,326,221695,2,0,P|252:294|253:254,1,59.4999981842042,0|2,0:0|0:0,0:0:0:0:
282,159,222195,6,0,L|206:165,1,59.4999981842042,2|0,0:0|0:0,0:0:0:0:
151,293,222841,6,0,L|69:289,1,59.4999981842042,2|2,0:0|0:0,0:0:0:0:
103,160,223602,6,0,P|100:144|94:120,3,28.3333333333333,2|0|2|2,0:0|0:0|0:0|0:0,0:0:0:0:
256,192,224030,12,0,231030,0:0:0:0:
