osu file format v14

[General]
AudioFilename: audio.mp3
AudioLeadIn: 0
PreviewTime: 55217
Countdown: 0
SampleSet: Soft
StackLeniency: 0.7
Mode: 2
LetterboxInBreaks: 0
WidescreenStoryboard: 1

[Editor]
DistanceSpacing: 1
BeatDivisor: 4
GridSize: 32
TimelineZoom: 1.5

[Metadata]
Title:Utakata, Ai no Mahoroba
TitleUnicode:泡沫、哀のまほろば
Artist:senya
ArtistUnicode:senya
Creator:Ascendance
Version:Platter
Source:東方永夜抄 ~ Imperishable Night.
Tags:-laura- laura ayyri eiri- akitoshi naotoshi nao tomori kibbleru razor sharp arthas spectator foxygrandpa SDVX SOUND VOLTEX BOOTH BeatStream jubeat plus REFLEC BEAT KONAMI BEMANI HiZuMi Iceon ZUN かませ Touhou 幽閉サテライト 東方永夜抄 エクステンドアッシュ ~ 蓬莱人 月まで届け 不死の煙 ephemeral, great and splendid land of grief YHST-0015 yuuhei satellite 藤原 妹紅 reach for the moon immortal smoke fujiwara no mokou eiyashou th08 th 8 IN team shanghai alice comiket 82 c82
BeatmapID:1572472
BeatmapSetID:744222

[Difficulty]
HPDrainRate:5
CircleSize:3.5
OverallDifficulty:8
ApproachRate:8
SliderMultiplier:1.5
SliderTickRate:2

[Events]
//Background and Video events
0,0,"cropped-1920-1080-561513.jpg",0,0
//Break Periods
2,80288,82435
//Storyboard Layer 0 (Background)
//Storyboard Layer 1 (Fail)
//Storyboard Layer 2 (Pass)
//Storyboard Layer 3 (Foreground)
//Storyboard Sound Samples

[TimingPoints]
1121,387.096774193548,4,2,1,55,1,0
1121,-133.333333333333,4,2,1,55,0,0
6153,-100,4,2,1,60,0,0
7314,-100,4,2,1,65,0,0
14282,-100,4,2,1,55,0,0
15056,-100,4,2,1,70,0,0
23766,-100,4,2,1,70,0,0
24346,-100,4,2,1,70,0,0
26862,-100,4,2,1,70,0,0
27443,-100,4,2,1,35,0,0
33540,-100,4,2,10,5,0,0
33637,-100,4,2,1,45,0,0
36733,-100,4,2,1,35,0,0
37508,-100,4,2,1,45,0,0
38282,-100,4,2,1,55,0,0
39056,-100,4,2,1,30,0,0
39830,-100,4,2,1,65,0,0
43217,-100,4,2,10,5,0,0
43314,-100,4,2,1,65,0,0
43991,-100,4,2,10,5,0,0
44088,-100,4,2,1,65,0,0
54540,-100,4,2,1,65,0,0
55314,-100,4,2,1,70,0,1
80088,-100,4,2,1,55,0,0
81637,-100,4,2,10,5,0,0
83185,500,4,2,1,40,1,0
91185,-100,4,2,1,30,0,0
92185,588.235294117647,4,2,1,40,1,0
92479,681.818181818182,4,2,1,40,1,0
93160,857.142857142857,4,2,1,40,1,0
93802,-100,4,2,2,40,0,0
94017,-100,4,2,10,5,0,0
94246,-100,4,2,10,5,0,0

[Colours]
Combo1 : 164,164,255
Combo2 : 255,17,17
Combo3 : 255,128,0
Combo4 : 202,202,0

[HitObjects]
52,48,1121,6,0,L|239:78,2,168.750006437302,2|2|2,0:0|0:0|0:0,0:0:0:0:
243,169,2669,2,0,L|433:147,2,168.750006437302,2|2|2,0:0|0:0|0:0,0:0:0:0:
481,333,4217,6,0,L|292:313,2,168.750006437302,2|2|2,0:0|0:0|0:0,0:0:0:0:
224,350,5766,2,0,L|206:216,1,112.500004291535,2|8,0:0|0:1,0:0:0:0:
342,222,6540,2,0,L|514:217,1,150,2|0,0:0|0:0,0:0:0:0:
24,225,7314,6,0,L|37:65,1,150,4|8,3:0|0:0,0:0:0:0:
196,155,8088,2,0,L|345:129,1,150,0|8,0:0|0:0,0:0:0:0:
142,35,8862,2,0,L|454:75,1,300,4|0,3:0|0:0,0:0:0:0:
261,140,10024,2,0,L|165:156,1,75,8|2,0:0|0:3,0:0:0:0:
450,341,10411,6,0,P|496:289|409:182,1,225,4|0,3:0|0:0,0:0:0:0:
249,248,11185,2,0,P|189:212|259:93,1,225,4|0,3:0|0:0,0:0:0:0:
404,143,11959,6,0,L|417:60,1,75,4|0,3:0|3:0,0:0:0:0:
280,237,12346,2,0,L|266:157,1,75,4|0,3:0|3:0,0:0:0:0:
427,335,12733,1,4,3:0:0:0:
461,321,12829,1,0,3:0:0:0:
482,291,12926,1,0,3:0:0:0:
482,254,13023,1,0,3:0:0:0:
462,223,13120,1,4,3:0:0:0:
367,195,13314,1,0,3:0:0:0:
78,184,13508,5,2,0:0:0:0:
244,188,14282,2,0,L|310:188,2,37.5,2|0|0,0:0|0:0|3:0,0:0:0:0:
105,257,14669,2,0,L|3:256,1,75,8|8,3:0|3:0,0:0:0:0:
348,53,15056,6,0,P|396:93|346:152,1,150,4|8,3:0|3:0,0:0:0:0:
253,180,15637,1,2,3:0:0:0:
126,232,15830,2,0,L|225:233,1,75,0|2,3:0|3:0,0:0:0:0:
355,318,16217,2,0,L|366:236,1,75,8|2,3:0|3:0,0:0:0:0:
160,45,16604,6,0,P|93:67|117:210,1,225,0|2,3:0|3:0,0:0:0:0:
227,288,17379,2,0,L|245:199,1,75,4|2,3:2|3:0,0:0:0:0:
114,184,17766,2,0,L|87:108,1,75,8|2,3:0|3:0,0:0:0:0:
289,120,18153,6,0,L|468:104,2,150,0|8|0,3:0|3:0|3:0,0:0:0:0:
125,182,19314,2,0,L|114:99,1,75,8|2,3:0|3:0,0:0:0:0:
274,122,19701,2,0,L|370:110,2,75,4|2|8,3:0|3:0|3:0,0:0:0:0:
126,198,20282,2,0,L|309:219,1,150,6|2,3:0|3:0,0:0:0:0:
407,293,20862,2,0,L|422:215,1,75,8|2,3:0|3:0,0:0:0:0:
161,345,21250,6,0,P|120:285|181:232,1,150,4|8,3:0|3:0,0:0:0:0:
295,230,21830,1,2,3:0:0:0:
171,163,22024,2,0,L|261:163,1,75,0|2,3:2|3:0,0:0:0:0:
364,166,22411,2,0,L|442:166,1,75,8|2,3:0|3:0,0:0:0:0:
208,85,22798,6,0,L|52:70,1,150,0|8,3:2|3:0,0:0:0:0:
171,190,23379,2,0,L|326:168,1,150,4|0,3:2|3:0,0:0:0:0:
438,227,23959,2,0,L|448:149,1,75,8|0,3:0|3:0,0:0:0:0:
155,143,24346,6,0,L|65:134,2,75,4|2|10,3:0|0:0|0:0,0:0:0:0:
312,221,24927,2,0,L|414:213,2,75,2|4|2,0:0|1:0|0:0,0:0:0:0:
183,318,25508,2,0,L|167:243,1,75,10|2,0:0|0:0,0:0:0:0:
333,225,25895,6,0,L|352:145,1,75,6|6,0:0|0:0,0:0:0:0:
188,137,26282,2,0,L|139:128,1,37.5,4|2,0:0|0:0,0:0:0:0:
456,53,26572,5,4,3:0:0:0:
314,116,26862,2,0,L|205:103,2,75,0|0|0,3:0|3:0|3:0,0:0:0:0:
483,214,27443,6,0,L|303:232,1,150,2|2,0:0|0:0,0:0:0:0:
219,188,28024,2,0,L|135:177,2,75,2|2|2,0:0|0:0|0:0,0:0:0:0:
72,309,28798,6,0,P|41:243|104:183,1,150,2|2,0:0|0:0,0:0:0:0:
212,223,29379,2,0,L|228:147,1,75,2|2,0:0|0:0,0:0:0:0:
92,123,29766,2,0,L|77:44,1,75,2|2,0:0|0:0,0:0:0:0:
286,51,30346,1,0,0:0:0:0:
177,101,30540,6,0,L|188:188,1,75,2|2,0:0|0:0,0:0:0:0:
321,164,30927,2,0,L|334:250,1,75,2|2,0:0|0:0,0:0:0:0:
221,277,31314,2,0,L|128:296,1,75,2|2,0:0|0:0,0:0:0:0:
331,333,31895,1,0,0:0:0:0:
224,267,32088,6,0,L|238:182,1,75,2|2,0:0|0:0,0:0:0:0:
346,222,32475,2,0,L|435:214,1,75,2|2,0:0|0:0,0:0:0:0:
286,135,32862,2,0,L|194:125,2,75,2|2|2,0:0|0:0|0:0,0:0:0:0:
48,253,33637,6,0,L|35:167,1,75,2|2,0:0|0:0,0:0:0:0:
148,191,34024,2,0,L|229:177,1,75,2|2,0:0|0:0,0:0:0:0:
348,280,34411,2,0,L|241:265,1,75,2|2,0:0|0:0,0:0:0:0:
451,259,34991,6,0,P|486:193|413:152,1,150,2|2,0:0|0:0,0:0:0:0:
330,147,35572,1,2,0:0:0:0:
221,147,35766,1,2,0:0:0:0:
362,93,36153,2,0,L|442:93,2,75,2|2|2,0:0|0:0|0:0,0:0:0:0:
187,90,36733,5,0,0:0:0:0:
79,153,36927,2,0,L|-8:153,2,75,2|2|2,0:0|0:0|0:0,0:0:0:0:
192,233,37508,2,0,L|213:147,1,75,2|2,0:0|0:0,0:0:0:0:
88,328,37895,2,0,L|61:247,1,75,2|2,0:0|0:0,0:0:0:0:
243,320,38282,6,0,L|416:308,1,150,6|2,0:0|0:0,0:0:0:0:
250,261,38862,2,0,L|221:192,1,75,2|0,0:0|3:0,0:0:0:0:
364,166,39443,2,0,L|413:157,2,37.5,0|0|0,3:0|3:0|3:0,0:0:0:0:
72,308,39830,6,0,P|31:240|121:139,1,225,4|0,3:0|0:2,0:0:0:0:
241,203,40604,2,0,L|261:119,1,75,2|2,3:2|0:2,0:0:0:0:
118,128,40991,2,0,L|97:42,1,75,8|0,3:0|3:0,0:0:0:0:
313,94,41379,6,0,L|484:77,2,150,4|10|2,3:0|3:0|3:0,0:0:0:0:
186,112,42346,1,0,3:0:0:0:
309,221,42540,2,0,L|322:121,1,75,8|0,3:0|3:0,0:0:0:0:
121,332,42927,6,0,L|96:251,1,75,4|0,3:0|0:0,0:0:0:0:
238,231,43314,2,0,L|261:149,1,75,8|0,3:0|0:0,0:0:0:0:
136,102,43701,2,0,L|306:88,1,150,0|8,3:0|3:0,0:0:0:0:
388,77,44282,1,0,0:0:0:0:
199,194,44475,6,0,L|110:184,2,75,4|2|8,3:1|0:3|3:0,0:0:0:0:
321,266,45056,2,0,L|153:287,1,150,2|0,3:0|3:0,0:0:0:0:
61,348,45637,2,0,L|44:265,1,75,12|0,3:2|3:0,0:0:0:0:
307,167,46024,6,0,L|476:189,1,150,4|8,3:0|3:0,0:0:0:0:
231,321,46798,2,0,L|221:240,1,75,0|2,3:0|3:0,0:0:0:0:
357,210,47185,2,0,L|378:125,1,75,8|2,3:0|0:3,0:0:0:0:
104,178,47572,6,0,P|74:114|144:56,1,150,4|10,3:0|3:0,0:0:0:0:
241,41,48153,2,0,L|414:39,1,150,0|0,3:0|3:0,0:0:0:0:
255,142,48733,2,0,L|232:61,1,75,8|0,3:0|3:0,0:0:0:0:
399,196,49120,6,0,L|493:181,2,75,4|0|8,3:0|3:0|3:0,0:0:0:0:
251,249,49701,2,0,L|162:236,2,75,0|4|8,3:0|3:0|3:0,0:0:0:0:
398,345,50282,2,0,L|416:247,1,75,8|8,3:0|3:0,0:0:0:0:
143,287,50669,5,4,0:1:0:0:
103,265,50765,1,0,0:0:0:0:
84,230,50862,1,0,0:0:0:0:
91,193,50959,1,0,0:0:0:0:
121,158,51056,1,0,0:0:0:0:
284,144,51250,1,4,3:0:0:0:
108,86,51637,2,0,L|10:86,2,75,2|8|2,0:3|0:3|0:3,0:0:0:0:
394,36,52217,5,4,3:0:0:0:
440,37,52313,1,2,0:0:0:0:
468,61,52410,1,2,0:0:0:0:
480,96,52507,1,2,0:0:0:0:
462,138,52604,1,10,0:0:0:0:
327,153,52798,1,4,3:1:0:0:
281,154,52894,1,0,0:0:0:0:
253,178,52991,1,0,0:0:0:0:
246,270,53185,1,4,3:0:0:0:
384,323,53379,2,0,L|492:314,1,75,0|2,0:0|0:0,0:0:0:0:
156,186,53766,5,4,0:1:0:0:
300,237,54540,2,0,L|249:237,1,37.5,0|0,3:0|3:0,0:0:0:0:
137,237,54830,1,0,3:0:0:0:
262,237,55024,2,0,L|331:237,1,37.5,8|8,3:0|3:0,0:0:0:0:
44,182,55314,6,0,P|14:104|81:59,1,150,4|8,3:0|3:0,0:0:0:0:
158,53,55895,1,2,3:0:0:0:
271,145,56088,2,0,L|287:45,1,75,0|2,3:0|3:0,0:0:0:0:
156,245,56475,2,0,L|139:165,1,75,8|2,3:0|3:0,0:0:0:0:
323,335,56862,6,0,P|366:295|326:203,1,150,0|8,3:0|3:0,0:0:0:0:
223,197,57443,1,2,3:0:0:0:
316,45,57637,1,4,3:2:0:0:
404,72,57830,1,2,3:0:0:0:
409,150,58024,1,8,3:0:0:0:
327,189,58217,1,2,3:0:0:0:
66,315,58411,6,0,P|35:228|96:191,1,150,0|8,3:0|3:0,0:0:0:0:
193,185,58991,2,0,L|29:153,1,150,2|2,3:0|3:0,0:0:0:0:
337,83,59572,2,0,L|425:69,1,75,8|2,3:0|3:0,0:0:0:0:
144,19,59959,6,0,P|100:36|108:143,1,150,0|8,3:0|3:0,0:0:0:0:
198,169,60540,1,2,3:0:0:0:
314,173,60733,2,0,L|482:174,1,150,4|8,3:2|3:0,0:0:0:0:
183,345,61508,6,0,P|146:288|219:227,1,150,4|8,3:0|3:0,0:0:0:0:
301,220,62088,1,2,3:0:0:0:
181,163,62282,2,0,L|102:164,1,75,0|2,3:0|3:0,0:0:0:0:
262,117,62669,2,0,L|279:42,1,75,8|2,3:0|3:0,0:0:0:0:
93,45,63056,6,0,P|37:97|65:180,1,150,0|8,3:0|3:0,0:0:0:0:
159,203,63637,1,2,3:0:0:0:
282,275,63830,2,0,L|288:191,1,75,4|2,3:2|3:0,0:0:0:0:
406,187,64217,2,0,L|415:102,1,75,8|2,3:0|3:0,0:0:0:0:
145,28,64604,6,0,P|67:54|60:133,1,150,0|8,3:0|3:0,0:0:0:0:
203,176,65185,2,0,L|361:177,1,150,2|2,3:0|3:0,0:0:0:0:
96,293,65766,2,0,L|87:210,1,75,8|2,3:0|3:0,0:0:0:0:
371,342,66153,6,0,P|428:275|340:187,1,225,0|2,3:0|3:0,0:0:0:0:
188,262,66927,2,0,L|178:173,1,75,4|2,3:2|3:0,0:0:0:0:
57,126,67314,2,0,L|142:102,1,75,8|2,3:0|3:0,0:0:0:0:
468,182,67701,6,0,P|498:104|431:59,1,150,4|8,3:0|3:0,0:0:0:0:
354,53,68282,1,2,3:0:0:0:
241,145,68475,2,0,L|225:45,1,75,0|2,3:0|3:0,0:0:0:0:
356,245,68862,2,0,L|373:165,1,75,8|2,3:0|3:0,0:0:0:0:
189,335,69249,6,0,P|146:295|186:203,1,150,0|8,3:0|3:0,0:0:0:0:
289,197,69830,1,2,3:0:0:0:
196,45,70024,1,4,3:2:0:0:
88,103,70217,2,0,L|1:84,2,75,2|8|2,3:0|3:0|3:0,0:0:0:0:
366,304,70798,6,0,P|407:250|339:193,1,150,4|8,3:0|3:0,0:0:0:0:
252,194,71379,1,2,3:0:0:0:
360,188,71572,2,0,L|441:189,1,75,4|2,3:1|3:0,0:0:0:0:
180,103,71959,2,0,L|87:103,1,75,8|2,3:0|3:0,0:0:0:0:
378,23,72346,6,0,P|434:48|433:135,1,150,4|8,3:0|3:0,0:0:0:0:
329,162,72927,1,2,3:0:0:0:
452,267,73120,2,0,L|464:181,1,75,4|2,3:2|3:0,0:0:0:0:
152,204,73508,2,0,L|70:193,1,75,8|2,3:0|3:0,0:0:0:0:
373,78,73895,5,4,3:0:0:0:
128,142,74669,1,4,3:0:0:0:
373,78,75443,1,4,3:1:0:0:
128,142,76217,1,4,3:2:0:0:
296,185,76604,1,2,3:0:0:0:
47,325,76991,6,0,L|31:242,1,75,0|0,3:0|3:0,0:0:0:0:
164,227,77379,2,0,L|186:137,1,75,8|0,3:0|3:0,0:0:0:0:
313,167,77766,1,0,3:0:0:0:
349,159,77862,1,0,3:0:0:0:
386,152,77959,1,0,3:0:0:0:
236,96,78153,2,0,L|146:83,1,75,8|0,3:0|3:0,0:0:0:0:
380,33,78540,6,0,L|372:124,1,75,4|0,3:0|3:0,0:0:0:0:
230,147,78927,2,0,L|222:230,1,75,8|0,3:0|3:0,0:0:0:0:
359,296,79314,2,0,L|414:304,2,37.5,4|0|0,3:2|3:0|3:0,0:0:0:0:
191,237,79701,2,0,L|105:252,1,75,8|0,3:0|3:0,0:0:0:0:
396,64,80088,5,4,1:0:0:0:
116,343,83185,6,0,P|88:295|201:172,1,225,4|0,0:0|0:0,0:0:0:0:
290,220,84185,2,0,L|301:132,1,75,2|0,0:0|0:0,0:0:0:0:
178,86,84685,2,0,L|266:69,1,75,2|0,0:0|0:0,0:0:0:0:
401,206,85185,6,0,L|220:185,1,150,2|0,0:0|0:0,0:0:0:0:
125,166,85935,1,0,0:0:0:0:
251,276,86185,2,0,L|269:192,1,75,2|0,0:0|0:0,0:0:0:0:
125,166,86685,2,0,L|106:72,1,75,2|0,0:0|0:0,0:0:0:0:
276,105,87185,6,0,L|433:87,2,150,6|0|2,0:0|0:0|0:0,0:0:0:0:
92,202,88685,2,0,L|73:118,1,75,2|0,0:0|0:0,0:0:0:0:
244,197,89185,6,0,L|476:223,2,225,2|2|0,0:0|0:0|0:0,0:0:0:0:
66,318,91185,2,0,L|151:295,1,75,2|0,0:0|0:0,0:0:0:0:
284,332,91685,2,0,L|369:315,1,75,2|0,0:0|0:0,0:0:0:0:
169,225,92185,5,2,0:0:0:0:
124,108,92479,1,2,0:0:0:0:
299,159,92819,1,2,0:0:0:0:
338,51,93160,1,2,0:0:0:0:
152,70,93588,6,0,L|141:36,1,18.75,2|2,0:0|0:0,0:0:0:0:
152,70,93802,1,2,0:0:0:0:
256,192,94231,12,0,100874,0:0:0:0:
