osu file format v14

[General]
AudioFilename: audio.mp3
AudioLeadIn: 0
PreviewTime: 55217
Countdown: 0
SampleSet: Soft
StackLeniency: 0.7
Mode: 0
LetterboxInBreaks: 0
WidescreenStoryboard: 1

[Editor]
DistanceSpacing: 1
BeatDivisor: 4
GridSize: 32
TimelineZoom: 1.5

[Metadata]
Title:Utakata, Ai no Mahoroba
TitleUnicode:泡沫、哀のまほろば
Artist:senya
ArtistUnicode:senya
Creator:Ascendance
Version:Easy
Source:東方永夜抄 ~ Imperishable Night.
Tags:-laura- laura ayyri eiri- akitoshi naotoshi nao tomori kibbleru razor sharp arthas spectator foxygrandpa SDVX SOUND VOLTEX BOOTH BeatStream jubeat plus REFLEC BEAT KONAMI BEMANI HiZuMi Iceon ZUN かませ Touhou 幽閉サテライト 東方永夜抄 エクステンドアッシュ ~ 蓬莱人 月まで届け 不死の煙 ephemeral, great and splendid land of grief YHST-0015 yuuhei satellite 藤原 妹紅 reach for the moon immortal smoke fujiwara no mokou eiyashou th08 th 8 IN team shanghai alice comiket 82 c82
BeatmapID:1569267
BeatmapSetID:744222

[Difficulty]
HPDrainRate:3
CircleSize:2.6
OverallDifficulty:3.5
ApproachRate:3
SliderMultiplier:1.2
SliderTickRate:1

[Events]
//Background and Video events
0,0,"cropped-1920-1080-561513.jpg",0,0
//Break Periods
2,80288,81745
//Storyboard Layer 0 (Background)
//Storyboard Layer 1 (Fail)
//Storyboard Layer 2 (Pass)
//Storyboard Layer 3 (Foreground)
//Storyboard Sound Samples

[TimingPoints]
1121,387.096774193548,4,2,1,55,1,0
1121,-133.333333333333,4,2,1,55,0,0
6153,-100,4,2,1,60,0,0
7314,-100,4,2,1,65,0,0
14282,-100,4,2,1,55,0,0
15056,-100,4,2,1,70,0,0
23766,-100,4,2,1,70,0,0
24346,-100,4,2,1,70,0,0
26862,-100,4,2,1,70,0,0
27443,-133.333333333333,4,2,1,35,0,0
33540,-133.333333333333,4,2,10,5,0,0
33637,-133.333333333333,4,2,1,45,0,0
36733,-111.111111111111,4,2,1,35,0,0
37508,-111.111111111111,4,2,1,45,0,0
38282,-111.111111111111,4,2,1,55,0,0
39056,-111.111111111111,4,2,1,30,0,0
39830,-100,4,2,1,65,0,0
43217,-100,4,2,10,5,0,0
43314,-100,4,2,1,65,0,0
43991,-100,4,2,10,5,0,0
44088,-100,4,2,1,65,0,0
54540,-100,4,2,1,65,0,0
55314,-100,4,2,1,70,0,1
80088,-133.333333333333,4,2,1,55,0,0
81637,-133.333333333333,4,2,10,5,0,0
83185,500,4,2,1,40,1,0
83185,-133.333333333333,4,2,1,40,0,0
91185,-133.333333333333,4,2,1,30,0,0
92185,588.235294117647,4,2,1,40,1,0
92479,681.818181818182,4,2,1,40,1,0
93160,857.142857142857,4,2,1,40,1,0
93802,-100,4,2,2,40,0,0
94017,-100,4,2,10,5,0,0

[Colours]
Combo1 : 164,164,255
Combo2 : 255,17,17
Combo3 : 255,128,0
Combo4 : 202,202,0

[HitObjects]
33,62,1121,6,0,P|77:43|207:58,1,180.000006866455,2|0,0:0|0:0,0:0:0:0:
277,137,2282,1,2,0:0:0:0:
286,244,2669,2,0,P|288:298|247:374,2,135.000005149841,2|2|2,0:0|0:0|0:0,0:0:0:0:
375,183,4217,6,0,P|430:172|512:195,2,135.000005149841,2|2|2,0:0|0:0|0:0,0:0:0:0:
312,99,5766,2,0,P|297:48|309:6,2,90.0000034332277,2|8|2,0:0|0:1|0:0,0:0:0:0:
417,135,6927,1,0,0:0:0:0:
454,236,7314,6,0,P|446:296|292:325,1,240,4|0,3:0|0:0,0:0:0:0:
252,228,8475,1,8,0:0:0:0:
172,298,8862,2,0,P|126:319|42:323,1,120,4|8,3:0|0:0,0:0:0:0:
67,205,9637,2,0,P|46:159|42:75,1,120,0|8,0:0|0:0,0:0:0:0:
140,25,10411,6,0,P|213:19|271:57,1,120,4|8,3:0|0:0,0:0:0:0:
328,133,11185,2,0,P|334:206|296:264,1,120,4|8,3:0|0:0,0:0:0:0:
207,301,11959,2,0,P|151:300|70:329,2,120,4|4|4,3:0|3:0|3:0,0:0:0:0:
314,354,13120,1,4,3:0:0:0:
430,323,13508,5,2,0:0:0:0:
430,323,15056,6,0,P|448:265|409:197,1,120,4|8,3:0|3:0,0:0:0:0:
359,112,15830,2,0,P|349:59|355:31,2,60,0|2|8,3:0|3:0|3:0,0:0:0:0:
280,203,16604,2,0,P|218:189|147:187,1,120,0|8,3:0|3:0,0:0:0:0:
62,253,17379,2,0,P|46:303|46:330,2,60,4|2|8,3:2|3:0|3:0,0:0:0:0:
161,186,18153,6,0,P|148:118|106:68,1,120,0|8,3:0|3:0,0:0:0:0:
237,93,18927,2,0,P|305:80|355:38,1,120,0|8,3:0|3:0,0:0:0:0:
459,86,19701,2,0,P|508:139|498:252,2,180,4|6|8,3:0|3:0|3:0,0:0:0:0:
360,154,21250,6,0,P|341:213|373:277,1,120,4|8,3:0|3:0,0:0:0:0:
465,323,22024,2,0,P|490:362|494:383,2,60,0|2|8,3:2|3:0|3:0,0:0:0:0:
352,365,22798,2,0,P|274:371|171:313,1,180,0|4,3:2|3:2,0:0:0:0:
178,207,23766,2,0,P|159:168|139:144,2,60,0|8|0,3:0|3:0|3:0,0:0:0:0:
231,233,24346,6,0,P|292:274|353:259,1,120,4|10,3:0|0:0,0:0:0:0:
447,227,25120,2,0,P|488:166|473:105,1,120,4|10,1:0|0:0,0:0:0:0:
396,39,25895,2,0,L|315:24,1,60,6|6,0:0|0:0,0:0:0:0:
301,76,26282,2,0,L|193:90,1,90,4|4,0:0|3:0,0:0:0:0:
211,87,27443,6,0,P|193:145|208:183,1,90.0000034332277,2|2,0:0|0:0,0:0:0:0:
268,234,28217,1,2,0:0:0:0:
387,297,28798,2,0,P|336:342|265:357,1,135.000005149841,2|2,0:0|0:0,0:0:0:0:
192,304,29766,1,2,0:0:0:0:
18,351,30540,6,0,P|42:316|49:257,1,90.0000034332277,2|2,0:0|0:0,0:0:0:0:
35,181,31314,1,2,0:0:0:0:
159,51,32088,2,0,P|199:73|261:70,1,90.0000034332277,2|2,0:0|0:0,0:0:0:0:
281,156,32862,2,0,P|325:158|364:180,1,90.0000034332277,2|2,0:0|0:0,0:0:0:0:
427,244,33637,6,0,P|444:289|429:343,1,90.0000034332277,2|2,0:0|0:0,0:0:0:0:
361,376,34411,1,2,0:0:0:0:
267,279,34991,2,0,P|181:288|125:309,1,135.000005149841,2|2,0:0|0:0,0:0:0:0:
64,248,35959,2,0,P|43:184|43:147,1,90.0000034332277,0|2,0:0|0:0,0:0:0:0:
64,56,36733,5,0,0:0:0:0:
155,113,37120,1,2,0:0:0:0:
252,66,37508,2,0,P|305:55|379:55,1,107.999996704102,2|2,0:0|0:0,0:0:0:0:
435,128,38282,1,6,0:0:0:0:
380,221,38669,2,0,L|386:294,2,53.9999983520508,2|2|0,0:0|0:0|3:0,0:0:0:0:
284,169,39443,1,0,3:0:0:0:
208,258,39830,6,0,P|146:266|87:224,1,120,4|8,3:0|3:0,0:0:0:0:
44,131,40604,2,0,P|36:87|38:54,2,60,2|2|8,3:2|0:2|3:0,0:0:0:0:
135,52,41379,2,0,P|167:43|265:41,1,120,4|10,3:0|3:0,0:0:0:0:
244,158,42153,2,0,P|276:167|374:169,1,120,2|8,3:0|3:0,0:0:0:0:
462,104,42927,6,0,P|451:155|484:234,1,120,4|8,3:0|3:0,0:0:0:0:
396,311,43701,2,0,P|345:300|266:333,1,120,0|8,3:0|3:0,0:0:0:0:
166,354,44475,2,0,P|147:289|188:229,1,120,4|8,3:1|3:0,0:0:0:0:
267,164,45250,2,0,P|311:184|328:206,2,60,4|0|12,3:0|3:0|3:2,0:0:0:0:
147,164,46024,6,0,P|104:127|96:54,1,120,4|8,3:0|3:0,0:0:0:0:
206,27,46798,2,0,P|252:12|280:16,2,60,0|2|8,3:0|3:0|3:0,0:0:0:0:
275,125,47572,2,0,P|326:137|404:105,1,120,4|10,3:0|3:0,0:0:0:0:
489,51,48346,2,0,P|477:102|509:180,1,120,2|8,0:0|3:0,0:0:0:0:
402,239,49120,6,0,P|424:287|420:318,2,60,4|0|8,3:0|3:0|3:0,0:0:0:0:
302,170,49895,2,0,P|221:159|165:186,1,120,4|8,3:0|3:0,0:0:0:0:
128,274,50669,2,0,P|149:182|77:112,1,180,4|4,0:1|3:0,0:0:0:0:
246,16,51830,1,8,0:3:0:0:
246,16,52217,6,0,B|332:60|332:60|421:39,2,180,4|4|0,3:0|3:1|0:0,0:0:0:0:
141,75,53766,1,4,0:1:0:0:
141,75,55314,6,0,P|119:127|130:195,1,120,4|8,3:0|3:0,0:0:0:0:
143,300,56088,2,0,P|211:256|253:254,1,120,0|8,3:0|3:0,0:0:0:0:
339,330,56862,1,0,3:0:0:0:
456,306,57250,2,0,P|449:236|433:170,1,120,8|4,3:0|3:2,0:0:0:0:
347,109,58024,1,8,3:0:0:0:
412,11,58411,6,0,P|337:-9|250:40,2,180,0|2|8,3:0|3:0|3:0,0:0:0:0:
448,125,59959,2,0,P|457:186|443:251,1,120,0|8,3:0|3:0,0:0:0:0:
373,338,60733,2,0,P|312:347|247:333,1,120,4|8,3:2|3:0,0:0:0:0:
230,220,61508,6,0,P|164:237|134:299,1,120,4|8,3:0|3:0,0:0:0:0:
71,177,62282,2,0,P|46:122|49:52,1,120,0|8,3:0|3:0,0:0:0:0:
161,29,63056,1,0,3:0:0:0:
190,145,63443,2,0,P|264:122|312:117,1,120,8|4,3:0|3:2,0:0:0:0:
403,187,64217,1,8,3:0:0:0:
502,254,64604,6,0,P|522:179|473:92,2,180,0|2|8,3:0|3:0|3:0,0:0:0:0:
404,324,66153,2,0,P|351:308|268:311,1,120,0|8,3:0|3:0,0:0:0:0:
172,271,66927,2,0,P|107:294|54:293,1,120,4|8,3:2|3:0,0:0:0:0:
63,173,67701,6,0,P|38:137|47:52,1,120,4|8,3:0|3:0,0:0:0:0:
155,21,68475,2,0,P|219:47|281:42,1,120,0|8,3:0|3:0,0:0:0:0:
384,12,69250,1,0,3:0:0:0:
325,116,69637,2,0,P|327:180|360:251,1,120,8|4,3:0|3:2,0:0:0:0:
460,272,70411,1,8,3:0:0:0:
359,336,70798,6,0,P|245:346|168:394,2,180,4|2|8,3:0|3:0|3:0,0:0:0:0:
276,248,72346,2,0,P|248:193|249:118,1,120,4|8,3:0|3:0,0:0:0:0:
157,53,73120,2,0,P|212:25|287:26,1,120,4|8,3:2|3:0,0:0:0:0:
385,52,73895,6,0,B|344:170|430:170|371:300,1,240,4|4,3:0|3:0,0:0:0:0:
135,286,75443,2,0,B|82:170|168:170|127:52,1,240,4|4,3:1|3:2,0:0:0:0:
237,4,76604,1,2,3:0:0:0:
326,83,76991,6,0,P|397:69|459:79,1,120,0|8,3:0|3:0,0:0:0:0:
455,194,77766,2,0,P|384:208|322:198,1,120,0|8,3:0|3:0,0:0:0:0:
224,162,78540,2,0,P|210:233|220:295,1,120,4|8,3:0|3:0,0:0:0:0:
323,331,79315,2,0,P|391:338|403:344,2,60,4|0|0,3:2|3:0|0:0,0:0:0:0:
224,379,80088,5,4,1:0:0:0:
16,335,83185,6,0,P|83:306|196:321,1,180.000006866455,4|2,0:0|0:0,0:0:0:0:
268,245,84685,1,2,0:0:0:0:
174,190,85185,2,0,L|152:99,1,90.0000034332277,2|0,0:0|0:0,0:0:0:0:
261,105,86185,2,0,L|270:8,1,90.0000034332277,2|2,0:0|0:0,0:0:0:0:
161,21,87185,6,0,P|76:3|-2:52,1,180.000006866455,6|2,0:0|0:0,0:0:0:0:
73,128,88685,1,2,0:0:0:0:
9,215,89185,2,0,L|23:312,1,90.0000034332277,2|2,0:0|0:0,0:0:0:0:
123,341,90185,6,0,L|228:356,1,90.0000034332277,2|0,0:0|0:0,0:0:0:0:
297,288,91185,2,0,P|311:238|291:186,1,90.0000034332277,2|2,0:0|0:0,0:0:0:0:
206,124,92185,2,0,P|158:128|129:126,1,60,2|2,0:0|0:0,0:0:0:0:
90,82,92819,2,0,P|50:80|24:83,1,60,2|2,0:0|0:0,0:0:0:0:
256,192,93802,12,0,100874,0:0:0:0:
