osu file format v14

[General]
AudioFilename: audio.mp3
AudioLeadIn: 0
PreviewTime: 617
Countdown: 0
SampleSet: Soft
StackLeniency: 0.7
Mode: 0
LetterboxInBreaks: 0
WidescreenStoryboard: 1

[Editor]
Bookmarks: 617,86867,172367,235367
DistanceSpacing: 1
BeatDivisor: 4
GridSize: 32
TimelineZoom: 2.3

[Metadata]
Title:Tsuki ni Murakumo Hana ni Kaze
TitleUnicode:月に叢雲華に風
Artist:senya
ArtistUnicode:senya
Creator:nanoya
Version:Collab Normal
Source:東方地霊殿 ~ Subterranean Animism.
Tags:Rescup23 Resurrection Cup 2023 SF semifinals DT2 touhou project video game pop rock japanese mayumi morinaga iceon 東方project th11 chireiden earth spirit palace extra stage theme ラストリモート last remote 古明地 こいし Komeiji Koishi ncfix dasdwqdf niii_san visionary -ako luchibuchi kibbleru zelq delis satellite 幽閉サテライト yuuhei かませ虎 kamase-tora zun
BeatmapID:4354653
BeatmapSetID:2023974

[Difficulty]
HPDrainRate:3
CircleSize:3
OverallDifficulty:4
ApproachRate:5
SliderMultiplier:1
SliderTickRate:1

[Events]
//Background and Video events
0,0,"bg2.jpg",0,0
//Break Periods
2,13567,24167
2,87067,97667
//Storyboard Layer 0 (Background)
//Storyboard Layer 1 (Fail)
//Storyboard Layer 2 (Pass)
//Storyboard Layer 3 (Foreground)
//Storyboard Layer 4 (Overlay)
//Storyboard Sound Samples

[TimingPoints]
617,375,4,2,1,52,1,0
1367,375,4,2,1,52,1,0
1367,-100,4,2,1,52,0,0
12617,-100,4,2,2,52,0,0
13367,-100,4,2,2,78,0,0
22367,-100,4,2,3,78,0,0
22555,-100,4,2,4,78,0,0
22648,-100,4,2,3,78,0,0
22929,-100,4,2,4,78,0,0
23023,-100,4,2,3,78,0,0
23304,-100,4,2,4,78,0,0
23399,-100,4,2,3,78,0,0
23679,-100,4,2,4,78,0,0
23773,-100,4,2,3,78,0,0
24054,-100,4,2,4,78,0,0
24148,-100,4,2,3,78,0,0
24429,-100,4,2,4,78,0,0
24523,-100,4,2,3,78,0,0
24617,-100,4,2,4,78,0,0
24710,-100,4,2,5,78,0,0
24804,-100,4,2,4,78,0,0
24898,-100,4,2,5,78,0,0
24992,-100,4,2,6,78,0,0
25085,-100,4,2,5,78,0,0
25179,-100,4,2,4,78,0,0
25273,-100,4,2,5,78,0,0
25367,-100,4,2,5,65,0,0
36617,-100,4,2,4,65,0,0
36804,-100,4,2,1,65,0,0
36898,-100,4,2,4,65,0,0
37367,-100,4,2,1,74,0,0
44867,-100,4,2,3,74,0,0
45054,-100,4,2,7,74,0,0
45148,-100,4,2,8,74,0,0
45429,-100,4,2,7,74,0,0
45523,-100,4,2,3,74,0,0
45617,-100,4,2,5,74,0,0
45804,-100,4,2,9,74,0,0
45898,-100,4,2,8,74,0,0
46179,-100,4,2,7,74,0,0
46273,-100,4,2,3,74,0,0
46367,-100,4,2,5,74,0,0
46461,-100,4,2,3,74,0,0
46555,-100,4,2,4,74,0,0
46648,-100,4,2,3,74,0,0
46929,-100,4,2,4,74,0,0
47023,-100,4,2,3,74,0,0
47304,-100,4,2,4,74,0,0
47398,-100,4,2,3,74,0,0
47679,-100,4,2,4,74,0,0
47773,-100,4,2,3,74,0,0
48054,-100,4,2,4,74,0,0
48148,-100,4,2,3,74,0,0
48429,-100,4,2,4,74,0,0
48523,-100,4,2,3,74,0,0
48617,-100,4,2,4,74,0,0
48804,-100,4,2,10,74,0,0
48898,-100,4,2,5,74,0,0
48992,-100,4,2,6,74,0,0
49085,-100,4,2,5,74,0,0
49179,-100,4,2,10,74,0,0
49273,-100,4,2,6,74,0,0
49367,-100,4,2,6,83,0,0
49742,-100,4,2,1,83,0,0
49929,-100,4,2,7,83,0,0
50117,-100,4,2,1,83,0,0
50679,-100,4,2,7,83,0,0
50867,-100,4,2,1,83,0,0
51617,-100,4,2,6,83,0,0
51804,-100,4,2,1,83,0,0
51992,-100,4,2,6,83,0,0
52179,-100,4,2,1,83,0,0
52367,-100,4,2,6,83,0,0
52742,-100,4,2,1,83,0,0
52929,-100,4,2,7,83,0,0
53117,-100,4,2,1,83,0,0
53679,-100,4,2,7,83,0,0
53867,-100,4,2,1,83,0,0
54617,-100,4,2,6,83,0,0
54804,-100,4,2,1,83,0,0
54992,-100,4,2,6,83,0,0
55179,-100,4,2,1,83,0,0
55367,-100,4,2,6,83,0,0
55742,-100,4,2,1,83,0,0
55929,-100,4,2,7,83,0,0
56117,-100,4,2,1,83,0,0
56679,-100,4,2,7,83,0,0
56867,-100,4,2,1,83,0,0
57617,-100,4,2,6,83,0,0
57804,-100,4,2,1,83,0,0
57992,-100,4,2,6,83,0,0
58179,-100,4,2,1,83,0,0
58367,-100,4,2,6,83,0,0
58648,-100,4,2,7,83,0,0
58742,-100,4,2,1,83,0,0
58929,-100,4,2,7,83,0,0
59117,-100,4,2,6,83,0,0
59398,-100,4,2,7,83,0,0
59492,-100,4,2,1,83,0,0
59679,-100,4,2,7,83,0,0
59867,-100,4,2,8,83,0,0
59961,-100,4,2,9,83,0,0
60335,-100,4,2,3,83,0,0
60429,-100,4,2,9,83,0,0
60616,-100,4,2,8,83,0,0
61086,-100,4,2,9,83,0,0
61460,-100,4,2,3,83,0,0
62117,-100,4,2,9,83,0,0
62210,-100,4,2,8,83,0,0
62867,-100,4,2,1,87,0,1
71867,-100,4,2,10,87,0,1
71961,-100,4,2,3,87,0,1
72054,-100,4,2,4,87,0,1
72148,-100,4,2,3,87,0,1
72429,-100,4,2,4,87,0,1
72523,-100,4,2,3,87,0,1
72804,-100,4,2,4,87,0,1
72898,-100,4,2,3,87,0,1
73179,-100,4,2,7,87,0,1
73272,-100,4,2,3,87,0,1
73554,-100,4,2,7,87,0,1
73648,-100,4,2,8,87,0,1
73929,-100,4,2,7,87,0,1
74023,-100,4,2,3,87,0,1
74117,-100,4,2,11,87,0,1
74210,-100,4,2,5,87,0,1
74304,-100,4,2,7,87,0,1
74398,-100,4,2,5,87,0,1
74492,-100,4,2,6,87,0,1
74585,-100,4,2,5,87,0,1
74679,-100,4,2,4,87,0,1
74773,-100,4,2,5,87,0,1
74867,-100,4,2,1,87,0,1
83867,-100,4,2,10,87,0,1
83961,-100,4,2,3,87,0,1
84054,-100,4,2,4,87,0,1
84148,-100,4,2,3,87,0,1
84429,-100,4,2,4,87,0,1
84523,-100,4,2,3,87,0,1
84804,-100,4,2,4,87,0,1
84898,-100,4,2,3,87,0,1
85179,-100,4,2,4,87,0,1
85273,-100,4,2,3,87,0,1
85554,-100,4,2,4,87,0,1
85648,-100,4,2,3,87,0,1
85929,-100,4,2,4,87,0,1
86023,-100,4,2,3,87,0,1
86117,-100,4,2,4,87,0,1
86210,-100,4,2,5,87,0,1
86304,-100,4,2,4,87,0,1
86398,-100,4,2,5,87,0,1
86492,-100,4,2,6,87,0,1
86585,-100,4,2,5,87,0,1
86679,-100,4,2,4,87,0,1
86773,-100,4,2,5,87,0,1
86867,-100,4,2,4,52,0,0
98023,-100,4,2,4,5,0,0
98117,-100,4,2,4,52,0,0
98304,-100,4,2,1,52,0,0
98398,-100,4,2,4,52,0,0
98867,-100,4,2,2,78,0,0
107867,-100,4,2,3,78,0,0
108054,-100,4,2,4,78,0,0
108148,-100,4,2,3,78,0,0
108429,-100,4,2,4,78,0,0
108523,-100,4,2,3,78,0,0
108804,-100,4,2,4,78,0,0
108897,-100,4,2,3,78,0,0
109179,-100,4,2,4,78,0,0
109273,-100,4,2,3,78,0,0
109555,-100,4,2,4,78,0,0
109648,-100,4,2,3,78,0,0
109929,-100,4,2,4,78,0,0
110023,-100,4,2,3,78,0,0
110117,-100,4,2,4,78,0,0
110210,-100,4,2,5,78,0,0
110304,-100,4,2,4,78,0,0
110398,-100,4,2,5,78,0,0
110492,-100,4,2,6,78,0,0
110585,-100,4,2,5,78,0,0
110679,-100,4,2,4,78,0,0
110773,-100,4,2,5,78,0,0
110867,-100,4,2,1,74,0,0
122867,-100,4,2,1,78,0,0
131867,-100,4,2,5,78,0,0
131961,-100,4,2,3,78,0,0
132054,-100,4,2,4,78,0,0
132148,-100,4,2,3,78,0,0
132429,-100,4,2,4,78,0,0
132523,-100,4,2,3,78,0,0
132804,-100,4,2,4,78,0,0
132898,-100,4,2,3,78,0,0
133179,-100,4,2,4,78,0,0
133273,-100,4,2,3,78,0,0
133554,-100,4,2,4,78,0,0
133648,-100,4,2,3,78,0,0
133929,-100,4,2,4,78,0,0
134023,-100,4,2,3,78,0,0
134117,-100,4,2,4,78,0,0
134304,-100,4,2,10,78,0,0
134398,-100,4,2,5,78,0,0
134492,-100,4,2,6,78,0,0
134585,-100,4,2,5,78,0,0
134679,-100,4,2,10,78,0,0
134772,-100,4,2,6,78,0,0
134867,-100,4,2,6,83,0,0
135242,-100,4,2,1,83,0,0
135429,-100,4,2,7,83,0,0
135617,-100,4,2,1,83,0,0
136179,-100,4,2,7,83,0,0
136367,-100,4,2,1,83,0,0
137116,-100,4,2,6,83,0,0
137304,-100,4,2,1,83,0,0
137492,-100,4,2,6,83,0,0
137679,-100,4,2,1,83,0,0
137867,-100,4,2,6,83,0,0
138242,-100,4,2,1,83,0,0
138429,-100,4,2,7,83,0,0
138617,-100,4,2,1,83,0,0
139179,-100,4,2,7,83,0,0
139367,-100,4,2,1,83,0,0
140117,-100,4,2,6,83,0,0
140304,-100,4,2,1,83,0,0
140492,-100,4,2,6,83,0,0
140679,-100,4,2,1,83,0,0
140867,-100,4,2,6,83,0,0
141242,-100,4,2,1,83,0,0
141429,-100,4,2,7,83,0,0
141617,-100,4,2,1,83,0,0
142179,-100,4,2,7,83,0,0
142367,-100,4,2,1,83,0,0
143117,-100,4,2,6,83,0,0
143304,-100,4,2,1,83,0,0
143492,-100,4,2,6,83,0,0
143679,-100,4,2,1,83,0,0
143867,-100,4,2,6,83,0,0
144148,-100,4,2,7,83,0,0
144242,-100,4,2,1,83,0,0
144429,-100,4,2,7,83,0,0
144617,-100,4,2,6,83,0,0
144898,-100,4,2,7,83,0,0
144992,-100,4,2,1,83,0,0
145179,-100,4,2,7,83,0,0
145367,-100,4,2,8,83,0,0
145460,-100,4,2,9,83,0,0
145836,-100,4,2,3,83,0,0
145929,-100,4,2,9,83,0,0
146117,-100,4,2,8,83,0,0
146586,-100,4,2,9,83,0,0
146960,-100,4,2,3,83,0,0
147617,-100,4,2,9,83,0,0
147710,-100,4,2,8,83,0,0
148367,-100,4,2,1,87,0,1
157367,-100,4,2,10,87,0,1
157461,-100,4,2,3,87,0,1
157554,-100,4,2,4,87,0,1
157648,-100,4,2,3,87,0,1
157929,-100,4,2,4,87,0,1
158023,-100,4,2,3,87,0,1
158305,-100,4,2,4,87,0,1
158398,-100,4,2,3,87,0,1
158679,-100,4,2,7,87,0,1
158772,-100,4,2,3,87,0,1
159054,-100,4,2,7,87,0,1
159148,-100,4,2,8,87,0,1
159429,-100,4,2,7,87,0,1
159523,-100,4,2,3,87,0,1
159617,-100,4,2,11,87,0,1
159710,-100,4,2,5,87,0,1
159804,-100,4,2,7,87,0,1
159898,-100,4,2,5,87,0,1
159992,-100,4,2,6,87,0,1
160085,-100,4,2,5,87,0,1
160179,-100,4,2,4,87,0,1
160273,-100,4,2,5,87,0,1
160367,-100,4,2,1,87,0,1
169367,-100,4,2,10,87,0,1
169461,-100,4,2,3,87,0,1
169554,-100,4,2,4,87,0,1
169648,-100,4,2,3,87,0,1
169929,-100,4,2,4,87,0,1
170023,-100,4,2,3,87,0,1
170304,-100,4,2,4,87,0,1
170398,-100,4,2,3,87,0,1
170679,-100,4,2,4,87,0,1
170772,-100,4,2,3,87,0,1
171054,-100,4,2,4,87,0,1
171147,-100,4,2,3,87,0,1
171429,-100,4,2,4,87,0,1
171523,-100,4,2,3,87,0,1
171617,-100,4,2,4,87,0,1
171710,-100,4,2,5,87,0,1
171804,-100,4,2,4,87,0,1
171898,-100,4,2,5,87,0,1
171992,-100,4,2,12,87,0,1
172085,-100,4,2,5,87,0,1
172179,-100,4,2,4,87,0,1
172273,-100,4,2,5,87,0,1
172367,-100,4,2,2,87,0,0
181367,-100,4,2,3,87,0,0
181554,-100,4,2,4,87,0,0
181648,-100,4,2,3,87,0,0
181929,-100,4,2,4,87,0,0
182023,-100,4,2,3,87,0,0
182304,-100,4,2,4,87,0,0
182398,-100,4,2,3,87,0,0
182679,-100,4,2,4,87,0,0
182772,-100,4,2,3,87,0,0
183054,-100,4,2,4,87,0,0
183148,-100,4,2,3,87,0,0
183429,-100,4,2,4,87,0,0
183522,-100,4,2,3,87,0,0
183617,-100,4,2,4,87,0,0
183710,-100,4,2,5,87,0,0
183804,-100,4,2,4,87,0,0
183898,-100,4,2,5,87,0,0
183992,-100,4,2,12,87,0,0
184085,-100,4,2,5,87,0,0
184179,-100,4,2,4,87,0,0
184273,-100,4,2,5,87,0,0
184367,-100,4,2,2,87,0,0
193367,-100,4,2,3,87,0,0
193553,-100,4,2,4,87,0,0
193648,-100,4,2,3,87,0,0
193929,-100,4,2,4,87,0,0
194022,-100,4,2,3,87,0,0
194303,-100,4,2,4,87,0,0
194398,-100,4,2,3,87,0,0
194679,-100,4,2,4,87,0,0
194772,-100,4,2,3,87,0,0
195054,-100,4,2,4,87,0,0
195148,-100,4,2,3,87,0,0
195429,-100,4,2,4,87,0,0
195523,-100,4,2,3,87,0,0
195617,-100,4,2,4,87,0,0
195710,-100,4,2,5,87,0,0
195804,-100,4,2,4,87,0,0
195898,-100,4,2,5,87,0,0
195992,-100,4,2,6,87,0,0
196085,-100,4,2,5,87,0,0
196179,-100,4,2,4,87,0,0
196273,-100,4,2,5,87,0,0
196367,-100,4,2,6,83,0,0
196742,-100,4,2,1,83,0,0
196929,-100,4,2,7,83,0,0
197117,-100,4,2,1,83,0,0
197679,-100,4,2,7,83,0,0
197867,-100,4,2,1,83,0,0
198617,-100,4,2,6,83,0,0
198804,-100,4,2,1,83,0,0
198992,-100,4,2,6,83,0,0
199179,-100,4,2,1,83,0,0
199367,-100,4,2,6,83,0,0
199742,-100,4,2,1,83,0,0
199929,-100,4,2,7,83,0,0
200117,-100,4,2,1,83,0,0
200679,-100,4,2,7,83,0,0
200867,-100,4,2,1,83,0,0
201617,-100,4,2,6,83,0,0
201804,-100,4,2,1,83,0,0
201992,-100,4,2,6,83,0,0
202179,-100,4,2,1,83,0,0
202367,-100,4,2,6,83,0,0
202460,-100,4,2,1,83,0,0
202929,-100,4,2,7,83,0,0
203117,-100,4,2,1,83,0,0
203679,-100,4,2,7,83,0,0
203866,-100,4,2,1,83,0,0
204617,-100,4,2,6,83,0,0
204804,-100,4,2,1,83,0,0
204992,-100,4,2,6,83,0,0
205179,-100,4,2,1,83,0,0
205367,-100,4,2,6,83,0,0
205648,-100,4,2,7,83,0,0
205742,-100,4,2,1,83,0,0
205929,-100,4,2,7,83,0,0
206117,-100,4,2,6,83,0,0
206398,-100,4,2,7,83,0,0
206492,-100,4,2,1,83,0,0
206679,-100,4,2,7,83,0,0
206867,-100,4,2,8,83,0,0
206960,-100,4,2,9,83,0,0
207335,-100,4,2,3,83,0,0
207429,-100,4,2,9,83,0,0
207616,-100,4,2,8,83,0,0
208086,-100,4,2,9,83,0,0
208460,-100,4,2,3,83,0,0
209117,-100,4,2,9,83,0,0
209210,-100,4,2,3,83,0,0
210617,-100,4,2,1,83,0,0
211367,-100,4,2,1,87,0,1
220367,-100,4,2,10,87,0,1
220461,-100,4,2,3,87,0,1
220554,-100,4,2,4,87,0,1
220648,-100,4,2,3,87,0,1
220929,-100,4,2,4,87,0,1
221023,-100,4,2,3,87,0,1
221304,-100,4,2,4,87,0,1
221398,-100,4,2,3,87,0,1
221679,-100,4,2,7,87,0,1
221773,-100,4,2,3,87,0,1
222054,-100,4,2,7,87,0,1
222148,-100,4,2,8,87,0,1
222429,-100,4,2,7,87,0,1
222523,-100,4,2,3,87,0,1
222617,-100,4,2,11,87,0,1
222710,-100,4,2,5,87,0,1
222804,-100,4,2,7,87,0,1
222898,-100,4,2,5,87,0,1
222992,-100,4,2,6,87,0,1
223085,-100,4,2,5,87,0,1
223179,-100,4,2,4,87,0,1
223273,-100,4,2,5,87,0,1
223367,-100,4,2,1,87,0,1
232367,-100,4,2,10,87,0,1
232461,-100,4,2,3,87,0,1
232554,-100,4,2,4,87,0,1
232648,-100,4,2,3,87,0,1
232929,-100,4,2,4,87,0,1
233023,-100,4,2,3,87,0,1
233305,-100,4,2,4,87,0,1
233398,-100,4,2,3,87,0,1
233679,-100,4,2,4,87,0,1
233773,-100,4,2,3,87,0,1
234054,-100,4,2,4,87,0,1
234148,-100,4,2,3,87,0,1
234429,-100,4,2,4,87,0,1
234523,-100,4,2,3,87,0,1
234617,-100,4,2,11,87,0,1
234710,-100,4,2,5,87,0,1
234804,-100,4,2,4,87,0,1
234898,-100,4,2,5,87,0,1
234992,-100,4,2,6,87,0,1
235085,-100,4,2,5,87,0,1
235179,-100,4,2,4,87,0,1
235273,-100,4,2,5,87,0,1
235367,-100,4,2,1,87,0,1
244367,-100,4,2,10,87,0,1
244460,-100,4,2,3,87,0,1
244554,-100,4,2,4,87,0,1
244647,-100,4,2,3,87,0,1
244929,-100,4,2,4,87,0,1
245023,-100,4,2,3,87,0,1
245305,-100,4,2,4,87,0,1
245398,-100,4,2,3,87,0,1
245679,-100,4,2,7,87,0,1
245773,-100,4,2,3,87,0,1
246054,-100,4,2,7,87,0,1
246148,-100,4,2,8,87,0,1
246429,-100,4,2,7,87,0,1
246523,-100,4,2,3,87,0,1
246617,-100,4,2,11,87,0,1
246710,-100,4,2,5,87,0,1
246804,-100,4,2,7,87,0,1
246898,-100,4,2,5,87,0,1
246992,-100,4,2,6,87,0,1
247085,-100,4,2,5,87,0,1
247179,-100,4,2,4,87,0,1
247273,-100,4,2,5,87,0,1
247367,-100,4,2,1,87,0,1
256367,-100,4,2,10,87,0,1
256461,-100,4,2,3,87,0,1
256554,-100,4,2,4,87,0,1
256648,-100,4,2,3,87,0,1
256929,-100,4,2,4,87,0,1
257023,-100,4,2,3,87,0,1
257304,-100,4,2,4,87,0,1
257398,-100,4,2,3,87,0,1
257679,-100,4,2,4,87,0,1
257773,-100,4,2,3,87,0,1
258054,-100,4,2,4,87,0,1
258148,-100,4,2,3,87,0,1
258429,-100,4,2,4,87,0,1
258523,-100,4,2,3,87,0,1
258617,-100,4,2,4,87,0,1
258710,-100,4,2,5,87,0,1
258804,-100,4,2,4,87,0,1
258898,-100,4,2,5,87,0,1
258992,-100,4,2,6,87,0,1
259085,-100,4,2,5,87,0,1
259179,-100,4,2,4,87,0,1
259273,-100,4,2,5,87,0,1
259367,-100,4,2,2,52,0,0

[Colours]
Combo1 : 198,165,220
Combo2 : 160,245,199
Combo3 : 240,235,128
Combo4 : 159,219,223

[HitObjects]
36,68,617,6,1,P|66:40|147:28,1,100,2|2,2:2|2:2,0:0:0:0:
186,100,1367,2,1,P|182:162|172:227,1,100,2|0,2:2|0:0,0:0:0:0:
145,237,1929,2,1,L|256:238,1,100,0|0,0:0|0:0,0:0:0:0:
271,195,2492,1,2,2:2:0:0:
370,184,2867,2,1,L|368:337,2,150,2|2|0,2:2|2:2|0:0,0:0:0:0:
368,84,4367,6,1,P|309:40|225:47,1,150,2|0,2:2|0:0,0:0:0:0:
204,81,5117,1,2,2:2:0:0:
118,133,5492,2,0,L|122:201,1,50,0|2,0:0|2:2,0:0:0:0:
112,232,5867,2,1,P|159:238|236:214,1,100,2|0,2:2|0:0,0:0:0:0:
242,190,6429,1,2,2:2:0:0:
220,338,6992,5,0,0:0:0:0:
312,299,7367,2,1,L|430:300,1,100,2|0,2:2|0:0,0:0:0:0:
459,284,7929,2,1,P|477:226|456:172,1,100,2|2,2:2|2:2,0:0:0:0:
452,141,8492,1,2,2:2:0:0:
352,132,8867,2,1,L|187:134,2,150,2|0|2,2:2|0:0|2:2,0:0:0:0:
256,192,10367,12,6,13367,1:2:0:0:
103,78,25367,6,0,P|92:177|157:231,1,150,6|0,2:2|0:0,0:0:0:0:
120,262,26117,2,0,P|193:227|281:245,1,150,2|0,0:0|0:0,0:0:0:0:
301,262,26867,1,2,0:0:0:0:
400,295,27242,1,0,0:0:0:0:
400,295,27429,2,0,P|413:253|408:191,1,100,2|0,0:0|0:0,0:0:0:0:
404,147,27992,1,2,0:0:0:0:
366,54,28367,6,0,L|254:62,1,100,2|0,0:0|0:0,0:0:0:0:
235,100,28929,1,2,0:0:0:0:
206,247,29492,1,2,0:0:0:0:
119,196,29867,2,0,P|103:148|126:100,2,100,2|0|0,0:0|0:0|0:0,0:0:0:0:
99,294,30992,2,0,L|160:284,1,50,0|2,0:0|0:0,0:0:0:0:
197,296,31367,6,0,P|250:290|309:276,1,100,2|0,0:0|0:0,0:0:0:0:
328,242,31929,1,2,0:0:0:0:
209,156,32492,1,2,0:0:0:0:
269,76,32867,2,0,P|322:80|375:87,1,100,2|2,0:0|0:0,0:0:0:0:
463,54,33617,2,0,P|470:109|468:167,1,100,2|2,0:0|0:0,0:0:0:0:
453,252,34367,6,0,P|362:280|279:226,1,200,2|0,0:0|0:0,0:0:0:0:
253,129,35492,1,0,0:0:0:0:
181,199,35867,2,0,P|127:212|74:209,1,100,2|2,0:0|0:0,0:0:0:0:
9,141,36617,1,8,2:2:0:0:
90,82,36992,2,1,L|146:87,1,50,8|8,2:2|2:2,0:0:0:0:
187,102,37367,6,1,P|197:65|195:0,2,100,6|8|2,1:2|2:2|1:2,0:0:0:0:
96,144,38492,1,8,2:2:0:0:
79,242,38867,2,1,P|130:247|179:226,1,100,2|8,1:2|2:2,0:0:0:0:
214,259,39429,2,0,P|277:255|332:270,1,100,0|2,3:3|3:2,0:0:0:0:
345,224,39992,1,0,0:0:0:0:
437,261,40367,6,0,P|451:210|442:143,1,100,2|10,1:2|2:2,0:0:0:0:
424,65,41117,2,0,L|370:70,1,50,2|2,1:2|3:2,0:0:0:0:
337,104,41492,1,10,2:2:0:0:
249,56,41867,2,1,P|208:49|128:33,1,100,2|10,1:2|2:2,0:0:0:0:
53,60,42617,1,2,1:2:0:0:
50,259,43367,6,1,L|105:249,1,50,6|2,1:2|3:2,0:0:0:0:
132,212,43742,2,1,L|186:203,1,50,10|2,2:2|3:2,0:0:0:0:
224,229,44117,2,1,P|265:213|332:221,1,100,2|8,1:2|2:2,0:0:0:0:
367,233,44679,2,0,P|368:171|380:116,1,100,2|2,3:2|3:2,0:0:0:0:
406,94,45242,1,10,3:2:0:0:
321,41,45617,2,0,L|268:50,1,50,2|10,1:2|3:2,0:0:0:0:
221,43,45992,1,10,3:2:0:0:
256,192,46367,12,12,48617,1:2:0:0:
172,324,49367,6,1,P|226:312|282:314,1,100,6|8,1:2|3:2,0:0:0:0:
285,275,49929,2,0,P|340:279|384:266,1,100,2|8,1:2|2:2,0:0:0:0:
432,250,50492,1,10,3:2:0:0:
432,250,50679,2,1,P|424:197|432:134,1,100,2|8,1:2|2:2,0:0:0:0:
407,52,51429,2,0,P|358:34|306:53,1,100,10|0,2:2|0:0,0:0:0:0:
277,82,51992,1,6,1:2:0:0:
233,171,52367,6,1,P|183:169|131:158,1,100,6|8,1:2|3:2,0:0:0:0:
88,139,52929,2,0,P|85:182|66:246,1,100,2|8,1:2|2:2,0:0:0:0:
79,290,53492,1,10,3:2:0:0:
79,290,53679,2,1,P|135:303|195:289,1,100,2|8,1:2|2:2,0:0:0:0:
269,334,54429,2,0,P|287:285|268:233,1,100,10|2,2:2|2:2,0:0:0:0:
242,201,54992,1,14,1:2:0:0:
142,202,55367,6,1,P|87:200|38:189,1,100,6|8,1:2|3:2,0:0:0:0:
7,155,55929,2,0,P|1:115|9:49,1,100,6|8,1:2|2:2,0:0:0:0:
44,22,56492,1,10,3:2:0:0:
44,22,56679,2,1,P|94:33|153:28,1,100,6|8,1:2|2:2,0:0:0:0:
237,61,57429,2,0,P|255:110|236:162,1,100,10|2,2:2|2:2,0:0:0:0:
209,192,57992,1,14,1:2:0:0:
253,281,58367,6,1,P|301:273|354:268,1,100,6|8,1:2|3:2,0:0:0:0:
396,244,58929,1,2,1:2:0:0:
396,244,59117,1,6,1:2:0:0:
435,152,59492,1,8,3:2:0:0:
384,65,59867,6,1,P|327:63|271:56,1,100,6|8,1:2|3:2,0:0:0:0:
244,28,60429,2,1,P|201:22|126:32,1,100,0|8,1:1|3:2,0:0:0:0:
100,50,60992,2,0,L|97:137,1,50,0|0,1:1|1:1,0:0:0:0:
132,136,61367,2,0,P|126:188|132:245,2,100,4|8|6,1:2|3:2|1:2,0:0:0:0:
228,110,62492,1,10,3:2:0:0:
285,191,62867,6,1,P|339:168|392:179,1,100,6|8,1:2|2:2,0:0:0:0:
428,156,63429,1,0,3:3:0:0:
428,156,63617,2,1,P|454:205|456:254,1,100,2|10,1:2|2:2,0:0:0:0:
413,339,64367,2,1,P|347:330|305:327,1,100,2|8,1:2|2:2,0:0:0:0:
276,293,64929,1,2,3:2:0:0:
201,359,65304,1,0,3:3:0:0:
201,359,65492,1,8,2:2:0:0:
114,309,65867,6,1,P|88:266|86:200,1,100,2|8,1:2|2:2,0:0:0:0:
101,170,66429,1,0,3:3:0:0:
101,170,66617,2,1,L|219:161,1,100,2|8,1:2|2:2,0:0:0:0:
272,92,67367,2,0,L|262:28,2,50,2|0|8,1:2|0:0|2:2,0:0:0:0:
319,106,67929,2,1,L|306:207,1,100,2|0,3:2|3:3,0:0:0:0:
341,241,68492,1,10,2:2:0:0:
379,333,68867,6,1,L|260:325,1,100,2|8,1:2|2:2,0:0:0:0:
235,350,69429,2,1,P|220:299|234:242,1,100,2|2,3:2|3:2,0:0:0:0:
226,203,69992,2,0,L|138:216,1,50,10|2,2:2|3:2,0:0:0:0:
133,185,70367,2,0,L|127:130,1,50,2|2,1:2|3:2,0:0:0:0:
156,94,70742,1,10,2:2:0:0:
277,5,71304,2,0,P|332:-1|382:27,1,100,2|2,3:2|3:2,0:0:0:0:
417,35,71867,6,0,P|412:87|403:147,2,100,6|8|0,1:2|3:2|1:1,0:0:0:0:
492,100,72992,1,8,3:2:0:0:
497,149,73179,2,1,P|483:198|500:263,1,100,2|2,3:2|3:2,0:0:0:0:
476,293,73742,1,10,3:2:0:0:
400,237,74117,1,14,1:2:0:0:
400,237,74304,1,10,3:2:0:0:
305,263,74679,1,8,3:2:0:0:
305,263,74867,6,1,P|323:309|317:385,1,100,6|8,1:2|2:2,0:0:0:0:
278,370,75429,1,0,3:3:0:0:
278,370,75617,2,1,L|173:383,1,100,2|10,1:2|2:2,0:0:0:0:
163,283,76367,2,1,P|165:247|153:196,2,75,2|2|2,1:2|2:2|3:2,0:0:0:0:
210,265,77117,2,0,P|248:272|315:266,1,100,0|8,0:0|2:2,0:0:0:0:
401,229,77867,6,1,P|403:163|336:96,1,150,2|0,1:2|3:3,0:0:0:0:
366,54,78617,2,1,P|315:66|259:72,1,100,2|8,1:2|2:2,0:0:0:0:
174,34,79367,2,0,P|178:84|176:139,1,100,2|8,1:2|2:2,0:0:0:0:
143,171,79929,2,1,P|145:217|136:281,1,100,2|0,3:2|3:3,0:0:0:0:
121,317,80492,1,10,2:2:0:0:
218,340,80867,6,1,P|278:353|353:330,1,100,6|8,1:2|2:2,0:0:0:0:
336,302,81429,2,1,P|388:288|439:301,1,100,2|2,3:2|3:2,0:0:0:0:
482,292,81992,2,0,L|481:214,1,50,10|2,2:2|3:2,0:0:0:0:
445,207,82367,2,0,L|442:136,1,50,6|2,1:2|3:2,0:0:0:0:
464,111,82742,1,10,2:2:0:0:
328,175,83304,6,0,L|326:111,1,50,6|2,1:2|3:2,0:0:0:0:
299,85,83679,1,2,3:2:0:0:
299,85,83867,2,0,P|196:60|99:118,2,200,6|4|4,1:2|1:2|1:2,0:0:0:0:
359,164,85742,1,8,3:2:0:0:
302,246,86117,1,8,1:2:0:0:
206,217,86492,1,8,3:2:0:0:
196,117,86867,1,6,2:2:0:0:
192,359,98867,6,1,L|184:292,1,50,6|2,1:2|3:2,0:0:0:0:
180,259,99242,1,10,2:2:0:0:
180,259,99429,2,1,P|235:276|321:228,1,150,2|8,3:2|2:2,0:0:0:0:
358,212,100179,2,0,B|353:179|353:179|360:166|362:150|362:150|351:106,1,100,2|2,3:2|3:2,0:0:0:0:
311,24,100929,2,1,P|260:34|189:28,1,100,2|0,3:2|3:3,0:0:0:0:
163,20,101492,1,8,2:2:0:0:
77,72,101867,5,0,1:1:0:0:
12,148,102242,1,10,2:2:0:0:
54,238,102617,1,2,1:2:0:0:
152,255,102992,2,0,B|207:232|196:261|260:241,1,100,14|2,2:2|1:2,0:0:0:0:
333,298,103742,1,10,2:2:0:0:
413,239,104117,2,1,L|411:179,1,50,2|2,1:2|3:2,0:0:0:0:
368,162,104492,2,0,L|364:104,1,50,10|10,2:2|3:2,0:0:0:0:
386,67,104867,5,6,1:2:0:0:
286,79,105242,1,8,2:2:0:0:
286,79,105429,2,0,P|232:78|179:69,1,100,2|2,3:2|3:2,0:0:0:0:
116,142,106179,2,1,P|159:161|170:305,1,200,2|2,3:2|3:2,0:0:0:0:
133,323,107117,1,0,1:1:0:0:
33,314,107492,2,0,L|30:256,1,50,10|0,2:2|3:3,0:0:0:0:
27,214,107867,5,6,1:2:0:0:
27,214,108054,1,2,3:2:0:0:
125,231,108429,1,6,3:2:0:0:
214,187,108804,1,2,3:2:0:0:
309,215,109179,2,0,L|467:232,1,150,2|8,3:2|3:2,0:0:0:0:
411,319,110117,2,0,L|344:332,1,50,12|8,1:2|3:2,0:0:0:0:
312,318,110492,2,0,L|241:308,1,50,8|8,3:2|3:2,0:0:0:0:
214,326,110867,6,1,P|205:286|211:214,1,100,6|8,1:2|2:2,0:0:0:0:
307,222,111617,2,1,P|316:182|310:110,1,100,2|8,1:2|2:2,0:0:0:0:
213,120,112367,2,1,P|168:118|109:134,1,100,2|8,1:2|2:2,0:0:0:0:
70,154,112929,1,0,3:3:0:0:
70,154,113117,1,0,1:1:0:0:
30,62,113492,2,1,L|24:10,1,50,10|2,2:2|3:2,0:0:0:0:
74,12,113867,6,1,P|131:21|190:16,1,100,2|10,1:2|2:2,0:0:0:0:
216,43,114429,2,0,P|276:33|327:29,1,100,2|0,3:2|3:3,0:0:0:0:
361,48,114992,1,10,2:2:0:0:
447,98,115367,2,0,P|467:142|455:209,1,100,2|8,1:2|2:2,0:0:0:0:
449,291,116117,2,1,L|392:277,1,50,0|8,1:1|3:2,0:0:0:0:
358,306,116492,1,10,2:2:0:0:
270,258,116867,6,1,B|192:245|208:279|114:255,1,150,6|2,1:2|3:2,0:0:0:0:
75,278,117617,1,0,1:1:0:0:
40,184,117992,2,1,P|37:141|51:77,1,100,10|2,2:2|1:2,0:0:0:0:
138,42,118742,1,10,2:2:0:0:
218,101,119117,2,0,P|247:107|326:100,1,100,2|2,1:2|1:2,0:0:0:0:
403,52,119867,6,1,P|452:100|437:183,2,150,2|0|8,1:2|3:3|2:2,0:0:0:0:
303,46,121367,2,0,L|309:114,1,50,0|0,1:1|3:3,0:0:0:0:
280,138,121742,2,0,L|288:203,1,50,8|0,2:2|3:3,0:0:0:0:
314,229,122117,1,0,1:1:0:0:
254,309,122492,1,8,2:2:0:0:
323,380,122867,6,1,P|370:368|429:364,1,100,6|8,1:2|2:2,0:0:0:0:
474,279,123617,2,1,P|475:238|461:177,1,100,2|8,1:2|2:2,0:0:0:0:
372,226,124367,2,1,P|292:217|248:105,1,200,2|0,1:2|1:1,0:0:0:0:
262,70,125304,1,10,3:2:0:0:
354,32,125679,1,2,3:2:0:0:
354,32,125867,6,0,P|401:33|460:26,1,100,2|10,1:2|2:2,0:0:0:0:
481,68,126429,2,0,P|478:121|488:181,1,100,2|2,3:2|3:2,0:0:0:0:
510,210,126992,1,10,2:2:0:0:
437,278,127367,2,1,P|379:271|331:272,1,100,2|10,1:2|2:2,0:0:0:0:
258,210,128117,1,2,1:2:0:0:
163,242,128492,2,1,L|102:251,1,50,10|2,2:2|3:2,0:0:0:0:
66,232,128867,5,6,1:2:0:0:
134,136,129242,2,0,L|133:79,1,50,10|2,2:2|3:2,0:0:0:0:
126,36,129617,2,1,P|179:44|239:31,1,100,2|8,1:2|2:2,0:0:0:0:
257,73,130179,2,0,P|252:125|252:237,1,150,2|10,3:2|2:2,0:0:0:0:
312,301,131117,2,0,L|366:294,1,50,2|10,1:2|3:2,0:0:0:0:
406,316,131492,2,1,L|459:308,1,50,10|2,2:2|3:2,0:0:0:0:
486,269,131867,1,6,1:2:0:0:
256,192,132242,12,12,134117,1:2:0:0:
139,89,134867,6,1,P|207:86|260:79,1,100,6|8,1:2|3:2,0:0:0:0:
284,103,135429,1,2,1:2:0:0:
424,48,135992,1,10,3:2:0:0:
424,48,136179,2,1,P|439:94|425:194,1,150,2|0,1:2|3:3,0:0:0:0:
384,222,136929,1,10,2:2:0:0:
294,267,137304,1,2,2:2:0:0:
294,267,137492,1,6,1:2:0:0:
194,264,137867,6,1,P|201:220|205:152,1,100,6|8,1:2|3:2,0:0:0:0:
241,131,138429,2,1,P|244:96|256:22,1,100,2|8,1:2|2:2,0:0:0:0:
297,7,138992,1,10,3:2:0:0:
297,7,139179,1,2,1:2:0:0:
386,51,139554,1,8,2:2:0:0:
355,146,139929,2,0,P|285:140|237:133,1,100,10|2,2:2|2:2,0:0:0:0:
208,118,140492,2,0,P|199:163|196:187,1,50,6|2,1:2|2:2,0:0:0:0:
210,215,140867,5,6,1:2:0:0:
160,302,141242,1,0,1:2:0:0:
160,302,141429,1,6,1:2:0:0:
234,368,141804,2,0,P|267:357|335:350,1,100,0|6,0:0|1:2,0:0:0:0:
412,290,142554,1,8,2:2:0:0:
414,190,142929,2,0,P|374:186|309:189,1,100,10|2,2:2|2:2,0:0:0:0:
269,209,143492,1,10,0:2:0:0:
192,145,143867,6,1,P|186:117|186:59,2,75,6|2|2,1:2|1:2|1:2,0:0:0:0:
169,189,144617,2,0,P|184:235|186:288,1,100,6|8,1:2|3:2,0:0:0:0:
260,353,145367,1,6,1:2:0:0:
357,332,145742,1,8,3:2:0:0:
357,332,145929,1,4,1:2:0:0:
423,197,146492,2,0,L|370:199,1,50,4|0,1:2|1:1,0:0:0:0:
338,235,146867,2,0,P|287:194|61:189,1,300,4|10,1:2|3:2,0:0:0:0:
54,288,148367,6,1,B|138:267|122:308|215:289,1,150,6|0,1:2|3:3,0:0:0:0:
244,265,149117,2,1,L|238:198,1,50,2|0,1:2|3:3,0:0:0:0:
258,168,149492,1,10,2:2:0:0:
336,106,149867,2,0,P|376:103|442:95,1,100,2|0,1:2|0:0,0:0:0:0:
479,119,150429,2,0,P|492:172|488:220,1,100,2|0,3:2|3:3,0:0:0:0:
459,257,150992,1,8,2:2:0:0:
419,348,151367,6,1,P|363:332|301:338,1,100,2|8,1:2|2:2,0:0:0:0:
277,356,151929,1,0,3:3:0:0:
197,295,152304,1,0,3:3:0:0:
197,295,152492,2,0,L|192:246,1,50,8|2,2:2|3:2,0:0:0:0:
179,196,152867,2,0,P|126:205|65:207,1,100,2|8,1:2|2:2,0:0:0:0:
37,180,153429,1,2,3:2:0:0:
24,80,153804,1,0,3:3:0:0:
108,26,154179,1,0,3:3:0:0:
108,26,154367,6,1,P|157:38|218:38,1,100,2|8,1:2|2:2,0:0:0:0:
250,16,154929,2,0,P|264:63|258:128,1,100,2|2,3:2|3:2,0:0:0:0:
235,156,155492,1,10,2:2:0:0:
300,231,155867,2,0,L|306:291,1,50,2|2,1:2|3:2,0:0:0:0:
338,317,156242,2,1,P|385:323|447:301,1,100,10|0,2:2|1:1,0:0:0:0:
481,325,156804,1,2,3:2:0:0:
489,229,157179,1,2,3:2:0:0:
489,229,157367,6,0,P|498:158|480:73,1,150,6|0,1:2|3:3,0:0:0:0:
393,36,158304,1,0,3:3:0:0:
393,36,158492,1,8,3:2:0:0:
344,123,158867,2,0,P|276:138|233:131,1,100,4|10,1:2|3:2,0:0:0:0:
175,64,159617,2,0,L|113:67,1,50,14|10,1:2|3:2,0:0:0:0:
94,106,159992,2,0,L|36:110,1,50,8|8,3:2|3:2,0:0:0:0:
10,146,160367,6,1,P|8:226|26:299,1,150,6|0,1:2|3:3,0:0:0:0:
59,328,161117,2,1,L|128:312,1,50,2|0,1:2|3:3,0:0:0:0:
156,329,161492,1,10,2:2:0:0:
254,346,161867,2,0,P|260:296|252:236,1,100,2|8,1:2|2:2,0:0:0:0:
221,209,162429,2,1,P|218:159|224:99,1,100,2|0,3:2|3:3,0:0:0:0:
248,66,162992,2,0,L|297:71,1,50,8|0,2:2|3:3,0:0:0:0:
347,67,163367,5,2,1:2:0:0:
419,136,163742,1,8,2:2:0:0:
419,136,163929,1,0,3:3:0:0:
396,233,164304,1,0,0:0:0:0:
396,233,164492,2,0,L|336:230,1,50,8|2,2:2|3:2,0:0:0:0:
311,194,164867,2,0,P|254:204|208:186,1,100,2|8,1:2|2:2,0:0:0:0:
168,172,165429,2,0,P|127:164|66:173,1,100,2|8,3:2|3:2,0:0:0:0:
26,197,165992,2,0,L|16:135,1,50,10|0,2:2|3:3,0:0:0:0:
16,97,166367,5,6,1:2:0:0:
96,37,166742,1,8,2:2:0:0:
96,37,166929,2,0,P|151:40|204:37,1,100,2|2,3:2|3:2,0:0:0:0:
240,60,167492,1,10,2:2:0:0:
334,27,167867,2,0,L|391:19,1,50,6|2,1:2|3:2,0:0:0:0:
431,34,168242,2,1,P|455:86|454:147,1,100,10|0,2:2|1:1,0:0:0:0:
432,171,168804,1,2,3:2:0:0:
432,171,168992,1,10,2:2:0:0:
365,245,169367,6,0,B|206:214|237:307|65:269,1,300,6|8,1:2|3:2,0:0:0:0:
46,367,170867,2,0,L|111:355,1,50,4|2,1:2|3:2,0:0:0:0:
143,371,171242,2,1,L|199:361,1,50,10|6,3:2|3:2,0:0:0:0:
232,332,171617,1,10,1:2:0:0:
326,365,171992,2,0,L|386:353,1,50,10|14,3:2|3:2,0:0:0:0:
424,359,172367,6,1,B|424:325|435:300|435:300|418:269|418:269|425:243|425:208,1,150,6|0,1:2|3:3,0:0:0:0:
493,81,173492,1,10,2:2:0:0:
469,36,173679,2,0,B|406:13|406:13|333:41|286:8,1,150,2|8,3:2|0:2,0:0:0:0:
283,52,174429,2,1,L|171:35,1,100,2|2,3:2|3:2,0:0:0:0:
137,19,174992,2,1,L|130:71,1,50,10|2,2:2|3:2,0:0:0:0:
146,115,175367,6,1,B|106:164|106:164|129:203|105:284,1,150,2|2,1:2|3:2,0:0:0:0:
44,383,176492,1,10,2:2:0:0:
44,383,176679,2,1,P|95:381|156:373,1,100,2|0,3:2|0:0,0:0:0:0:
177,338,177242,1,10,2:2:0:0:
177,338,177429,2,0,P|232:331|290:337,1,100,2|10,3:2|3:2,0:0:0:0:
321,357,177992,1,8,2:2:0:0:
400,296,178367,6,0,B|412:247|412:247|399:191,1,100,6|10,1:2|2:2,0:0:0:0:
394,98,179117,1,2,1:2:0:0:
394,98,179304,2,1,L|331:97,1,50,2|10,3:2|2:2,0:0:0:0:
299,119,179679,1,2,3:2:0:0:
299,119,179867,1,2,1:2:0:0:
205,82,180242,1,10,1:2:0:0:
116,128,180617,2,0,P|111:176|105:243,1,100,2|10,1:2|2:2,0:0:0:0:
82,324,181367,5,14,1:2:0:0:
182,300,181742,1,10,3:2:0:0:
182,300,181929,2,0,P|236:243|328:246,1,150,2|10,1:2|3:2,0:0:0:0:
398,269,182867,2,0,L|405:191,1,50,6|2,1:2|3:2,0:0:0:0:
443,190,183242,2,1,L|448:123,1,50,10|6,3:2|3:2,0:0:0:0:
423,95,183617,1,10,1:2:0:0:
423,95,183804,1,14,3:2:0:0:
337,43,184179,1,10,3:2:0:0:
337,43,184367,6,1,L|276:47,1,50,6|2,1:2|3:2,0:0:0:0:
241,26,184742,1,10,2:2:0:0:
201,117,185117,2,1,P|142:105|82:97,1,100,2|10,1:2|2:2,0:0:0:0:
16,150,185867,2,1,B|32:192|17:224|17:224|43:245|33:308,1,150,2|2,1:2|3:2,0:0:0:0:
116,351,186804,1,2,3:2:0:0:
215,325,187179,1,2,3:2:0:0:
215,325,187367,6,0,P|287:235|267:145,1,200,2|2,1:2|1:2,0:0:0:0:
228,68,188492,1,10,2:2:0:0:
167,147,188867,2,1,L|86:152,1,50,2|2,1:2|3:2,0:0:0:0:
86,191,189242,2,0,L|15:195,1,50,10|2,2:2|3:2,0:0:0:0:
5,104,189804,1,2,3:2:0:0:
5,104,189992,1,14,2:2:0:0:
91,54,190367,6,1,B|208:68|155:11|295:26,1,200,6|0,1:2|1:1,0:0:0:0:
277,124,191492,1,8,2:2:0:0:
370,87,191867,2,1,B|412:94|412:94|456:169|429:247,1,200,6|2,1:2|1:2,0:0:0:0:
405,342,192992,2,0,L|337:333,1,50,8|2,2:2|3:2,0:0:0:0:
309,316,193367,5,6,1:2:0:0:
132,222,194117,1,6,1:2:0:0:
205,73,194867,2,0,L|260:72,1,50,6|0,1:2|3:3,0:0:0:0:
292,105,195242,2,0,L|352:103,1,50,8|6,1:2|3:2,0:0:0:0:
386,87,195617,1,8,1:2:0:0:
462,151,195992,2,0,L|462:221,1,50,8|12,3:2|3:2,0:0:0:0:
441,246,196367,6,0,P|369:248|320:234,1,100,6|8,1:2|3:2,0:0:0:0:
298,217,196929,1,2,1:2:0:0:
171,295,197492,1,10,3:2:0:0:
171,295,197679,2,0,P|127:224|156:171,1,150,2|8,1:2|3:2,0:0:0:0:
188,134,198429,2,0,P|192:81|176:15,1,100,10|0,3:2|0:0,0:0:0:0:
223,5,198992,1,6,1:2:0:0:
301,67,199367,6,0,P|325:129|327:187,1,100,6|8,1:2|3:2,0:0:0:0:
378,166,199929,2,0,P|368:216|372:280,1,100,2|8,1:2|2:2,0:0:0:0:
408,305,200492,1,10,3:2:0:0:
408,305,200679,1,2,1:2:0:0:
320,353,201054,2,0,P|270:358|221:353,1,100,0|2,3:0|1:2,0:0:0:0:
172,336,201617,2,0,L|172:260,1,50,8|0,3:2|0:0,0:0:0:0:
164,241,201992,1,14,1:2:0:0:
164,241,202179,1,2,3:2:0:0:
195,202,202367,6,0,P|191:144|207:71,1,100,6|8,1:2|3:2,0:0:0:0:
180,55,202929,2,1,P|121:45|67:54,1,100,6|8,1:2|2:2,0:0:0:0:
40,76,203492,1,10,3:2:0:0:
40,76,203679,1,6,1:2:0:0:
12,172,204054,1,8,2:2:0:0:
87,237,204429,2,0,P|84:299|98:357,1,100,10|2,2:2|2:2,0:0:0:0:
127,371,204992,1,6,1:2:0:0:
200,302,205367,6,1,P|204:244|195:166,1,100,6|0,1:2|0:0,0:0:0:0:
178,158,205929,1,2,1:2:0:0:
178,158,206117,2,0,P|232:162|301:137,1,100,6|8,1:2|3:2,0:0:0:0:
354,88,206867,6,0,P|370:117|383:185,1,100,6|8,1:2|3:2,0:0:0:0:
432,188,207429,2,1,P|433:252|415:307,1,100,4|8,1:2|3:2,0:0:0:0:
432,336,207992,2,1,P|398:368|381:378,1,50,4|0,1:2|1:1,0:0:0:0:
345,371,208367,1,4,1:2:0:0:
158,298,209117,1,4,1:2:0:0:
220,107,209867,1,0,0:0:0:0:
220,107,211367,6,1,P|250:79|331:67,1,100,6|8,1:2|2:2,0:0:0:0:
403,85,212117,2,0,P|425:148|425:187,1,100,0|10,0:0|2:2,0:0:0:0:
471,269,212867,2,0,P|420:274|356:257,1,100,2|0,1:2|0:0,0:0:0:0:
335,230,213430,1,2,3:2:0:0:
331,333,213804,1,0,1:3:0:0:
331,333,213992,1,8,2:2:0:0:
244,282,214367,6,1,P|200:285|132:275,1,100,2|8,1:2|2:2,0:0:0:0:
54,321,215117,2,1,L|56:262,1,50,2|0,1:2|3:3,0:0:0:0:
78,226,215492,1,8,2:2:0:0:
49,130,215867,2,0,L|-41:126,2,50,2|0|8,1:2|0:0|2:2,0:0:0:0:
79,90,216429,2,0,P|131:93|218:74,1,100,2|0,3:2|3:3,0:0:0:0:
214,124,216992,1,10,2:2:0:0:
307,66,217367,6,1,P|389:57|426:47,1,100,2|8,1:2|2:2,0:0:0:0:
423,99,217929,2,1,L|447:205,1,100,2|2,3:2|3:2,0:0:0:0:
413,235,218492,2,0,L|340:249,1,50,10|2,2:2|3:2,0:0:0:0:
321,216,218867,2,0,L|311:168,1,50,2|2,1:2|3:2,0:0:0:0:
285,123,219242,1,10,2:2:0:0:
165,32,219804,2,1,P|114:25|71:52,1,100,2|2,3:2|3:2,0:0:0:0:
53,94,220367,6,0,L|58:203,2,100,6|8|0,1:2|3:2|1:1,0:0:0:0:
143,148,221492,1,8,3:2:0:0:
143,148,221679,2,0,P|148:201|150:263,1,100,2|2,3:2|3:2,0:0:0:0:
149,298,222242,1,10,3:2:0:0:
244,343,222617,1,14,1:2:0:0:
244,343,222804,1,10,3:2:0:0:
317,275,223179,1,8,3:2:0:0:
317,275,223367,6,1,P|319:225|290:155,1,100,6|8,1:2|2:2,0:0:0:0:
293,133,223929,1,0,3:3:0:0:
293,133,224117,2,0,P|214:140|188:167,1,100,2|10,1:2|2:2,0:0:0:0:
102,130,224867,2,0,P|104:94|92:43,2,75,2|2|2,1:2|2:2|3:2,0:0:0:0:
58,154,225617,2,0,P|39:216|46:264,1,100,0|8,1:1|2:2,0:0:0:0:
88,338,226367,6,1,P|154:340|221:273,1,150,2|0,1:2|3:3,0:0:0:0:
238,243,227117,2,1,P|289:255|345:261,1,100,2|8,1:2|2:2,0:0:0:0:
435,270,227867,2,0,P|439:220|427:162,1,100,2|8,1:2|3:2,0:0:0:0:
473,146,228429,2,0,P|466:91|442:44,1,100,2|0,1:2|1:3,0:0:0:0:
400,34,228992,1,10,2:2:0:0:
333,108,229367,6,1,P|273:121|198:98,1,100,6|8,1:2|2:2,0:0:0:0:
204,76,229929,2,1,P|152:62|101:75,1,100,2|2,3:2|3:2,0:0:0:0:
58,62,230492,2,0,L|59:140,1,50,10|2,2:2|3:2,0:0:0:0:
28,152,230867,2,0,L|31:223,1,50,6|2,1:2|3:2,0:0:0:0:
68,234,231242,1,10,2:2:0:0:
166,347,231804,6,0,L|170:276,1,50,6|2,1:2|3:2,0:0:0:0:
203,258,232179,1,2,3:2:0:0:
203,258,232367,2,0,P|306:233|403:291,2,200,6|4|4,1:2|1:2|1:2,0:0:0:0:
115,307,234242,1,8,3:2:0:0:
41,238,234617,1,10,1:2:0:0:
62,140,234992,1,10,3:2:0:0:
161,129,235367,6,1,B|167:187|167:187|184:218|184:218|191:287,1,150,6|0,1:2|3:3,0:0:0:0:
221,312,236117,2,1,L|286:300,1,50,2|0,1:2|3:3,0:0:0:0:
318,317,236492,1,10,2:2:0:0:
408,273,236867,2,0,L|402:207,1,50,2|0,1:2|1:3,0:0:0:0:
420,176,237242,1,8,2:2:0:0:
420,176,237429,2,0,P|361:192|291:172,1,100,2|0,1:2|3:3,0:0:0:0:
278,163,237992,2,1,L|282:112,1,50,8|0,2:2|3:3,0:0:0:0:
293,64,238367,6,0,B|173:47|197:98|74:68,1,200,2|2,1:2|1:2,0:0:0:0:
0,39,239492,1,8,2:2:0:0:
22,136,239867,2,0,L|17:207,1,50,2|0,1:2|1:2,0:0:0:0:
8,234,240242,1,8,3:2:0:0:
8,234,240429,1,2,1:2:0:0:
109,216,240804,1,0,1:3:0:0:
109,216,240992,2,0,L|161:212,1,50,10|8,2:2|3:2,0:0:0:0:
194,247,241367,6,1,P|250:232|325:241,1,100,2|8,1:2|2:2,0:0:0:0:
338,249,241929,2,0,P|327:184|339:128,1,100,2|2,3:2|3:2,0:0:0:0:
358,108,242492,1,10,2:2:0:0:
451,143,242867,2,0,L|451:202,1,50,2|2,1:2|3:2,0:0:0:0:
487,226,243242,2,1,P|486:278|496:335,1,100,10|0,2:2|1:1,0:0:0:0:
478,372,243804,1,2,3:2:0:0:
392,320,244179,1,2,3:2:0:0:
392,320,244367,6,1,L|338:324,1,50,6|0,1:2|3:3,0:0:0:0:
297,301,244742,2,0,L|242:305,1,50,8|0,3:2|3:3,0:0:0:0:
158,350,245304,2,0,P|136:301|141:231,1,100,0|2,3:3|3:2,0:0:0:0:
164,214,245867,1,4,1:2:0:0:
145,115,246242,1,10,3:2:0:0:
220,49,246617,1,14,1:2:0:0:
318,66,246992,1,8,3:2:0:0:
354,159,247367,6,1,B|313:167|285:156|285:156|254:161|232:179|232:179|200:167|158:169,1,200,6|2,1:2|1:2,0:0:0:0:
74,120,248492,1,10,2:2:0:0:
47,216,248867,2,0,L|54:287,1,50,2|0,1:2|3:3,0:0:0:0:
36,313,249242,1,0,0:0:0:0:
36,313,249429,2,1,L|150:294,1,100,2|0,3:2|3:3,0:0:0:0:
183,305,249992,2,1,L|191:356,1,50,8|0,2:2|3:3,0:0:0:0:
240,361,250367,5,2,1:2:0:0:
308,287,250742,1,8,2:2:0:0:
260,199,251117,2,0,L|253:133,1,50,2|0,1:2|0:0,0:0:0:0:
250,99,251492,2,0,P|298:81|355:93,1,100,8|2,2:2|1:2,0:0:0:0:
427,144,252242,1,8,2:2:0:0:
427,144,252429,1,2,1:2:0:0:
353,212,252804,1,0,1:3:0:0:
353,212,252992,2,0,L|286:209,1,50,10|8,2:2|3:2,0:0:0:0:
259,234,253367,6,1,P|194:213|102:222,1,150,6|2,1:2|3:2,0:0:0:0:
44,145,254304,1,2,3:2:0:0:
44,145,254492,2,0,L|41:86,1,50,10|2,2:2|3:2,0:0:0:0:
64,50,254867,2,0,L|135:46,1,50,6|2,1:2|3:2,0:0:0:0:
160,64,255242,2,1,P|218:54|282:56,1,100,10|0,2:2|1:1,0:0:0:0:
337,116,255992,1,10,2:2:0:0:
293,205,256367,5,6,1:2:0:0:
469,299,257117,1,4,1:2:0:0:
279,362,257867,2,0,L|209:353,1,50,4|0,1:2|3:3,0:0:0:0:
191,323,258242,2,0,L|136:315,1,50,8|4,3:2|3:2,0:0:0:0:
93,328,258617,2,0,L|106:259,1,50,8|12,1:2|3:2,0:0:0:0:
84,232,258992,2,0,L|97:176,1,50,8|8,3:2|3:2,0:0:0:0:
134,151,259367,5,6,2:2:0:0:
