osu file format v14

[General]
AudioFilename: audio.mp3
AudioLeadIn: 0
PreviewTime: 61917
Countdown: 0
SampleSet: Normal
StackLeniency: 0.7
Mode: 3
LetterboxInBreaks: 0
SpecialStyle: 0
WidescreenStoryboard: 1

[Editor]
DistanceSpacing: 1
BeatDivisor: 4
GridSize: 4
TimelineZoom: 2.2

[Metadata]
Title:Tsuki ni Murakumo Hana ni Kaze (PV ver.)
TitleUnicode:月に叢雲華に風 (PV ver.)
Artist:senya
ArtistUnicode:senya
Creator:Yukari_Sama
Version:Extra
Source:東方地霊殿 ~ Subterranean Animism.
Tags:atian540 touhou th 11 mayumi morinaga opening op 幻想万華鏡 Gensou Mangekyou fantasy kaleidoscope memories phantasm iceon ラストリモート last remote komeiji koishi 古明地 こいし extra stage かませ虎 kamasetora 幽閉サテライト yuuhei satellite short video game japanese electronic
BeatmapID:3949100
BeatmapSetID:623502

[Difficulty]
HPDrainRate:8.5
CircleSize:4
OverallDifficulty:8
ApproachRate:5
SliderMultiplier:1.4
SliderTickRate:1

[Events]
//Background and Video events
0,0,"BG.jpg",0,0
//Break Periods
//Storyboard Layer 0 (Background)
//Storyboard Layer 1 (Fail)
//Storyboard Layer 2 (Pass)
//Storyboard Layer 3 (Foreground)
//Storyboard Layer 4 (Overlay)
//Storyboard Sound Samples

[TimingPoints]
1355,375,4,1,1,65,1,0
62855,-100,4,1,1,65,0,1
86855,-117.647058823529,4,1,1,65,0,0

[HitObjects]
64,192,605,128,0,980:0:0:0:0:
320,192,980,128,0,1355:0:0:0:0:
192,192,1355,1,0,0:0:0:70:C#4S_Db4S.wav
448,192,1355,128,0,2855:0:0:0:100:C#5S_Db5S_s.wav
64,192,1542,1,0,0:0:0:60:G#4S_Ab4S_s.wav
320,192,1730,1,0,0:0:0:60:C#5S_Db5S_s.wav
64,192,1917,1,0,0:0:0:100:F5S.wav
192,192,1917,1,0,0:0:0:0:
192,192,2292,1,0,0:0:0:100:G#5S_Ab5S_s.wav
64,192,2480,1,0,0:0:0:60:C5S_s.wav
320,192,2480,1,0,0:0:0:0:
192,192,2667,1,0,0:0:0:60:C#5S_Db5S_s.wav
64,192,2855,1,0,0:0:0:70:D#4S_Eb4S.wav
320,192,2855,128,0,4355:0:0:0:100:G#5S_Ab5S_s.wav
448,192,3042,1,0,0:0:0:60:A#4S_Bb4S_s.wav
192,192,3230,1,0,0:0:0:60:D#5S_Eb5S_s.wav
64,192,3417,1,0,0:0:0:100:A#4S_Bb4S_s.wav
192,192,3605,1,0,0:0:0:100:G5S_s.wav
448,192,3605,1,0,0:0:0:0:
64,192,3792,1,0,0:0:0:60:A#4S_Bb4S_s.wav
64,192,3980,1,0,0:0:0:100:D#5S_Eb5S_s.wav
192,192,3980,1,0,0:0:0:0:
448,192,4167,1,0,0:0:0:60:G5S_s.wav
192,192,4355,128,0,5855:0:0:0:70:E4S.wav
448,192,4355,1,0,0:0:0:70:A#5S_Bb5S.wav
64,192,4730,1,0,0:0:0:50:E5S_s.wav
320,192,4917,1,0,0:0:0:50:E6S_s.wav
448,192,4917,1,0,0:0:0:0:
64,192,5105,1,0,0:0:0:50:C#6S_Db6S_s.wav
320,192,5292,1,0,0:0:0:60:A#4S_Bb4S_s.wav
64,192,5480,1,0,0:0:0:100:E5S_s.wav
448,192,5480,1,0,0:0:0:0:
320,192,5667,1,0,0:0:0:60:A#4S_Bb4S_s.wav
64,192,5855,128,0,7355:0:0:0:70:F4S.wav
320,192,5855,1,0,0:0:0:100:G#5S_Ab5S_s.wav
192,192,6042,1,0,0:0:0:60:C5S_s.wav
448,192,6230,1,0,0:0:0:60:F5S_s.wav
192,192,6417,1,0,0:0:0:100:F6S.wav
320,192,6417,1,0,0:0:0:0:
448,192,6792,1,0,0:0:0:100:C6S_s.wav
192,192,6980,1,0,0:0:0:100:G#5S_Ab5S_s.wav
320,192,6980,1,0,0:0:0:0:
448,192,7167,1,0,0:0:0:100:F5S_s.wav
192,192,7355,128,0,8855:0:0:0:70:C#4S_Db4S.wav
320,192,7355,1,0,0:0:0:100:C#5S_Db5S_s.wav
64,192,7542,1,0,0:0:0:60:G#4S_Ab4S_s.wav
448,192,7730,1,0,0:0:0:60:C#5S_Db5S_s.wav
64,192,7917,1,0,0:0:0:100:F5S.wav
320,192,7917,1,0,0:0:0:0:
448,192,8105,1,0,0:0:0:100:G#4S_Ab4S_s.wav
64,192,8292,1,0,0:0:0:0:
64,192,8480,1,0,0:0:0:60:C5S_s.wav
448,192,8480,1,0,0:0:0:0:
320,192,8667,1,0,0:0:0:0:
64,192,8855,1,0,0:0:0:70:D#4S_Eb4S.wav
320,192,8855,128,0,10355:0:0:0:100:D#5S_Eb5S.wav
192,192,9042,1,0,0:0:0:0:
448,192,9230,1,0,0:0:0:0:
64,192,9417,1,0,0:0:0:100:G5S.wav
192,192,9417,1,0,0:0:0:0:
64,192,9792,1,0,0:0:0:0:
64,192,9980,1,0,0:0:0:100:A#5S_Bb5S.wav
448,192,9980,1,0,0:0:0:0:
192,192,10167,1,0,0:0:0:0:
192,192,10355,1,0,0:0:0:70:F4S.wav
448,192,10355,128,0,12605:0:0:0:100:F5S.wav
64,192,10917,1,0,0:0:0:100:F5S.wav
192,192,10917,1,0,0:0:0:0:
320,192,11292,1,0,0:0:0:0:
192,192,11480,1,0,0:0:0:100:C5S.wav
64,192,11667,1,0,0:0:0:0:
192,192,11761,1,0,0:0:0:0:
320,192,11855,1,0,0:0:0:100:F5S.wav
64,192,12605,128,0,12980:0:0:0:0:
320,192,12605,1,0,0:0:0:0:
192,192,12698,1,0,0:0:0:0:
448,192,12792,1,0,0:0:0:0:
320,192,12886,1,0,0:0:0:0:
192,192,12980,1,0,0:0:0:0:
448,192,12980,128,0,13355:0:0:0:0:
320,192,13073,1,0,0:0:0:0:
64,192,13167,1,0,0:0:0:0:
192,192,13261,1,0,0:0:0:0:
64,192,13355,128,2,13917:0:0:0:0:
320,192,13355,1,4,0:0:0:0:
448,192,13542,1,0,0:0:0:0:
192,192,13730,1,8,0:0:0:0:
320,192,13730,1,0,0:0:0:0:
448,192,13730,128,0,13917:0:0:0:0:
192,192,13917,128,0,14667:0:0:0:0:
64,192,14105,1,2,0:0:0:0:
448,192,14105,1,0,0:0:0:0:
320,192,14292,1,0,0:0:0:0:
64,192,14480,1,8,0:0:0:0:
320,192,14480,128,0,14667:0:0:0:0:
448,192,14480,1,0,0:0:0:0:
64,192,14667,128,0,15980:0:0:0:0:
192,192,14855,1,2,0:0:0:0:
320,192,14855,1,0,0:0:0:0:
448,192,15042,1,0,0:0:0:0:
192,192,15230,1,8,0:0:0:0:
320,192,15230,1,0,0:0:0:0:
448,192,15230,1,0,0:0:0:0:
320,192,15417,1,0,0:0:0:0:
192,192,15605,1,2,0:0:0:0:
448,192,15605,1,0,0:0:0:0:
320,192,15792,1,0,0:0:0:0:
192,192,15980,1,8,0:0:0:0:
320,192,15980,1,0,0:0:0:0:
448,192,15980,1,0,0:0:0:0:
448,192,16167,128,0,16542:0:0:0:0:
64,192,16355,1,2,0:0:0:0:
320,192,16355,1,0,0:0:0:0:
64,192,16542,128,0,16636:0:0:0:0:
192,192,16542,128,0,16636:0:0:0:0:
192,192,16730,128,8,16823:0:0:0:0:
320,192,16730,128,0,16823:0:0:0:0:
448,192,16730,1,0,0:0:0:0:
320,192,16917,128,0,17011:0:0:0:0:
448,192,16917,128,0,17011:0:0:0:0:
64,192,17105,128,2,17386:0:0:0:0:
192,192,17105,1,0,0:0:0:0:
448,192,17292,1,0,0:0:0:0:
192,192,17386,128,0,17667:0:0:0:0:
64,192,17480,1,4,0:0:0:0:
320,192,17480,1,8,0:0:0:0:
448,192,17480,1,0,0:0:0:0:
448,192,17667,128,0,18230:0:0:0:0:
64,192,17855,1,2,0:0:0:0:
320,192,17855,1,0,0:0:0:0:
192,192,18042,1,0,0:0:0:0:
64,192,18230,1,8,0:0:0:0:
192,192,18230,1,0,0:0:0:0:
320,192,18230,1,0,0:0:0:0:
448,192,18417,128,0,18605:0:0:0:0:
64,192,18605,128,2,18792:0:0:0:0:
192,192,18605,1,0,0:0:0:0:
320,192,18792,128,0,18980:0:0:0:0:
64,192,18980,1,8,0:0:0:0:
192,192,18980,128,0,19167:0:0:0:0:
448,192,18980,1,0,0:0:0:0:
320,192,19167,128,0,19355:0:0:0:0:
64,192,19355,1,2,0:0:0:0:
192,192,19355,1,4,0:0:0:0:
448,192,19355,128,0,19917:0:0:0:0:
320,192,19542,1,0,0:0:0:0:
64,192,19730,1,8,0:0:0:0:
192,192,19730,1,0,0:0:0:0:
320,192,19730,1,0,0:0:0:0:
192,192,19917,128,0,20855:0:0:0:0:
320,192,20105,1,2,0:0:0:0:
448,192,20105,1,0,0:0:0:0:
64,192,20292,1,0,0:0:0:0:
64,192,20480,1,8,0:0:0:0:
320,192,20480,1,0,0:0:0:0:
448,192,20480,1,0,0:0:0:0:
448,192,20667,1,0,0:0:0:0:
64,192,20855,128,2,21042:0:0:0:0:
320,192,20855,1,0,0:0:0:0:
448,192,21042,128,0,21230:0:0:0:0:
64,192,21230,1,8,0:0:0:0:
320,192,21230,1,0,0:0:0:0:
192,192,21230,1,0,0:0:0:0:
448,192,21417,128,0,21792:0:0:0:0:
64,192,21605,1,2,0:0:0:0:
192,192,21605,1,0,0:0:0:0:
320,192,21792,128,0,21980:0:0:0:0:
64,192,21980,1,8,0:0:0:0:
192,192,21980,128,0,22167:0:0:0:0:
448,192,21980,1,0,0:0:0:0:
64,192,22167,128,0,22355:0:0:0:0:
192,192,22355,1,4,0:0:0:0:
320,192,22355,1,8,0:0:0:0:
448,192,22355,1,0,0:0:0:0:
448,192,22542,1,0,0:0:0:0:
64,192,22730,1,2,0:0:0:0:
320,192,22730,1,0,0:0:0:0:
64,192,22917,1,4,0:0:0:0:
192,192,22917,1,8,0:0:0:0:
320,192,22917,1,0,0:0:0:0:
448,192,22917,1,0,0:0:0:0:
192,192,23105,1,0,0:0:0:0:
320,192,23292,1,2,0:0:0:0:
448,192,23292,1,0,0:0:0:0:
64,192,23480,1,4,0:0:0:0:
192,192,23480,1,8,0:0:0:0:
320,192,23480,1,0,0:0:0:0:
448,192,23480,1,0,0:0:0:0:
64,192,23667,1,2,0:0:0:0:
192,192,23667,1,0,0:0:0:0:
320,192,23855,1,0,0:0:0:0:
192,192,23948,1,0,0:0:0:0:
64,192,24042,1,2,0:0:0:0:
320,192,24042,1,4,0:0:0:0:
448,192,24042,1,0,0:0:0:0:
192,192,24136,1,0,0:0:0:0:
64,192,24230,1,2,0:0:0:0:
448,192,24230,1,0,0:0:0:0:
320,192,24323,1,0,0:0:0:0:
192,192,24417,1,0,0:0:0:0:
64,192,24511,1,0,0:0:0:0:
192,192,24605,1,2,0:0:0:0:
320,192,24605,1,4,0:0:0:0:
448,192,24605,1,0,0:0:0:0:
64,192,24698,1,0,0:0:0:0:
448,192,24792,1,0,0:0:0:0:
320,192,24886,1,0,0:0:0:0:
64,192,24980,1,2,0:0:0:0:
192,192,24980,1,4,0:0:0:0:
448,192,24980,1,0,0:0:0:0:
320,192,25073,1,0,0:0:0:0:
64,192,25167,1,2,0:0:0:0:
192,192,25167,1,0,0:0:0:0:
448,192,25261,1,0,0:0:0:0:
64,192,25355,1,6,0:0:0:0:
192,192,25355,128,0,26105:0:0:0:70:C4S.wav
320,192,25355,1,0,0:0:0:100:C5S_s.wav
448,192,25542,1,0,0:0:0:60:G4S_s.wav
320,192,25730,1,0,0:0:0:60:C5S_s.wav
64,192,25917,1,0,0:0:0:60:D#5S_Eb5S_s.wav
320,192,26105,128,0,26855:0:0:0:100:C6S_s.wav
448,192,26105,1,0,0:0:0:0:
192,192,26292,1,0,0:0:0:100:G5S_s.wav
64,192,26480,1,0,0:0:0:100:G4S_s.wav
192,192,26667,1,0,0:0:0:60:C5S_s.wav
64,192,26855,1,0,0:0:0:70:B3S.wav
448,192,26855,128,0,27980:0:0:0:100:B4S.wav
320,192,27230,1,0,0:0:0:60:G4S_s.wav
192,192,27417,1,0,0:0:0:60:G5S_s.wav
64,192,27605,128,0,28355:0:0:0:100:D6S_s.wav
320,192,27605,1,0,0:0:0:0:
320,192,27980,128,0,28167:0:0:0:0:
192,192,28167,128,0,28355:0:0:0:0:
320,192,28355,1,0,0:0:0:70:A#3S_Bb3S.wav
448,192,28355,128,0,28730:0:0:0:100:D#5S_Eb5S_s.wav
192,192,28542,1,0,0:0:0:60:G4S_s.wav
64,192,28730,1,0,0:0:0:60:A#4S_Bb4S_s.wav
320,192,28730,128,0,28917:0:0:0:0:
192,192,28917,128,0,29480:0:0:0:100:D#5S_Eb5S_s.wav
448,192,28917,1,0,0:0:0:0:
320,192,29105,1,0,0:0:0:60:G4S_s.wav
64,192,29292,1,0,0:0:0:60:A#4S_Bb4S_s.wav
320,192,29480,1,0,0:0:0:100:G4S_s.wav
448,192,29480,128,0,29855:0:0:0:0:
192,192,29667,1,0,0:0:0:60:G5S_s.wav
64,192,29855,128,0,30605:0:0:0:70:A3S.wav
320,192,29855,1,0,0:0:0:100:F5S.wav
192,192,30230,1,0,0:0:0:60:F4S_s.wav
320,192,30417,1,0,0:0:0:60:F5S_s.wav
448,192,30605,128,0,31355:0:0:0:100:C6S.wav
192,192,30605,1,0,0:0:0:0:
320,192,30980,128,0,31167:0:0:0:0:
64,192,31167,128,0,31355:0:0:0:0:
192,192,31355,1,0,0:0:0:70:G#3S_Ab3S.wav
320,192,31355,128,0,31917:0:0:0:100:G#5S_Ab5S_s.wav
64,192,31542,1,0,0:0:0:60:D#4S_Eb4S_s.wav
192,192,31730,1,0,0:0:0:60:G#4S_Ab4S_s.wav
448,192,31917,128,0,32480:0:0:0:100:D#5S_Eb5S_s.wav
64,192,31917,1,0,0:0:0:0:
320,192,32105,1,0,0:0:0:60:G#4S_Ab4S_s.wav
192,192,32292,1,0,0:0:0:60:G#5S_Ab5S_s.wav
64,192,32480,128,0,32855:0:0:0:100:C6S.wav
320,192,32480,1,0,0:0:0:0:
192,192,32855,128,0,33230:0:0:0:70:A#3S_Bb3S.wav
448,192,32855,128,0,33417:0:0:0:100:A#5S_Bb5S.wav
64,192,33230,128,0,33605:0:0:0:0:
320,192,33417,1,0,0:0:0:60:F5S_s.wav
448,192,33605,128,0,34355:0:0:0:70:D5S.wav
192,192,33605,128,0,33980:0:0:0:100:D6S.wav
320,192,33980,128,0,34355:0:0:0:60:A#4S_Bb4S_s.wav
64,192,33980,1,0,0:0:0:0:
192,192,34355,1,0,0:0:0:70:C4S.wav
64,192,34355,128,0,35855:0:0:0:100:G5S_s.wav
320,192,34542,1,0,0:0:0:60:G4S_s.wav
192,192,34730,1,0,0:0:0:60:C5S_s.wav
448,192,34917,128,0,35292:0:0:0:100:D5S.wav
320,192,35292,1,0,0:0:0:100:D#5S_Eb5S_s.wav
192,192,35480,128,0,35855:0:0:0:100:G4S.wav
320,192,35855,128,0,36042:0:0:0:70:G4S.wav
448,192,35855,1,0,0:0:0:100:G6S.wav
192,192,36042,1,0,0:0:0:45:D#5S_Eb5S_s.wav
64,192,36230,1,0,0:0:0:100:F6S.wav
448,192,36230,128,0,36417:0:0:0:0:
320,192,36417,1,0,0:0:0:60:D#5S_Eb5S_s.wav
192,192,36605,128,0,36792:0:0:0:100:D#6S_Eb6S.wav
448,192,36605,1,0,0:0:0:0:
64,192,36792,1,0,0:0:0:60:G5S_s.wav
320,192,36792,1,0,0:0:0:0:
192,192,36886,1,0,0:0:0:0:
320,192,36980,1,0,0:0:0:100:A#5S_Bb5S_s.wav
448,192,36980,1,0,0:0:0:0:
64,192,37073,1,0,0:0:0:0:
192,192,37167,1,0,0:0:0:60:G5S_s.wav
448,192,37167,1,0,0:0:0:0:
320,192,37261,1,0,0:0:0:0:
64,192,37355,128,2,38105:0:0:0:0:
192,192,37355,1,4,0:0:0:0:
448,192,37355,1,0,0:0:0:0:
320,192,37542,1,0,0:0:0:0:
192,192,37730,1,8,0:0:0:0:
320,192,37730,1,0,0:0:0:0:
448,192,37730,1,0,0:0:0:0:
448,192,37917,1,0,0:0:0:0:
192,192,38105,1,2,0:0:0:0:
320,192,38105,128,0,38855:0:0:0:0:
64,192,38292,1,0,0:0:0:0:
64,192,38480,1,8,0:0:0:0:
192,192,38480,1,0,0:0:0:0:
448,192,38480,1,0,0:0:0:0:
448,192,38667,1,0,0:0:0:0:
64,192,38855,1,2,0:0:0:0:
192,192,38855,128,0,39792:0:0:0:0:
320,192,39042,1,0,0:0:0:0:
64,192,39230,1,8,0:0:0:0:
320,192,39230,1,0,0:0:0:0:
448,192,39230,1,0,0:0:0:0:
448,192,39417,1,0,0:0:0:0:
64,192,39605,1,2,0:0:0:0:
320,192,39605,1,0,0:0:0:0:
448,192,39792,128,0,40167:0:0:0:0:
64,192,39980,1,8,0:0:0:0:
192,192,39980,1,0,0:0:0:0:
320,192,39980,1,0,0:0:0:0:
64,192,40167,128,0,40355:0:0:0:0:
192,192,40355,1,2,0:0:0:0:
320,192,40355,128,0,40542:0:0:0:0:
448,192,40542,128,0,40730:0:0:0:0:
64,192,40730,1,8,0:0:0:0:
192,192,40730,128,0,40917:0:0:0:0:
320,192,40730,1,0,0:0:0:0:
448,192,40917,128,0,41105:0:0:0:0:
64,192,41105,128,2,41292:0:0:0:0:
192,192,41105,1,0,0:0:0:0:
320,192,41292,128,0,41480:0:0:0:0:
64,192,41480,1,8,0:0:0:0:
192,192,41480,1,0,0:0:0:0:
448,192,41480,128,0,41855:0:0:0:0:
320,192,41667,1,0,0:0:0:0:
64,192,41855,1,2,0:0:0:0:
192,192,41855,128,0,42230:0:0:0:0:
448,192,42042,1,0,0:0:0:0:
64,192,42230,1,8,0:0:0:0:
320,192,42230,128,0,42605:0:0:0:0:
448,192,42230,1,0,0:0:0:0:
192,192,42417,1,0,0:0:0:0:
64,192,42605,128,2,42792:0:0:0:0:
448,192,42605,1,0,0:0:0:0:
448,192,42792,1,0,0:0:0:0:
64,192,42980,1,8,0:0:0:0:
192,192,42980,128,0,43167:0:0:0:0:
320,192,42980,1,0,0:0:0:0:
448,192,43167,128,0,43355:0:0:0:0:
64,192,43355,128,2,43542:0:0:0:0:
192,192,43355,1,4,0:0:0:0:
320,192,43355,1,0,0:0:0:0:
320,192,43542,128,0,43730:0:0:0:0:
64,192,43730,1,8,0:0:0:0:
192,192,43730,128,0,43917:0:0:0:0:
448,192,43730,1,0,0:0:0:0:
320,192,43917,128,0,44105:0:0:0:0:
64,192,44105,128,2,44480:0:0:0:0:
448,192,44105,1,0,0:0:0:0:
192,192,44292,1,0,0:0:0:0:
192,192,44480,1,8,0:0:0:0:
320,192,44480,1,0,0:0:0:0:
448,192,44480,1,0,0:0:0:0:
448,192,44667,128,0,45042:0:0:0:0:
64,192,44855,1,2,0:0:0:0:
192,192,44855,1,0,0:0:0:0:
320,192,45042,128,0,45230:0:0:0:0:
64,192,45230,1,8,0:0:0:0:
192,192,45230,128,0,45417:0:0:0:0:
448,192,45230,1,0,0:0:0:0:
320,192,45417,128,0,45605:0:0:0:0:
64,192,45605,128,2,45792:0:0:0:0:
192,192,45605,1,0,0:0:0:0:
448,192,45792,128,0,45980:0:0:0:0:
64,192,45980,1,8,0:0:0:0:
192,192,45980,128,0,46167:0:0:0:0:
320,192,45980,1,0,0:0:0:0:
448,192,46167,128,0,46355:0:0:0:0:
64,192,46355,1,2,0:0:0:0:
192,192,46355,1,4,0:0:0:0:
320,192,46355,1,0,0:0:0:0:
448,192,46448,1,0,0:0:0:0:
192,192,46542,1,0,0:0:0:0:
320,192,46636,1,0,0:0:0:0:
64,192,46730,1,8,0:0:0:0:
192,192,46730,1,0,0:0:0:0:
448,192,46730,1,0,0:0:0:0:
320,192,46823,1,0,0:0:0:0:
64,192,46917,1,0,0:0:0:0:
192,192,47011,1,0,0:0:0:0:
320,192,47105,1,2,0:0:0:0:
448,192,47105,1,0,0:0:0:0:
192,192,47198,1,0,0:0:0:0:
64,192,47292,1,0,0:0:0:0:
320,192,47386,1,0,0:0:0:0:
64,192,47480,1,8,0:0:0:0:
192,192,47480,1,0,0:0:0:0:
448,192,47480,1,0,0:0:0:0:
320,192,47573,1,0,0:0:0:0:
192,192,47667,1,0,0:0:0:0:
64,192,47761,1,0,0:0:0:0:
192,192,47855,1,2,0:0:0:0:
320,192,47855,1,4,0:0:0:0:
448,192,47855,1,0,0:0:0:0:
64,192,47948,1,0,0:0:0:0:
448,192,48042,1,0,0:0:0:0:
320,192,48136,1,0,0:0:0:0:
64,192,48230,1,8,0:0:0:0:
192,192,48230,1,0,0:0:0:0:
448,192,48230,1,0,0:0:0:0:
320,192,48323,1,0,0:0:0:0:
192,192,48417,1,0,0:0:0:0:
64,192,48511,1,0,0:0:0:0:
192,192,48605,1,2,0:0:0:0:
320,192,48605,1,4,0:0:0:0:
448,192,48605,1,0,0:0:0:0:
64,192,48698,1,0,0:0:0:0:
320,192,48792,1,0,0:0:0:0:
192,192,48886,1,0,0:0:0:0:
64,192,48980,1,8,0:0:0:0:
320,192,48980,1,0,0:0:0:0:
448,192,48980,1,0,0:0:0:0:
192,192,49073,1,0,0:0:0:0:
64,192,49167,1,2,0:0:0:0:
448,192,49167,1,0,0:0:0:0:
320,192,49261,1,0,0:0:0:0:
64,192,49355,128,2,49448:0:0:0:0:
192,192,49355,128,0,49448:0:0:0:0:
448,192,49355,128,0,49730:0:0:0:0:
64,192,49730,1,0,0:0:0:0:
192,192,49917,128,2,50292:0:0:0:0:
320,192,49917,128,0,50011:0:0:0:0:
448,192,49917,128,0,50011:0:0:0:0:
64,192,50292,1,2,0:0:0:0:
448,192,50292,1,0,0:0:0:0:
64,192,50480,128,2,50761:0:0:0:0:
320,192,50480,128,0,50573:0:0:0:0:
448,192,50480,128,0,50573:0:0:0:0:
448,192,50667,128,2,51042:0:0:0:0:
320,192,50667,128,0,50761:0:0:0:0:
192,192,50667,128,0,50761:0:0:0:0:
192,192,51042,1,2,0:0:0:0:
320,192,51042,1,0,0:0:0:0:
192,192,51417,1,2,0:0:0:0:
64,192,51417,128,0,51792:0:0:0:0:
448,192,51605,128,2,51698:0:0:0:0:
320,192,51605,128,0,51698:0:0:0:0:
448,192,51792,128,2,52167:0:0:0:0:
192,192,51792,1,0,0:0:0:0:
320,192,51980,128,2,52167:0:0:0:0:
192,192,51980,128,0,52073:0:0:0:0:
64,192,51980,128,0,52073:0:0:0:0:
64,192,52167,128,0,52355:0:0:0:0:
448,192,52355,128,2,52448:0:0:0:0:
320,192,52355,128,0,52448:0:0:0:0:
192,192,52355,128,0,52730:0:0:0:0:
64,192,52730,1,0,0:0:0:0:
64,192,52917,128,2,53292:0:0:0:0:
192,192,52917,128,0,53011:0:0:0:0:
320,192,52917,128,0,53011:0:0:0:0:
320,192,53292,1,2,0:0:0:0:
448,192,53292,1,0,0:0:0:0:
64,192,53480,128,0,53573:0:0:0:0:
192,192,53480,128,0,53573:0:0:0:0:
448,192,53480,128,0,53761:0:0:0:0:
64,192,53667,128,2,54042:0:0:0:0:
192,192,53667,128,0,53761:0:0:0:0:
320,192,53667,128,0,53761:0:0:0:0:
320,192,54042,128,2,54136:0:0:0:0:
448,192,54042,128,0,54136:0:0:0:0:
192,192,54417,1,2,0:0:0:0:
448,192,54417,128,0,54792:0:0:0:0:
64,192,54605,128,2,54698:0:0:0:0:
192,192,54605,128,0,54698:0:0:0:0:
64,192,54792,128,2,55167:0:0:0:0:
320,192,54792,1,0,0:0:0:0:
192,192,54980,128,2,55167:0:0:0:0:
320,192,54980,128,0,55073:0:0:0:0:
448,192,54980,128,0,55073:0:0:0:0:
448,192,55167,128,0,55355:0:0:0:0:
64,192,55355,128,2,55448:0:0:0:0:
192,192,55355,128,4,55448:0:0:0:0:
448,192,55448,1,0,0:0:0:0:
320,192,55542,1,0,0:0:0:0:
192,192,55636,1,0,0:0:0:0:
64,192,55730,1,2,0:0:0:0:
320,192,55823,1,0,0:0:0:0:
64,192,55917,128,2,56011:0:0:0:0:
192,192,55917,1,4,0:0:0:0:
448,192,55917,128,0,56011:0:0:0:0:
320,192,56011,1,0,0:0:0:0:
192,192,56105,1,0,0:0:0:0:
448,192,56198,1,0,0:0:0:0:
320,192,56292,1,2,0:0:0:0:
192,192,56386,1,0,0:0:0:0:
64,192,56480,128,2,56573:0:0:0:0:
448,192,56480,128,0,56573:0:0:0:0:
320,192,56573,1,0,0:0:0:0:
64,192,56667,1,2,0:0:0:0:
192,192,56667,128,4,56761:0:0:0:0:
448,192,56667,128,0,56761:0:0:0:0:
320,192,56761,1,0,0:0:0:0:
64,192,56855,1,0,0:0:0:0:
192,192,56948,1,0,0:0:0:0:
320,192,57042,128,2,57136:0:0:0:0:
448,192,57042,128,0,57136:0:0:0:0:
192,192,57136,1,0,0:0:0:0:
64,192,57230,1,0,0:0:0:0:
320,192,57323,1,0,0:0:0:0:
192,192,57417,1,2,0:0:0:0:
448,192,57417,1,0,0:0:0:0:
64,192,57511,1,0,0:0:0:0:
320,192,57605,128,8,57698:0:0:0:0:
448,192,57605,128,0,57698:0:0:0:0:
192,192,57698,1,0,0:0:0:0:
64,192,57792,1,2,0:0:0:0:
320,192,57792,1,0,0:0:0:0:
448,192,57886,1,0,0:0:0:0:
64,192,57980,128,8,58073:0:0:0:0:
192,192,57980,128,0,58073:0:0:0:0:
320,192,58167,1,0,0:0:0:0:
64,192,58355,1,2,0:0:0:0:
192,192,58355,1,4,0:0:0:0:
448,192,58355,1,0,0:0:0:0:
320,192,58542,1,0,0:0:0:0:
64,192,58730,1,8,0:0:0:0:
448,192,58730,1,0,0:0:0:0:
192,192,58917,1,0,0:0:0:0:
64,192,59105,1,2,0:0:0:0:
192,192,59105,1,4,0:0:0:0:
320,192,59105,1,0,0:0:0:0:
448,192,59105,1,0,0:0:0:0:
448,192,59292,1,0,0:0:0:0:
192,192,59480,1,8,0:0:0:0:
320,192,59480,1,0,0:0:0:0:
64,192,59667,1,0,0:0:0:0:
192,192,59855,1,2,0:0:0:0:
320,192,59855,1,4,0:0:0:0:
448,192,59855,1,0,0:0:0:0:
64,192,59948,1,0,0:0:0:0:
320,192,60042,1,0,0:0:0:0:
192,192,60136,1,0,0:0:0:0:
64,192,60230,1,8,0:0:0:0:
448,192,60230,1,0,0:0:0:0:
320,192,60230,1,0,0:0:0:0:
192,192,60323,1,0,0:0:0:0:
64,192,60417,1,0,0:0:0:0:
448,192,60511,1,0,0:0:0:0:
192,192,60605,1,2,0:0:0:0:
320,192,60605,1,0,0:0:0:0:
64,192,60698,1,0,0:0:0:0:
192,192,60792,1,0,0:0:0:0:
320,192,60886,1,0,0:0:0:0:
64,192,60980,1,8,0:0:0:0:
192,192,60980,1,0,0:0:0:0:
448,192,60980,1,0,0:0:0:0:
320,192,61073,1,0,0:0:0:0:
64,192,61167,1,0,0:0:0:0:
448,192,61167,1,0,0:0:0:0:
192,192,61261,1,0,0:0:0:0:
320,192,61355,1,2,0:0:0:0:
448,192,61355,1,0,0:0:0:0:
192,192,61448,1,0,0:0:0:0:
64,192,61542,1,0,0:0:0:0:
320,192,61636,1,0,0:0:0:0:
64,192,61730,1,8,0:0:0:0:
192,192,61730,1,0,0:0:0:0:
448,192,61730,1,0,0:0:0:0:
320,192,61823,1,0,0:0:0:0:
448,192,61917,1,0,0:0:0:0:
64,192,62011,1,0,0:0:0:0:
192,192,62105,1,2,0:0:0:0:
320,192,62105,1,0,0:0:0:0:
448,192,62198,1,0,0:0:0:0:
64,192,62292,1,0,0:0:0:0:
192,192,62386,1,0,0:0:0:0:
64,192,62480,1,8,0:0:0:0:
320,192,62480,1,0,0:0:0:0:
448,192,62480,1,0,0:0:0:0:
192,192,62573,1,0,0:0:0:0:
320,192,62667,1,2,0:0:0:0:
448,192,62667,1,0,0:0:0:0:
64,192,62761,1,0,0:0:0:0:
192,192,62855,1,2,0:0:0:0:
320,192,62855,128,4,63605:0:0:0:0:
448,192,62855,1,0,0:0:0:0:
64,192,63042,1,0,0:0:0:0:
64,192,63230,1,8,0:0:0:0:
192,192,63230,1,0,0:0:0:0:
448,192,63230,1,0,0:0:0:0:
192,192,63417,1,0,0:0:0:0:
64,192,63605,1,2,0:0:0:0:
448,192,63605,128,0,63980:0:0:0:0:
320,192,63792,1,0,0:0:0:0:
64,192,63980,1,8,0:0:0:0:
192,192,63980,128,0,64355:0:0:0:0:
320,192,63980,1,0,0:0:0:0:
448,192,64167,1,0,0:0:0:0:
64,192,64355,128,2,64636:0:0:0:0:
448,192,64355,1,0,0:0:0:0:
320,192,64542,1,0,0:0:0:0:
448,192,64636,128,0,64917:0:0:0:0:
64,192,64730,1,8,0:0:0:0:
192,192,64730,1,0,0:0:0:0:
320,192,64730,1,0,0:0:0:0:
192,192,64917,128,0,65480:0:0:0:0:
64,192,65105,1,2,0:0:0:0:
448,192,65105,1,0,0:0:0:0:
320,192,65292,1,0,0:0:0:0:
64,192,65480,1,8,0:0:0:0:
320,192,65480,1,0,0:0:0:0:
448,192,65480,1,0,0:0:0:0:
192,192,65667,1,0,0:0:0:0:
64,192,65855,1,2,0:0:0:0:
448,192,65855,128,0,66605:0:0:0:0:
320,192,66042,1,0,0:0:0:0:
64,192,66230,1,8,0:0:0:0:
192,192,66230,1,0,0:0:0:0:
320,192,66230,1,0,0:0:0:0:
192,192,66417,1,0,0:0:0:0:
64,192,66605,1,2,0:0:0:0:
320,192,66605,128,0,66886:0:0:0:0:
192,192,66792,1,0,0:0:0:0:
64,192,66886,128,0,67167:0:0:0:0:
192,192,66980,1,8,0:0:0:0:
320,192,66980,1,0,0:0:0:0:
448,192,66980,1,0,0:0:0:0:
448,192,67167,128,0,67355:0:0:0:0:
64,192,67355,1,2,0:0:0:0:
192,192,67355,128,0,67636:0:0:0:0:
320,192,67542,1,0,0:0:0:0:
448,192,67636,128,0,67917:0:0:0:0:
64,192,67730,1,8,0:0:0:0:
192,192,67730,1,0,0:0:0:0:
320,192,67730,1,0,0:0:0:0:
64,192,67917,128,0,68480:0:0:0:0:
192,192,68105,1,2,0:0:0:0:
320,192,68105,1,0,0:0:0:0:
448,192,68292,1,0,0:0:0:0:
192,192,68480,1,8,0:0:0:0:
320,192,68480,128,0,68855:0:0:0:0:
448,192,68480,1,0,0:0:0:0:
64,192,68667,1,0,0:0:0:0:
192,192,68855,1,2,0:0:0:0:
448,192,68855,128,0,69417:0:0:0:0:
320,192,69042,1,0,0:0:0:0:
64,192,69230,1,8,0:0:0:0:
192,192,69230,1,0,0:0:0:0:
320,192,69230,1,0,0:0:0:0:
64,192,69417,128,0,69792:0:0:0:0:
192,192,69605,1,2,0:0:0:0:
320,192,69605,1,0,0:0:0:0:
448,192,69792,128,0,69980:0:0:0:0:
64,192,69980,1,8,0:0:0:0:
192,192,69980,128,0,70167:0:0:0:0:
320,192,69980,1,0,0:0:0:0:
448,192,70167,128,0,70355:0:0:0:0:
64,192,70355,128,2,70542:0:0:0:0:
320,192,70355,1,0,0:0:0:0:
192,192,70542,128,0,70730:0:0:0:0:
64,192,70730,1,8,0:0:0:0:
320,192,70730,128,0,71105:0:0:0:0:
448,192,70730,1,0,0:0:0:0:
192,192,70917,1,0,0:0:0:0:
64,192,71105,1,2,0:0:0:0:
448,192,71105,1,0,0:0:0:0:
192,192,71292,128,0,71480:0:0:0:0:
64,192,71480,1,8,0:0:0:0:
320,192,71480,1,0,0:0:0:0:
448,192,71480,1,0,0:0:0:0:
448,192,71667,128,0,71855:0:0:0:0:
192,192,71855,128,2,72980:0:0:0:0:
320,192,71855,1,0,0:0:0:0:
448,192,72042,1,0,0:0:0:0:
64,192,72230,1,8,0:0:0:0:
320,192,72230,1,0,0:0:0:0:
448,192,72230,1,0,0:0:0:0:
64,192,72417,1,0,0:0:0:0:
320,192,72605,1,2,0:0:0:0:
448,192,72605,1,0,0:0:0:0:
64,192,72792,1,0,0:0:0:0:
64,192,72980,1,8,0:0:0:0:
320,192,72980,1,0,0:0:0:0:
448,192,72980,1,0,0:0:0:0:
192,192,73167,1,2,0:0:0:0:
448,192,73167,1,0,0:0:0:0:
64,192,73355,128,2,73448:0:0:0:0:
192,192,73355,128,0,73448:0:0:0:0:
320,192,73448,128,0,73542:0:0:0:0:
448,192,73542,128,0,73636:0:0:0:0:
192,192,73636,128,2,73730:0:0:0:0:
64,192,73730,128,8,73823:0:0:0:0:
320,192,73730,128,0,73823:0:0:0:0:
448,192,73730,128,0,73823:0:0:0:0:
192,192,73823,128,0,73917:0:0:0:0:
64,192,73917,128,0,74011:0:0:0:0:
448,192,74011,128,2,74105:0:0:0:0:
192,192,74105,128,2,74198:0:0:0:0:
320,192,74105,128,0,74198:0:0:0:0:
64,192,74198,128,0,74292:0:0:0:0:
448,192,74292,128,0,74386:0:0:0:0:
320,192,74386,128,0,74480:0:0:0:0:
64,192,74480,128,8,74573:0:0:0:0:
192,192,74480,128,0,74573:0:0:0:0:
448,192,74480,128,0,74573:0:0:0:0:
320,192,74573,128,0,74667:0:0:0:0:
64,192,74667,128,2,74761:0:0:0:0:
192,192,74667,128,0,74761:0:0:0:0:
448,192,74761,128,2,74855:0:0:0:0:
64,192,74855,1,2,0:0:0:0:
192,192,74855,128,4,75605:0:0:0:0:
320,192,74855,1,0,0:0:0:0:
448,192,75042,1,0,0:0:0:0:
64,192,75230,1,8,0:0:0:0:
320,192,75230,1,0,0:0:0:0:
448,192,75230,1,0,0:0:0:0:
320,192,75417,1,0,0:0:0:0:
64,192,75605,128,2,75980:0:0:0:0:
448,192,75605,1,0,0:0:0:0:
192,192,75792,1,0,0:0:0:0:
192,192,75980,1,8,0:0:0:0:
320,192,75980,128,0,76355:0:0:0:0:
448,192,75980,1,0,0:0:0:0:
64,192,76167,1,0,0:0:0:0:
64,192,76355,1,2,0:0:0:0:
448,192,76355,128,0,76636:0:0:0:0:
192,192,76542,1,0,0:0:0:0:
64,192,76636,128,0,76917:0:0:0:0:
192,192,76730,1,8,0:0:0:0:
320,192,76730,1,0,0:0:0:0:
448,192,76730,1,0,0:0:0:0:
320,192,76917,128,0,77480:0:0:0:0:
64,192,77105,1,2,0:0:0:0:
448,192,77105,1,0,0:0:0:0:
192,192,77292,1,0,0:0:0:0:
64,192,77480,1,8,0:0:0:0:
192,192,77480,1,0,0:0:0:0:
448,192,77480,1,0,0:0:0:0:
320,192,77667,1,0,0:0:0:0:
64,192,77855,128,2,78605:0:0:0:0:
448,192,77855,1,0,0:0:0:0:
192,192,78042,1,0,0:0:0:0:
192,192,78230,1,8,0:0:0:0:
320,192,78230,1,0,0:0:0:0:
448,192,78230,1,0,0:0:0:0:
320,192,78417,1,0,0:0:0:0:
192,192,78605,128,2,78886:0:0:0:0:
448,192,78605,1,0,0:0:0:0:
320,192,78792,1,0,0:0:0:0:
448,192,78886,128,0,79167:0:0:0:0:
64,192,78980,1,8,0:0:0:0:
192,192,78980,1,0,0:0:0:0:
320,192,78980,1,0,0:0:0:0:
64,192,79167,128,0,79355:0:0:0:0:
320,192,79355,128,2,79636:0:0:0:0:
448,192,79355,1,0,0:0:0:0:
192,192,79542,1,0,0:0:0:0:
64,192,79636,128,0,79917:0:0:0:0:
192,192,79730,1,8,0:0:0:0:
320,192,79730,1,0,0:0:0:0:
448,192,79730,1,0,0:0:0:0:
448,192,79917,128,0,80480:0:0:0:0:
192,192,80105,1,2,0:0:0:0:
320,192,80105,1,0,0:0:0:0:
64,192,80292,1,0,0:0:0:0:
64,192,80480,1,8,0:0:0:0:
192,192,80480,128,0,80855:0:0:0:0:
320,192,80480,1,0,0:0:0:0:
448,192,80667,1,0,0:0:0:0:
64,192,80855,128,2,81417:0:0:0:0:
320,192,80855,1,4,0:0:0:0:
448,192,80855,1,0,0:0:0:0:
192,192,81042,1,0,0:0:0:0:
192,192,81230,1,8,0:0:0:0:
320,192,81230,1,0,0:0:0:0:
448,192,81230,1,0,0:0:0:0:
448,192,81417,128,0,81792:0:0:0:0:
192,192,81605,1,2,0:0:0:0:
320,192,81605,1,0,0:0:0:0:
64,192,81792,128,0,81980:0:0:0:0:
192,192,81980,1,8,0:0:0:0:
320,192,81980,128,0,82167:0:0:0:0:
448,192,81980,1,0,0:0:0:0:
64,192,82167,128,0,82355:0:0:0:0:
192,192,82355,1,2,0:0:0:0:
320,192,82355,1,4,0:0:0:0:
448,192,82355,128,0,82542:0:0:0:0:
192,192,82542,128,0,82730:0:0:0:0:
64,192,82730,1,8,0:0:0:0:
320,192,82730,128,0,83105:0:0:0:0:
448,192,82730,1,0,0:0:0:0:
192,192,82917,1,0,0:0:0:0:
64,192,83105,1,2,0:0:0:0:
448,192,83105,1,0,0:0:0:0:
192,192,83292,128,0,83480:0:0:0:0:
64,192,83480,128,8,83667:0:0:0:0:
320,192,83480,1,0,0:0:0:0:
448,192,83480,1,0,0:0:0:0:
448,192,83667,128,0,83855:0:0:0:0:
64,192,83855,1,2,0:0:0:0:
192,192,83855,1,4,0:0:0:0:
320,192,83855,128,0,84980:0:0:0:0:
448,192,84042,1,0,0:0:0:0:
64,192,84230,1,8,0:0:0:0:
192,192,84230,1,0,0:0:0:0:
448,192,84230,1,0,0:0:0:0:
64,192,84417,1,0,0:0:0:0:
64,192,84605,1,2,0:0:0:0:
192,192,84605,1,4,0:0:0:0:
448,192,84605,1,0,0:0:0:0:
448,192,84792,1,0,0:0:0:0:
64,192,84980,1,8,0:0:0:0:
192,192,84980,1,0,0:0:0:0:
448,192,84980,1,0,0:0:0:0:
192,192,85167,1,2,0:0:0:0:
320,192,85167,1,0,0:0:0:0:
64,192,85355,128,2,85448:0:0:0:0:
320,192,85355,128,4,85448:0:0:0:0:
448,192,85355,128,0,85448:0:0:0:0:
192,192,85448,128,0,85542:0:0:0:0:
64,192,85542,128,0,85636:0:0:0:0:
320,192,85636,128,0,85730:0:0:0:0:
64,192,85730,128,8,85823:0:0:0:0:
192,192,85730,128,0,85823:0:0:0:0:
448,192,85730,128,0,85823:0:0:0:0:
320,192,85823,128,0,85917:0:0:0:0:
448,192,85917,128,0,86011:0:0:0:0:
64,192,86011,128,0,86105:0:0:0:0:
192,192,86105,128,2,86198:0:0:0:0:
320,192,86105,128,4,86198:0:0:0:0:
448,192,86105,128,0,86198:0:0:0:0:
64,192,86198,128,0,86292:0:0:0:0:
192,192,86292,128,0,86386:0:0:0:0:
320,192,86386,128,0,86480:0:0:0:0:
64,192,86480,128,8,86573:0:0:0:0:
192,192,86480,128,0,86573:0:0:0:0:
448,192,86480,128,0,86573:0:0:0:0:
320,192,86573,128,0,86667:0:0:0:0:
64,192,86667,128,2,86761:0:0:0:0:
448,192,86667,128,0,86761:0:0:0:0:
192,192,86761,128,2,86855:0:0:0:0:
64,192,86855,128,6,87605:0:0:0:0:
320,192,86855,1,0,0:0:0:70:C#4S_Db4S.wav
448,192,86855,128,0,88355:0:0:0:100:G#5S_Ab5S.wav
320,192,87605,128,0,87980:0:0:0:100:G#5S_Ab5S.wav
192,192,87980,128,0,88355:0:0:0:100:C6S.wav
64,192,88355,128,0,89855:0:0:0:70:D#4S_Eb4S.wav
320,192,88355,128,0,88636:0:0:0:100:A#5S_Bb5S.wav
448,192,88636,128,0,88917:0:0:0:100:G#5S_Ab5S.wav
192,192,88917,128,0,89855:0:0:0:100:G5S.wav
320,192,89855,128,0,91355:0:0:0:70:E4S.wav
448,192,89855,128,0,90605:0:0:0:100:A#5S_Bb5S.wav
192,192,90605,128,0,90886:0:0:0:100:A#5S_Bb5S.wav
64,192,90886,128,0,91167:0:0:0:100:C6S.wav
448,192,91167,128,0,91355:0:0:0:100:C#6S_Db6S_s.wav
64,192,91355,128,0,91636:0:0:0:70:F4S.wav
192,192,91355,128,0,92855:0:0:0:100:C6S.wav
320,192,91636,128,0,91917:0:0:0:100:A#5S_Bb5S.wav
448,192,91917,128,0,92480:0:0:0:100:G#5S_Ab5S.wav
64,192,92480,128,0,92855:0:0:0:100:G5S.wav
320,192,92855,128,0,94355:0:0:0:70:C#4S_Db4S.wav
448,192,92855,128,0,93417:0:0:0:100:G#5S_Ab5S.wav
64,192,93417,128,0,93792:0:0:0:100:C6S.wav
448,192,93792,128,0,93980:0:0:0:100:A#5S_Bb5S_s.wav
192,192,93980,128,0,94167:0:0:0:100:G#5S_Ab5S_s.wav
64,192,94167,128,0,94355:0:0:0:100:G5S_s.wav
192,192,94355,128,0,94542:0:0:0:70:D#4S_Eb4S.wav
448,192,94355,128,0,95855:0:0:0:100:D#5S_Eb5S_s.wav
320,192,94542,128,0,94730:0:0:0:100:A#4S_Bb4S_s.wav
64,192,94730,128,0,94823:0:0:0:100:D#5S_Eb5S_s.wav
64,192,94917,128,0,95011:0:0:0:100:D#5S_Eb5S.wav
192,192,95292,128,0,95386:0:0:0:100:F5S_s.wav
192,192,95480,128,0,95573:0:0:0:100:F5S_s.wav
320,192,95667,128,0,95855:0:0:0:100:G5S_s.wav
64,192,95855,128,0,101855:0:0:0:70:F4S.wav
192,192,95855,128,0,101855:0:0:0:100:F5S.wav
