osu file format v14

[General]
AudioFilename: audio.mp3
AudioLeadIn: 0
PreviewTime: 61917
Countdown: 0
SampleSet: Normal
StackLeniency: 0.7
Mode: 3
LetterboxInBreaks: 0
SpecialStyle: 0
WidescreenStoryboard: 0

[Editor]
DistanceSpacing: 1
BeatDivisor: 2
GridSize: 4
TimelineZoom: 0.8

[Metadata]
Title:Tsuki ni Murakumo Hana ni Kaze (PV ver.)
TitleUnicode:月に叢雲華に風 (PV ver.)
Artist:senya
ArtistUnicode:senya
Creator:Yukari_Sama
Version:Easy
Source:東方地霊殿 ~ Subterranean Animism.
Tags:atian540 touhou th 11 mayumi morinaga opening op 幻想万華鏡 Gensou Mangekyou fantasy kaleidoscope memories phantasm iceon ラストリモート last remote komeiji koishi 古明地 こいし extra stage かませ虎 kamasetora 幽閉サテライト yuuhei satellite short video game japanese electronic
BeatmapID:1314179
BeatmapSetID:623502

[Difficulty]
HPDrainRate:7
CircleSize:4
OverallDifficulty:6.5
ApproachRate:5
SliderMultiplier:1.4
SliderTickRate:1

[Events]
//Background and Video events
0,0,"BG.jpg",0,0
//Break Periods
//Storyboard Layer 0 (Background)
//Storyboard Layer 1 (Fail)
//Storyboard Layer 2 (Pass)
//Storyboard Layer 3 (Foreground)
//Storyboard Layer 4 (Overlay)
//Storyboard Sound Samples
Sample,1355,0,"C#5S_Db5S_s.wav",100
Sample,1542,0,"G#4S_Ab4S_s.wav",60
Sample,1730,0,"C#5S_Db5S_s.wav",60
Sample,1917,0,"F5S.wav",100
Sample,2292,0,"G#5S_Ab5S_s.wav",100
Sample,2667,0,"C#5S_Db5S_s.wav",60
Sample,2855,0,"G#5S_Ab5S_s.wav",100
Sample,3042,0,"A#4S_Bb4S_s.wav",60
Sample,3230,0,"D#5S_Eb5S_s.wav",60
Sample,3605,0,"G5S_s.wav",100
Sample,3792,0,"A#4S_Bb4S_s.wav",60
Sample,3980,0,"D#5S_Eb5S_s.wav",100
Sample,4167,0,"G5S_s.wav",60
Sample,4355,0,"A#5S_Bb5S.wav",70
Sample,4730,0,"E5S_s.wav",50
Sample,4917,0,"E6S_s.wav",50
Sample,5292,0,"A#4S_Bb4S_s.wav",60
Sample,5480,0,"E5S_s.wav",100
Sample,5855,0,"G#5S_Ab5S_s.wav",100
Sample,6042,0,"C5S_s.wav",60
Sample,6230,0,"F5S_s.wav",60
Sample,6792,0,"C6S_s.wav",100
Sample,7167,0,"F5S_s.wav",100
Sample,7355,0,"C#5S_Db5S_s.wav",100
Sample,7542,0,"G#4S_Ab4S_s.wav",60
Sample,7730,0,"C#5S_Db5S_s.wav",60
Sample,8105,0,"G#4S_Ab4S_s.wav",100
Sample,8855,0,"D#5S_Eb5S.wav",100
Sample,10355,0,"F5S.wav",100
Sample,25355,0,"C5S_s.wav",100
Sample,25542,0,"G4S_s.wav",60
Sample,25730,0,"C5S_s.wav",60
Sample,25917,0,"D#5S_Eb5S_s.wav",60
Sample,26292,0,"G5S_s.wav",100
Sample,26480,0,"G4S_s.wav",100
Sample,26667,0,"C5S_s.wav",60
Sample,26855,0,"B4S.wav",100
Sample,27230,0,"G4S_s.wav",60
Sample,27417,0,"G5S_s.wav",60
Sample,27605,0,"D6S_s.wav",100
Sample,28355,0,"D#5S_Eb5S_s.wav",100
Sample,28542,0,"G4S_s.wav",60
Sample,29105,0,"G4S_s.wav",60
Sample,29292,0,"A#4S_Bb4S_s.wav",60
Sample,29667,0,"G5S_s.wav",60
Sample,29855,0,"F5S.wav",100
Sample,30230,0,"F4S_s.wav",60
Sample,30417,0,"F5S_s.wav",60
Sample,31355,0,"G#5S_Ab5S_s.wav",100
Sample,31542,0,"D#4S_Eb4S_s.wav",60
Sample,31730,0,"G#4S_Ab4S_s.wav",60
Sample,32105,0,"G#4S_Ab4S_s.wav",60
Sample,32292,0,"G#5S_Ab5S_s.wav",60
Sample,32855,0,"A#5S_Bb5S.wav",100
Sample,33417,0,"F5S_s.wav",60
Sample,33605,0,"D6S.wav",100
Sample,34355,0,"G5S_s.wav",100
Sample,34542,0,"G4S_s.wav",60
Sample,34730,0,"C5S_s.wav",60
Sample,34917,0,"D5S.wav",100
Sample,35292,0,"D#5S_Eb5S_s.wav",100
Sample,35480,0,"G4S.wav",100
Sample,35855,0,"G6S.wav",100
Sample,36042,0,"D#5S_Eb5S_s.wav",45
Sample,36417,0,"D#5S_Eb5S_s.wav",60
Sample,36792,0,"G5S_s.wav",60
Sample,37167,0,"G5S_s.wav",60
Sample,86855,0,"C#4S_Db4S.wav",70
Sample,88355,0,"D#4S_Eb4S.wav",70
Sample,89855,0,"E4S.wav",70
Sample,91355,0,"F4S.wav",70
Sample,92855,0,"C#4S_Db4S.wav",70
Sample,94167,0,"G5S_s.wav",100
Sample,94355,0,"D#4S_Eb4S.wav",70
Sample,95855,0,"F4S.wav",70

[TimingPoints]
1355,375,4,1,1,65,1,0
62855,-100,4,1,1,65,0,1
86855,-100,4,1,1,65,0,0

[HitObjects]
64,192,605,128,0,980:0:0:0:0:
192,192,980,128,0,1355:0:0:0:0:
448,192,1355,128,0,2105:0:0:0:70:C#4S_Db4S.wav
64,192,2105,1,0,0:0:0:0:
320,192,2480,1,0,0:0:0:60:C5S_s.wav
192,192,2855,1,0,0:0:0:70:D#4S_Eb4S.wav
448,192,3136,1,0,0:0:0:0:
64,192,3417,1,0,0:0:0:100:A#4S_Bb4S_s.wav
320,192,4355,128,0,5105:0:0:0:70:E4S.wav
64,192,5105,1,0,0:0:0:50:C#6S_Db6S_s.wav
448,192,5386,1,0,0:0:0:0:
192,192,5667,1,0,0:0:0:60:A#4S_Bb4S_s.wav
320,192,5855,1,0,0:0:0:70:F4S.wav
64,192,6136,1,0,0:0:0:0:
448,192,6417,1,0,0:0:0:100:F6S.wav
320,192,6980,1,0,0:0:0:100:G#5S_Ab5S_s.wav
448,192,7355,128,0,8855:0:0:0:70:C#4S_Db4S.wav
64,192,7917,1,0,0:0:0:100:F5S.wav
192,192,8480,1,0,0:0:0:60:C5S_s.wav
64,192,8855,128,0,10355:0:0:0:70:D#4S_Eb4S.wav
320,192,9417,1,0,0:0:0:100:G5S.wav
448,192,9980,1,0,0:0:0:100:A#5S_Bb5S.wav
320,192,10355,128,0,11855:0:0:0:70:F4S.wav
192,192,10917,1,0,0:0:0:100:F5S.wav
64,192,11480,1,0,0:0:0:100:C5S.wav
448,192,11855,128,0,12605:0:0:0:100:F5S.wav
64,192,12605,128,0,12980:0:0:0:0:
320,192,12980,128,0,13355:0:0:0:0:
64,192,13355,1,2,0:0:0:0:
192,192,13355,1,4,0:0:0:0:
320,192,13730,1,8,0:0:0:0:
448,192,13730,1,0,0:0:0:0:
64,192,14105,1,2,0:0:0:0:
192,192,14480,1,8,0:0:0:0:
320,192,14480,1,0,0:0:0:0:
448,192,14855,1,2,0:0:0:0:
64,192,15230,1,8,0:0:0:0:
192,192,15230,1,0,0:0:0:0:
320,192,15605,1,2,0:0:0:0:
192,192,15980,1,8,0:0:0:0:
448,192,15980,1,0,0:0:0:0:
64,192,16355,1,2,0:0:0:0:
320,192,16730,1,8,0:0:0:0:
448,192,16730,1,0,0:0:0:0:
192,192,17105,1,2,0:0:0:0:
64,192,17480,1,4,0:0:0:0:
448,192,17480,1,8,0:0:0:0:
320,192,17855,1,2,0:0:0:0:
64,192,18230,1,8,0:0:0:0:
192,192,18230,1,0,0:0:0:0:
448,192,18605,1,2,0:0:0:0:
192,192,18980,1,8,0:0:0:0:
320,192,18980,1,0,0:0:0:0:
64,192,19355,1,2,0:0:0:0:
448,192,19355,1,4,0:0:0:0:
192,192,19730,1,8,0:0:0:0:
320,192,19730,1,0,0:0:0:0:
64,192,20105,1,2,0:0:0:0:
320,192,20480,1,8,0:0:0:0:
448,192,20480,1,0,0:0:0:0:
192,192,20855,1,2,0:0:0:0:
64,192,21230,1,8,0:0:0:0:
448,192,21230,1,0,0:0:0:0:
320,192,21605,1,2,0:0:0:0:
64,192,21980,1,8,0:0:0:0:
192,192,21980,1,0,0:0:0:0:
320,192,22355,1,4,0:0:0:0:
448,192,22355,1,8,0:0:0:0:
320,192,22917,1,4,0:0:0:0:
448,192,22917,1,8,0:0:0:0:
192,192,23480,1,8,0:0:0:0:
64,192,23480,1,4,0:0:0:0:
64,192,24042,1,4,0:0:0:0:
192,192,24042,1,2,0:0:0:0:
320,192,24605,1,2,0:0:0:0:
448,192,24605,1,4,0:0:0:0:
192,192,24980,1,2,0:0:0:0:
320,192,24980,1,4,0:0:0:0:
64,192,25355,128,6,26105:0:0:0:0:
192,192,25355,1,0,0:0:0:70:C4S.wav
320,192,26105,128,0,26855:0:0:0:100:C6S_s.wav
448,192,26855,128,0,27980:0:0:0:70:B3S.wav
192,192,27980,1,0,0:0:0:0:
320,192,28167,1,0,0:0:0:0:
64,192,28355,128,0,28730:0:0:0:70:A#3S_Bb3S.wav
320,192,28730,1,0,0:0:0:60:A#4S_Bb4S_s.wav
192,192,28917,128,0,29480:0:0:0:100:D#5S_Eb5S_s.wav
448,192,29480,128,0,29855:0:0:0:100:G4S_s.wav
320,192,29855,128,0,30605:0:0:0:70:A3S.wav
64,192,30605,1,0,0:0:0:100:C6S.wav
448,192,30980,1,0,0:0:0:0:
320,192,31167,1,0,0:0:0:0:
192,192,31355,128,0,31917:0:0:0:70:G#3S_Ab3S.wav
448,192,31917,128,0,32480:0:0:0:100:D#5S_Eb5S_s.wav
64,192,32480,128,0,32855:0:0:0:100:C6S.wav
320,192,32855,128,0,33230:0:0:0:70:A#3S_Bb3S.wav
192,192,33230,128,0,33605:0:0:0:0:
448,192,33605,128,0,33980:0:0:0:70:D5S.wav
64,192,33980,128,0,34355:0:0:0:60:A#4S_Bb4S_s.wav
320,192,34355,128,0,35855:0:0:0:70:C4S.wav
64,192,35855,128,0,36230:0:0:0:70:G4S.wav
448,192,36230,128,0,36605:0:0:0:100:F6S.wav
192,192,36605,128,0,36980:0:0:0:100:D#6S_Eb6S.wav
320,192,36980,128,0,37355:0:0:0:100:A#5S_Bb5S_s.wav
64,192,37355,1,2,0:0:0:0:
448,192,37355,1,4,0:0:0:0:
192,192,37730,1,8,0:0:0:0:
320,192,37730,1,0,0:0:0:0:
448,192,38105,1,2,0:0:0:0:
64,192,38480,1,8,0:0:0:0:
192,192,38480,1,0,0:0:0:0:
320,192,38855,1,2,0:0:0:0:
192,192,39230,1,8,0:0:0:0:
448,192,39230,1,0,0:0:0:0:
64,192,39605,1,2,0:0:0:0:
320,192,39980,1,8,0:0:0:0:
448,192,39980,1,0,0:0:0:0:
64,192,40355,1,2,0:0:0:0:
192,192,40730,1,8,0:0:0:0:
320,192,40730,1,0,0:0:0:0:
448,192,41105,1,2,0:0:0:0:
64,192,41480,128,8,41855:0:0:0:0:
192,192,41480,1,0,0:0:0:0:
320,192,41855,128,2,42230:0:0:0:0:
448,192,42230,1,8,0:0:0:0:
192,192,42230,128,0,42605:0:0:0:0:
64,192,42605,1,2,0:0:0:0:
192,192,42980,1,8,0:0:0:0:
320,192,42980,1,0,0:0:0:0:
64,192,43355,1,2,0:0:0:0:
448,192,43355,1,4,0:0:0:0:
192,192,43730,1,8,0:0:0:0:
320,192,43730,1,0,0:0:0:0:
448,192,44105,1,2,0:0:0:0:
64,192,44480,1,8,0:0:0:0:
192,192,44480,1,0,0:0:0:0:
448,192,44855,1,2,0:0:0:0:
64,192,45230,1,8,0:0:0:0:
320,192,45230,1,0,0:0:0:0:
192,192,45605,1,2,0:0:0:0:
320,192,45980,1,8,0:0:0:0:
448,192,45980,1,0,0:0:0:0:
64,192,46355,1,2,0:0:0:0:
192,192,46355,1,4,0:0:0:0:
320,192,46730,1,8,0:0:0:0:
448,192,46730,1,0,0:0:0:0:
192,192,47105,1,2,0:0:0:0:
64,192,47480,1,8,0:0:0:0:
320,192,47480,1,0,0:0:0:0:
192,192,47855,1,2,0:0:0:0:
448,192,47855,1,4,0:0:0:0:
64,192,48230,1,8,0:0:0:0:
320,192,48230,1,0,0:0:0:0:
64,192,48605,1,2,0:0:0:0:
448,192,48605,1,4,0:0:0:0:
192,192,48980,1,8,0:0:0:0:
320,192,49167,1,2,0:0:0:0:
64,192,49355,128,2,49917:0:0:0:0:
448,192,49917,128,2,50480:0:0:0:0:
64,192,50480,1,2,0:0:0:0:
320,192,50667,128,2,51417:0:0:0:0:
192,192,51417,128,2,51792:0:0:0:0:
448,192,51792,1,2,0:0:0:0:
64,192,51980,1,2,0:0:0:0:
320,192,52167,1,0,0:0:0:0:
192,192,52355,128,2,52917:0:0:0:0:
448,192,52917,128,2,53480:0:0:0:0:
320,192,53480,1,0,0:0:0:0:
64,192,53667,128,2,54417:0:0:0:0:
320,192,54417,128,2,54792:0:0:0:0:
192,192,54792,1,2,0:0:0:0:
448,192,54980,1,2,0:0:0:0:
64,192,55167,1,0,0:0:0:0:
320,192,55355,128,2,55917:0:0:0:0:
448,192,55355,1,4,0:0:0:0:
64,192,55917,1,2,0:0:0:0:
192,192,55917,128,4,56480:0:0:0:0:
448,192,56480,1,2,0:0:0:0:
64,192,56667,128,4,57417:0:0:0:0:
320,192,56667,1,2,0:0:0:0:
192,192,57417,128,2,57792:0:0:0:0:
320,192,57792,1,2,0:0:0:0:
64,192,57980,1,8,0:0:0:0:
448,192,58167,1,0,0:0:0:0:
64,192,58355,1,2,0:0:0:0:
192,192,58355,1,4,0:0:0:0:
320,192,58730,1,8,0:0:0:0:
192,192,59105,1,2,0:0:0:0:
448,192,59105,1,4,0:0:0:0:
64,192,59480,1,8,0:0:0:0:
320,192,59855,1,2,0:0:0:0:
448,192,59855,128,4,61355:0:0:0:0:
192,192,60230,1,8,0:0:0:0:
64,192,60605,1,2,0:0:0:0:
320,192,60980,1,8,0:0:0:0:
192,192,61355,128,2,62105:0:0:0:0:
448,192,61730,1,8,0:0:0:0:
320,192,62105,128,2,62480:0:0:0:0:
64,192,62480,128,8,62855:0:0:0:0:
320,192,62855,1,2,0:0:0:0:
448,192,62855,1,4,0:0:0:0:
64,192,63230,1,8,0:0:0:0:
192,192,63230,1,0,0:0:0:0:
320,192,63605,1,2,0:0:0:0:
64,192,63980,1,8,0:0:0:0:
448,192,63980,1,0,0:0:0:0:
192,192,64355,1,2,0:0:0:0:
320,192,64730,1,8,0:0:0:0:
448,192,64730,1,0,0:0:0:0:
64,192,65105,1,2,0:0:0:0:
192,192,65480,1,8,0:0:0:0:
320,192,65480,1,0,0:0:0:0:
448,192,65855,1,2,0:0:0:0:
64,192,66230,1,8,0:0:0:0:
192,192,66230,1,0,0:0:0:0:
320,192,66605,1,2,0:0:0:0:
192,192,66980,1,8,0:0:0:0:
448,192,66980,1,0,0:0:0:0:
64,192,67355,1,2,0:0:0:0:
320,192,67730,1,8,0:0:0:0:
448,192,67730,1,0,0:0:0:0:
192,192,68105,1,2,0:0:0:0:
64,192,68480,1,8,0:0:0:0:
320,192,68480,1,0,0:0:0:0:
448,192,68855,1,2,0:0:0:0:
192,192,69230,1,8,0:0:0:0:
320,192,69230,1,0,0:0:0:0:
64,192,69605,1,2,0:0:0:0:
192,192,69980,1,8,0:0:0:0:
448,192,69980,1,0,0:0:0:0:
320,192,70355,1,2,0:0:0:0:
64,192,70730,1,8,0:0:0:0:
192,192,70730,1,0,0:0:0:0:
448,192,71105,1,2,0:0:0:0:
64,192,71480,1,8,0:0:0:0:
320,192,71480,1,0,0:0:0:0:
448,192,71855,128,2,72980:0:0:0:0:
192,192,72230,1,8,0:0:0:0:
320,192,72605,1,2,0:0:0:0:
64,192,72980,1,8,0:0:0:0:
192,192,72980,1,0,0:0:0:0:
320,192,73355,128,2,73730:0:0:0:0:
64,192,73730,1,8,0:0:0:0:
192,192,73730,128,0,74105:0:0:0:0:
448,192,74105,128,2,74480:0:0:0:0:
64,192,74480,128,8,74855:0:0:0:0:
192,192,74480,1,0,0:0:0:0:
320,192,74855,1,2,0:0:0:0:
448,192,74855,1,4,0:0:0:0:
64,192,75230,1,8,0:0:0:0:
192,192,75230,1,0,0:0:0:0:
448,192,75605,1,2,0:0:0:0:
64,192,75980,1,8,0:0:0:0:
320,192,75980,1,0,0:0:0:0:
192,192,76355,1,2,0:0:0:0:
320,192,76730,1,8,0:0:0:0:
448,192,76730,1,0,0:0:0:0:
64,192,77105,1,2,0:0:0:0:
192,192,77480,1,8,0:0:0:0:
448,192,77480,1,0,0:0:0:0:
320,192,77855,1,2,0:0:0:0:
64,192,78230,1,8,0:0:0:0:
192,192,78230,1,0,0:0:0:0:
320,192,78605,1,2,0:0:0:0:
64,192,78980,1,8,0:0:0:0:
448,192,78980,1,0,0:0:0:0:
192,192,79355,1,2,0:0:0:0:
320,192,79730,1,8,0:0:0:0:
448,192,79730,1,0,0:0:0:0:
192,192,80105,1,2,0:0:0:0:
64,192,80480,1,8,0:0:0:0:
320,192,80480,1,0,0:0:0:0:
192,192,80855,1,2,0:0:0:0:
448,192,80855,1,4,0:0:0:0:
64,192,81230,1,8,0:0:0:0:
320,192,81230,1,0,0:0:0:0:
448,192,81605,1,2,0:0:0:0:
192,192,81980,1,8,0:0:0:0:
64,192,81980,1,0,0:0:0:0:
320,192,82355,1,2,0:0:0:0:
448,192,82355,1,4,0:0:0:0:
64,192,82730,1,8,0:0:0:0:
192,192,82730,1,0,0:0:0:0:
320,192,83105,1,2,0:0:0:0:
192,192,83480,1,8,0:0:0:0:
448,192,83480,1,0,0:0:0:0:
64,192,83855,1,2,0:0:0:0:
320,192,83855,128,4,84980:0:0:0:0:
448,192,84230,1,8,0:0:0:0:
192,192,84605,1,6,0:0:0:0:
64,192,84980,1,8,0:0:0:0:
448,192,84980,1,0,0:0:0:0:
320,192,85355,128,2,85730:0:0:0:0:
192,192,85355,1,4,0:0:0:0:
64,192,85730,128,8,86105:0:0:0:0:
320,192,86105,1,2,0:0:0:0:
448,192,86105,128,4,86480:0:0:0:0:
192,192,86480,128,8,86855:0:0:0:0:
64,192,86855,1,6,0:0:0:0:
448,192,86855,1,0,0:0:0:100:G#5S_Ab5S.wav
192,192,87605,1,0,0:0:0:100:G#5S_Ab5S.wav
320,192,87980,1,0,0:0:0:100:C6S.wav
64,192,88355,1,0,0:0:0:100:A#5S_Bb5S.wav
448,192,88636,1,0,0:0:0:100:G#5S_Ab5S.wav
192,192,88917,1,0,0:0:0:100:G5S.wav
448,192,89855,1,0,0:0:0:100:A#5S_Bb5S.wav
64,192,90605,1,0,0:0:0:100:A#5S_Bb5S.wav
320,192,90886,1,0,0:0:0:100:C6S.wav
192,192,91167,1,0,0:0:0:100:C#6S_Db6S_s.wav
448,192,91355,1,0,0:0:0:100:C6S.wav
64,192,91636,1,0,0:0:0:100:A#5S_Bb5S.wav
320,192,91917,1,0,0:0:0:100:G#5S_Ab5S.wav
448,192,92480,1,0,0:0:0:100:G5S.wav
192,192,92855,1,0,0:0:0:100:G#5S_Ab5S.wav
64,192,93417,1,0,0:0:0:100:C6S.wav
448,192,93792,1,0,0:0:0:100:A#5S_Bb5S_s.wav
192,192,93980,1,0,0:0:0:100:G#5S_Ab5S_s.wav
64,192,94355,1,0,0:0:0:100:D#5S_Eb5S_s.wav
320,192,94542,1,0,0:0:0:100:A#4S_Bb4S_s.wav
192,192,94730,1,0,0:0:0:100:D#5S_Eb5S_s.wav
448,192,94917,1,0,0:0:0:100:D#5S_Eb5S.wav
64,192,95292,1,0,0:0:0:100:F5S_s.wav
320,192,95480,1,0,0:0:0:100:F5S_s.wav
192,192,95667,1,0,0:0:0:100:G5S_s.wav
448,192,95855,128,0,101855:0:0:0:100:F5S.wav
