osu file format v14

[General]
AudioFilename: senya-Clouds over the Moon Wind over the Flowers (Touhou Fantasy Kaleidoscope OP2-3) (www.myfreemp3.cc).mp3
AudioLeadIn: 1355
PreviewTime: 62105
Countdown: 0
SampleSet: Soft
StackLeniency: 0.7
Mode: 0
LetterboxInBreaks: 0
WidescreenStoryboard: 0

[Editor]
DistanceSpacing: 1
BeatDivisor: 4
GridSize: 4
TimelineZoom: 1

[Metadata]
Title:Tsuki ni Murakumo Hana ni Kaze (PV ver.)
TitleUnicode:月に叢雲華に風 (PV ver.)
Artist:senya
ArtistUnicode:senya
Creator:ByBy
Version:Easy
Source:東方Project
Tags:komeji piano guitar Clouds Over the Moon, and Wind Over the Flowers Profusion of Flowers senka ryouran kamase-tora autobahn yuuhei mayumi morinaga last remote extra stage theme 東方地霊殿 Touhou Chireiden Subterranean Animism collab collaboration KittyAdventure gokugohan12468 Satellite Dailycare -Mo- ByBy_ChAn ByBy13
BeatmapID:655898
BeatmapSetID:291264

[Difficulty]
HPDrainRate:3
CircleSize:2.7
OverallDifficulty:2
ApproachRate:3
SliderMultiplier:0.9
SliderTickRate:1

[Events]
//Background and Video events
0,0,"Komeiji.Koishi.full.1979476.jpg",0,0
//Break Periods
//Storyboard Layer 0 (Background)
//Storyboard Layer 1 (Fail)
//Storyboard Layer 2 (Pass)
//Storyboard Layer 3 (Foreground)
//Storyboard Sound Samples

[TimingPoints]
1355,375,4,2,2,50,1,0
10355,-100,4,2,2,50,0,0
13355,-100,4,2,2,70,0,0
19355,-100,4,2,2,70,0,0
23855,-100,4,2,2,60,0,0
24980,-100,4,2,2,90,0,0
25355,-100,4,2,2,70,0,0
37355,-100,4,2,2,70,0,0
46355,-100,4,2,2,60,0,0
49355,-100,4,2,2,75,0,0
62855,-100,4,2,2,80,0,1
74480,-100,4,2,2,80,0,0
74855,-100,4,2,2,80,0,1
80855,-100,4,2,2,80,0,1
82730,-100,4,2,2,80,0,1
86855,-100,4,2,2,70,0,0
96980,-100,4,2,2,15,0,0
98855,-100,4,2,2,10,0,0
100167,-100,4,2,2,5,0,0

[Colours]
Combo1 : 91,91,255
Combo2 : 255,157,255
Combo3 : 0,157,157

[HitObjects]
161,284,1355,6,0,P|288:298|339:257,1,180,6|0,0:0|0:0,0:0:0:0:
354,186,2480,1,0,0:0:0:0:
310,107,2855,2,0,P|223:86|182:107,2,135,2|0|0,0:0|0:0|0:0,0:0:0:0:
247,171,4355,6,0,B|264:218|241:249|241:249|207:300|241:358,1,180,2|0,0:0|0:0,0:0:0:0:
312,299,5480,1,0,0:0:0:0:
386,349,5855,2,0,L|479:347,2,90,2|0|0,0:0|0:0|0:0,0:0:0:0:
312,299,6980,1,0,0:0:0:0:
360,222,7355,6,0,P|426:237|488:209,2,135,2|0|0,0:0|0:0|0:0,0:0:0:0:
308,147,8855,2,0,P|241:113|146:149,1,180,2|0,0:0|0:0,0:0:0:0:
107,227,9980,1,2,0:0:0:0:
256,192,10355,12,0,11855,0:0:0:0:
258,128,13355,6,0,L|418:122,2,135,4|0|8,0:1|0:0|0:0,0:0:0:0:
193,191,14855,2,0,P|180:245|188:291,1,90,0|8,0:0|0:0,0:0:0:0:
250,339,15605,2,0,L|349:331,1,90,0|8,0:0|0:0,0:0:0:0:
429,325,16355,5,0,0:0:0:0:
468,244,16730,1,8,0:0:0:0:
426,164,17105,2,0,P|364:144|287:168,2,135,0|0|8,0:0|0:0|0:0,0:0:0:0:
456,82,18605,2,0,P|404:63|359:58,1,90,4|8,0:0|0:0,0:0:0:0:
280,66,19355,6,0,P|219:78|134:53,2,135,4|0|8,0:0|0:0|0:0,0:0:0:0:
359,22,20855,1,0,0:0:0:0:
431,75,21230,2,0,L|449:182,2,90,8|0|8,0:0|0:0|0:0,0:0:0:0:
346,106,22355,6,0,L|367:247,1,135,4|0,0:0|0:0,0:0:0:0:
266,330,23480,1,8,0:0:0:0:
212,258,23855,2,0,P|210:204|159:145,2,135,4|0|8,0:0|0:0|0:0,0:0:0:0:
266,330,25355,6,0,P|354:329|343:175,1,270,4|0,0:0|0:0,0:0:0:0:
266,159,26855,2,0,B|202:149|202:149|116:173,2,135,2|0|0,0:0|0:0|0:0,0:0:0:0:
319,86,28355,6,0,B|379:72|379:72|460:99,2,135,2|0|2,0:0|0:0|0:0,0:0:0:0:
267,159,29855,2,0,P|195:198|142:131,1,180,2|2,0:0|0:0,0:0:0:0:
73,73,30980,1,0,0:0:0:0:
22,147,31355,6,0,P|31:208|20:288,2,135,2|0|0,0:0|0:0|0:0,0:0:0:0:
73,73,32855,2,0,P|119:47|174:44,1,90,2|0,0:0|0:0,0:0:0:0:
230,91,33605,1,2,0:0:0:0:
317,72,33980,1,0,0:0:0:0:
357,152,34355,6,0,P|368:197|310:282,2,135,2|0|0,0:0|0:0|0:0,0:0:0:0:
277,195,35855,2,0,P|197:169|99:201,2,180,2|2|4,0:0|0:0|0:0,0:0:0:0:
329,268,37730,5,8,0:0:0:0:
407,224,38105,2,0,P|403:174|372:126,1,90,0|8,0:0|0:0,0:0:0:0:
318,78,38855,2,0,P|255:97|189:68,2,135,2|0|8,0:0|0:0|0:0,0:0:0:0:
402,46,40355,6,0,L|474:122,1,90,4|8,0:0|0:0,0:0:0:0:
454,200,41105,2,0,L|386:269,1,90,0|8,0:0|0:0,0:0:0:0:
440,339,41855,2,0,L|505:268,2,90,4|8|4,0:0|0:0|0:0,0:0:0:0:
350,351,42980,1,8,0:0:0:0:
260,353,43355,6,0,P|203:354|108:268,1,180,2|8,0:0|0:0,0:0:0:0:
89,191,44480,1,0,0:0:0:0:
178,200,44855,2,0,P|234:223|267:255,1,90,0|8,0:0|0:0,0:0:0:0:
303,319,45605,2,0,L|392:289,1,90,0|8,0:0|0:0,0:0:0:0:
450,224,46355,6,0,P|393:249|412:122,1,270,4|8,0:0|0:0,0:0:0:0:
380,35,47855,2,0,P|330:52|113:30,1,270,4|12,0:0|0:0,0:0:0:0:
107,121,49355,6,0,P|171:140|257:148,2,135,4|4|0,1:0|0:0|0:0,0:0:0:0:
18,136,50855,2,0,P|17:116|56:45,1,90
134,40,51605,2,0,P|198:51|226:41,1,90,0|8,0:0|0:0,0:0:0:0:
310,40,52355,6,0,B|337:126|337:126|317:183,2,135,4|4|0,0:0|1:0|0:0,0:0:0:0:
222,20,53855,1,0,0:0:0:0:
156,81,54230,1,0,0:0:0:0:
181,167,54605,2,0,L|147:261,1,90,0|8,0:0|0:0,0:0:0:0:
60,261,55355,6,0,P|70:210|33:127,1,135,4|4,0:0|1:0,0:0:0:0:
1,53,56292,1,0,0:0:0:0:
90,57,56667,2,0,P|251:61|295:117,1,225,4|0,1:0|0:0,0:0:0:0:
300,192,57980,1,8,0:0:0:0:
380,231,58355,6,0,P|406:173|363:56,1,180,4|4,1:0|1:0,0:0:0:0:
294,22,59480,1,8,0:0:0:0:
245,97,59855,2,0,L|146:104,1,90,4|8,1:0|0:0,0:0:0:0:
104,177,60605,2,0,P|121:237|106:299,1,90,0|8,0:0|0:0,0:0:0:0:
193,313,61355,6,0,P|264:287|300:167,1,180,4|12,3:0|2:0,0:0:0:0:
289,107,62480,1,2,3:1:0:0:
373,76,62855,6,0,P|401:145|391:254,1,180,6|0,0:0|0:0,0:0:0:0:
320,302,63980,1,8,0:0:0:0:
252,242,64355,2,0,B|182:208|182:208|113:210,2,135,4|0|8,0:0|0:0|0:0,0:0:0:0:
320,302,65855,6,0,P|401:351|481:324,1,180,4|0,0:0|0:0,0:0:0:0:
496,239,66980,1,8,0:0:0:0:
443,165,67355,2,0,P|385:132|304:135,2,135,0|8|8,0:0|0:0|0:0,0:0:0:0:
416,250,68855,6,0,P|400:295|431:374,2,135,4|8|0,0:0|0:0|0:0,0:0:0:0:
443,164,70355,2,0,P|463:93|390:16,1,180,4|0,0:0|0:0,0:0:0:0:
308,18,71480,1,8,0:0:0:0:
227,59,71855,6,0,P|201:131|351:188,2,270,4|8|0,0:0|0:0|0:0,0:0:0:0:
289,123,74480,1,8,0:0:0:0:
378,109,74855,6,0,P|432:178|397:269,1,180,4|0,0:0|0:0,0:0:0:0:
330,307,75980,1,8,0:0:0:0:
249,347,76355,2,0,P|178:339|135:274,2,135,0|0|8,0:0|0:0|0:0,0:0:0:0:
225,259,77855,6,0,P|227:198|347:134,1,180
405,142,78980,1,8,0:0:0:0:
439,224,79355,2,0,L|334:333,2,135,0|2|8,0:0|0:0|0:0,0:0:0:0:
405,142,80855,6,0,P|387:91|428:9,2,135,4|0|0,0:0|0:0|0:0,0:0:0:0:
342,207,82355,1,4,0:0:0:0:
270,152,82730,1,8,0:0:0:0:
180,153,83105,2,0,P|168:204|177:252,1,90,0|8,0:0|0:0,0:0:0:0:
213,321,83855,6,0,B|301:337|301:337|400:316,1,180,4|4,0:0|0:0,0:0:0:0:
473,284,84980,1,8,0:0:0:0:
438,200,85355,2,0,B|395:101|395:101|319:155|228:113,1,270,4|8,0:0|0:0,0:0:0:0:
151,110,86855,6,0,P|81:117|198:224,1,360,4|2,0:0|0:0,0:0:0:0:
252,74,89105,1,0,0:0:0:0:
358,219,89855,6,0,P|297:278|192:266,1,180,2|0,0:0|0:0,0:0:0:0:
130,227,90980,1,0,0:0:0:0:
70,159,91354,2,0,P|84:106|46:33,2,135,2|2|2,0:0|0:0|0:0,0:0:0:0:
130,227,92855,6,0,P|175:191|194:116,2,135,0|2|0,0:0|0:0|0:0,0:0:0:0:
166,309,94355,2,0,P|231:293|296:307,1,135,2|0,0:0|0:0,0:0:0:0:
361,368,95292,2,0,L|506:360,1,135,0|2,0:0|0:0,0:0:0:0:
256,192,96042,12,0,100167,0:0:0:0:
