osu file format v14

[General]
AudioFilename: audio.mp3
AudioLeadIn: 0
PreviewTime: 62327
Countdown: 0
SampleSet: Normal
StackLeniency: 0.7
Mode: 1
LetterboxInBreaks: 0
WidescreenStoryboard: 0

[Editor]
DistanceSpacing: 1.2
BeatDivisor: 4
GridSize: 32
TimelineZoom: 1.1

[Metadata]
Title:Tsuki ni Murakumo Hana ni Kaze (PV ver.)
TitleUnicode:月に叢雲華に風 (PV ver.)
Artist:senya
ArtistUnicode:senya
Creator:BlackBq
Version:Oni
Source:東方地霊殿 ~ Subterranean Animism.
Tags:Touhou 東方Project 幻想万華鏡 Gensou Mangekyou 紅霧異変の章 Koumu Ihen no Shou ラストリモート last remote かませ虎 Kamase Tora Iceon 満福神社 Manfuku Jinjya zun senya moimoi MAKI 森永真由美 Morinaga Mayumi maimai pink plus 櫻 vocal japanese jpop j-pop video game 太鼓の達人キミドリver Taiko no Tatsujin Kimidori Version th11 こいし koishi 古明地 komeiji 幽閉サテライト Yuuhei Satellite Fantasy Kaleidoscope ~The Memories of Phantasm~ Team Shanghai Alice
BeatmapID:2581197
BeatmapSetID:1241563

[Difficulty]
HPDrainRate:5
CircleSize:2
OverallDifficulty:5
ApproachRate:10
SliderMultiplier:1.4
SliderTickRate:1

[Events]
//Background and Video events
0,0,"BG.jpg",0,85
//Break Periods
//Storyboard Layer 0 (Background)
//Storyboard Layer 1 (Fail)
//Storyboard Layer 2 (Pass)
//Storyboard Layer 3 (Foreground)
//Storyboard Layer 4 (Overlay)
//Storyboard Sound Samples

[TimingPoints]
1577,375,4,1,0,60,1,0
1577,-125,4,1,0,60,0,0
7577,-111.111111111111,4,1,0,80,0,0
13577,-100,4,1,0,100,0,0
25577,-108.695652173913,4,1,0,80,0,0
26327,-114.942528735632,4,1,0,60,0,0
27077,-125,4,1,0,80,0,0
36827,-117.647058823529,4,1,0,80,0,0
37014,-114.942528735632,4,1,0,100,0,0
37108,-112.359550561798,4,1,0,100,0,0
37202,-109.89010989011,4,1,0,100,0,0
37577,-100,4,1,0,100,0,0
63077,-90.9090909090909,4,1,0,100,0,1
87077,-90.9090909090909,4,1,0,100,0,0
87827,-125,4,1,0,50,0,0
96452,-100,4,1,0,40,0,0
96827,-100,4,1,0,30,0,0
97202,-100,4,1,0,20,0,0
97577,-100,4,1,0,10,0,0
97952,-100,4,1,0,5,0,0

[HitObjects]
256,192,1577,5,0,0:0:0:0:
256,192,2327,1,0,0:0:0:0:
256,192,2702,1,8,0:0:0:0:
256,192,3077,1,8,0:0:0:0:
256,192,3358,1,8,0:0:0:0:
256,192,3639,1,0,0:0:0:0:
256,192,4577,1,8,0:0:0:0:
256,192,5327,1,0,0:0:0:0:
256,192,5608,1,8,0:0:0:0:
256,192,5889,1,8,0:0:0:0:
256,192,6077,1,8,0:0:0:0:
256,192,6358,1,0,0:0:0:0:
256,192,6639,1,0,0:0:0:0:
256,192,7202,1,0,0:0:0:0:
256,192,7577,1,8,0:0:0:0:
256,192,8139,1,8,0:0:0:0:
256,192,8514,1,8,0:0:0:0:
256,192,8702,1,8,0:0:0:0:
256,192,8889,1,0,0:0:0:0:
256,192,9077,1,8,0:0:0:0:
256,192,9264,1,0,0:0:0:0:
256,192,9452,1,8,0:0:0:0:
256,192,10014,1,0,0:0:0:0:
256,192,10202,1,8,0:0:0:0:
256,192,10389,1,8,0:0:0:0:
256,192,10577,12,0,13202,0:0:0:0:
416,96,13577,5,4,0:0:0:0:
265,190,13858,1,0,0:0:0:0:
265,190,13952,1,8,0:0:0:0:
256,192,14139,1,8,0:0:0:0:
256,192,14327,1,0,0:0:0:0:
265,190,14514,1,8,0:0:0:0:
256,192,14702,1,0,0:0:0:0:
256,192,14889,1,8,0:0:0:0:
265,190,14983,1,8,0:0:0:0:
265,190,15077,1,0,0:0:0:0:
256,192,15264,1,0,0:0:0:0:
256,192,15452,1,8,0:0:0:0:
263,193,15639,1,8,0:0:0:0:
263,193,15827,1,0,0:0:0:0:
256,192,15920,1,0,0:0:0:0:
254,192,16014,1,8,0:0:0:0:
256,192,16202,1,0,0:0:0:0:
256,192,16389,1,8,0:0:0:0:
263,193,16764,1,8,0:0:0:0:
256,192,16952,1,0,0:0:0:0:
256,192,17139,1,8,0:0:0:0:
256,192,17233,1,8,0:0:0:0:
256,192,17327,1,0,0:0:0:0:
251,192,17608,1,0,0:0:0:0:
256,192,17702,1,8,0:0:0:0:
261,180,17889,1,8,0:0:0:0:
262,186,18077,1,0,0:0:0:0:
256,192,18264,1,0,0:0:0:0:
256,192,18452,1,8,0:0:0:0:
256,192,18639,1,8,0:0:0:0:
256,192,18733,1,8,0:0:0:0:
256,192,18827,1,0,0:0:0:0:
256,192,19014,1,8,0:0:0:0:
256,192,19202,1,0,0:0:0:0:
256,192,19295,1,0,0:0:0:0:
256,192,19389,1,8,0:0:0:0:
384,96,19577,1,4,0:0:0:0:
256,192,19952,1,0,0:0:0:0:
256,192,20139,1,0,0:0:0:0:
256,183,20233,1,0,0:0:0:0:
256,192,20327,1,8,0:0:0:0:
256,192,20514,1,8,0:0:0:0:
256,192,20702,1,0,0:0:0:0:
256,192,20889,1,8,0:0:0:0:
256,192,21077,1,0,0:0:0:0:
256,192,21264,1,8,0:0:0:0:
256,192,21358,1,8,0:0:0:0:
256,192,21452,1,0,0:0:0:0:
256,183,21639,1,8,0:0:0:0:
256,183,22014,1,8,0:0:0:0:
256,183,22202,1,0,0:0:0:0:
256,192,22389,1,0,0:0:0:0:
384,96,22577,1,4,0:0:0:0:
256,192,22952,1,8,0:0:0:0:
384,96,23139,1,4,0:0:0:0:
256,192,23514,1,0,0:0:0:0:
384,96,23702,1,12,0:0:0:0:
256,192,24077,1,0,0:0:0:0:
384,96,24264,1,12,0:0:0:0:
256,192,24452,1,0,0:0:0:0:
256,192,24545,1,0,0:0:0:0:
256,192,24639,1,0,0:0:0:0:
384,96,24827,1,12,0:0:0:0:
256,192,25014,1,0,0:0:0:0:
384,96,25202,1,12,0:0:0:0:
384,96,25577,1,4,0:0:0:0:
256,192,26327,1,8,0:0:0:0:
251,188,27077,1,0,0:0:0:0:
244,189,28202,1,0,0:0:0:0:
244,189,28389,1,8,0:0:0:0:
251,188,28577,1,0,0:0:0:0:
256,192,28952,1,0,0:0:0:0:
256,192,29139,1,8,0:0:0:0:
251,188,29702,1,8,0:0:0:0:
251,188,30077,1,0,0:0:0:0:
256,192,31202,1,0,0:0:0:0:
256,192,31389,1,8,0:0:0:0:
250,186,31577,1,8,0:0:0:0:
256,192,32139,1,8,0:0:0:0:
256,192,32702,1,0,0:0:0:0:
250,186,33077,1,0,0:0:0:0:
250,186,33452,1,8,0:0:0:0:
250,186,33827,1,8,0:0:0:0:
256,192,34202,1,8,0:0:0:0:
250,186,34577,1,0,0:0:0:0:
250,186,36077,1,8,0:0:0:0:
250,186,36827,1,8,0:0:0:0:
256,192,37014,1,0,0:0:0:0:
256,192,37108,1,0,0:0:0:0:
256,192,37202,1,8,0:0:0:0:
384,96,37577,1,4,0:0:0:0:
256,192,37952,1,8,0:0:0:0:
256,192,38139,1,0,0:0:0:0:
256,192,38327,1,8,0:0:0:0:
256,192,38420,1,8,0:0:0:0:
256,192,38514,1,0,0:0:0:0:
256,192,38702,1,0,0:0:0:0:
256,192,38889,1,8,0:0:0:0:
256,192,39077,1,0,0:0:0:0:
256,192,39264,1,0,0:0:0:0:
256,192,39358,1,0,0:0:0:0:
256,192,39452,1,8,0:0:0:0:
256,192,39639,1,0,0:0:0:0:
256,192,40014,1,8,0:0:0:0:
256,192,40108,1,8,0:0:0:0:
256,192,40202,1,8,0:0:0:0:
256,192,40389,1,0,0:0:0:0:
256,192,40577,1,8,0:0:0:0:
256,192,40764,1,0,0:0:0:0:
256,192,40952,1,0,0:0:0:0:
256,192,41139,1,8,0:0:0:0:
256,192,41327,1,0,0:0:0:0:
256,192,41420,1,0,0:0:0:0:
256,192,41514,1,8,0:0:0:0:
256,192,41702,1,8,0:0:0:0:
256,192,41889,1,0,0:0:0:0:
256,192,42077,1,8,0:0:0:0:
256,192,42452,1,0,0:0:0:0:
256,192,42639,1,0,0:0:0:0:
256,192,42827,1,8,0:0:0:0:
256,192,43202,1,8,0:0:0:0:
256,192,43389,1,0,0:0:0:0:
384,96,43577,1,12,0:0:0:0:
256,192,43764,1,8,0:0:0:0:
256,192,43952,1,0,0:0:0:0:
256,192,44139,1,8,0:0:0:0:
256,192,44233,1,8,0:0:0:0:
256,192,44327,1,0,0:0:0:0:
256,192,44514,1,8,0:0:0:0:
256,192,44702,1,0,0:0:0:0:
195,199,44795,1,0,0:0:0:0:
256,192,44889,1,8,0:0:0:0:
256,192,45264,1,8,0:0:0:0:
256,192,45452,1,0,0:0:0:0:
256,192,45545,1,0,0:0:0:0:
256,192,45639,1,8,0:0:0:0:
256,192,45827,1,8,0:0:0:0:
256,192,46014,1,8,0:0:0:0:
256,192,46108,1,8,0:0:0:0:
116,157,46202,1,0,0:0:0:0:
256,192,46389,1,0,0:0:0:0:
384,96,46577,1,12,0:0:0:0:
256,192,46952,1,0,0:0:0:0:
256,192,47139,1,8,0:0:0:0:
256,192,47233,1,8,0:0:0:0:
256,192,47327,1,0,0:0:0:0:
256,192,47514,1,8,0:0:0:0:
256,192,47702,1,0,0:0:0:0:
256,192,47889,1,0,0:0:0:0:
384,96,48077,1,12,0:0:0:0:
256,192,48452,1,0,0:0:0:0:
256,192,48545,1,0,0:0:0:0:
256,192,48639,1,0,0:0:0:0:
384,96,48827,1,12,0:0:0:0:
256,192,49014,1,0,0:0:0:0:
384,96,49202,1,12,0:0:0:0:
384,96,49577,1,4,0:0:0:0:
256,192,49952,1,0,0:0:0:0:
384,96,50139,1,12,0:0:0:0:
256,192,50514,1,0,0:0:0:0:
384,96,50702,1,12,0:0:0:0:
384,96,50889,1,12,0:0:0:0:
256,192,51264,1,0,0:0:0:0:
256,192,51639,1,8,0:0:0:0:
256,192,52014,1,0,0:0:0:0:
256,192,52202,1,0,0:0:0:0:
256,192,52389,1,8,0:0:0:0:
384,96,52577,1,4,0:0:0:0:
256,192,52952,1,0,0:0:0:0:
384,96,53139,1,12,0:0:0:0:
256,192,53514,1,0,0:0:0:0:
384,96,53702,1,12,0:0:0:0:
384,96,53889,1,12,0:0:0:0:
256,192,54264,1,0,0:0:0:0:
256,192,54639,1,8,0:0:0:0:
256,192,55014,1,8,0:0:0:0:
256,192,55202,1,8,0:0:0:0:
256,192,55389,1,0,0:0:0:0:
384,96,55577,1,4,0:0:0:0:
256,192,55952,1,8,0:0:0:0:
384,96,56139,1,4,0:0:0:0:
256,192,56514,1,0,0:0:0:0:
384,96,56702,1,12,0:0:0:0:
384,96,56889,1,12,0:0:0:0:
256,192,57264,1,8,0:0:0:0:
256,192,57452,1,0,0:0:0:0:
256,192,57639,1,8,0:0:0:0:
256,192,58014,1,0,0:0:0:0:
256,192,58202,1,8,0:0:0:0:
256,192,58389,1,8,0:0:0:0:
388,93,58577,1,4,0:0:0:0:
256,192,58858,1,0,0:0:0:0:
256,192,59139,1,8,0:0:0:0:
384,96,59327,1,12,0:0:0:0:
256,192,59608,1,0,0:0:0:0:
256,192,59889,1,8,0:0:0:0:
384,96,60077,5,4,0:0:0:0:
256,192,60452,1,8,0:0:0:0:
384,96,60639,1,4,0:0:0:0:
256,192,61014,1,8,0:0:0:0:
384,96,61202,1,4,0:0:0:0:
384,96,61577,1,12,0:0:0:0:
256,192,62327,1,0,0:0:0:0:
256,192,62702,1,8,0:0:0:0:
384,96,63077,5,4,0:0:0:0:
256,192,63452,1,0,0:0:0:0:
256,192,63639,1,8,0:0:0:0:
256,192,63827,1,0,0:0:0:0:
256,192,64014,1,0,0:0:0:0:
256,192,64108,1,0,0:0:0:0:
256,192,64202,1,8,0:0:0:0:
256,192,64389,1,8,0:0:0:0:
256,192,64577,1,0,0:0:0:0:
256,192,64764,1,8,0:0:0:0:
256,192,64858,1,8,0:0:0:0:
256,192,64952,1,0,0:0:0:0:
256,192,65139,1,0,0:0:0:0:
256,192,65327,1,0,0:0:0:0:
256,192,65420,1,0,0:0:0:0:
256,192,65514,1,8,0:0:0:0:
256,192,65608,1,8,0:0:0:0:
256,192,65702,1,0,0:0:0:0:
256,192,65889,1,8,0:0:0:0:
256,192,66077,1,0,0:0:0:0:
256,192,66452,1,0,0:0:0:0:
256,192,66639,1,8,0:0:0:0:
256,192,66827,1,0,0:0:0:0:
256,192,67014,1,8,0:0:0:0:
256,192,67108,1,8,0:0:0:0:
256,192,67202,1,0,0:0:0:0:
256,192,67389,1,8,0:0:0:0:
256,192,67577,1,8,0:0:0:0:
256,192,67764,1,0,0:0:0:0:
256,192,67858,1,0,0:0:0:0:
256,192,67952,1,8,0:0:0:0:
256,192,68139,1,8,0:0:0:0:
256,192,68327,1,0,0:0:0:0:
256,192,68514,1,8,0:0:0:0:
256,192,68702,1,0,0:0:0:0:
256,192,68795,1,0,0:0:0:0:
256,192,68889,1,0,0:0:0:0:
256,192,69077,1,8,0:0:0:0:
256,192,69452,1,0,0:0:0:0:
256,192,69639,1,8,0:0:0:0:
256,192,69733,1,8,0:0:0:0:
256,192,69827,1,0,0:0:0:0:
256,192,70014,1,8,0:0:0:0:
256,192,70202,1,0,0:0:0:0:
256,192,70295,1,0,0:0:0:0:
256,192,70389,1,8,0:0:0:0:
256,192,70577,1,0,0:0:0:0:
256,192,70764,1,0,0:0:0:0:
256,192,70952,1,8,0:0:0:0:
256,192,71327,1,0,0:0:0:0:
256,192,71514,1,0,0:0:0:0:
256,192,71608,1,0,0:0:0:0:
256,192,71702,1,8,0:0:0:0:
256,192,71889,1,8,0:0:0:0:
256,192,72077,1,0,0:0:0:0:
256,192,72264,1,8,0:0:0:0:
256,192,72358,1,8,0:0:0:0:
256,192,72452,1,0,0:0:0:0:
256,192,72639,1,8,0:0:0:0:
256,192,72827,1,0,0:0:0:0:
256,192,73014,1,8,0:0:0:0:
256,192,73202,1,0,0:0:0:0:
256,192,73295,1,0,0:0:0:0:
256,192,73389,1,8,0:0:0:0:
256,192,73577,1,0,0:0:0:0:
256,192,73764,1,8,0:0:0:0:
241,275,73858,1,8,0:0:0:0:
256,192,73952,1,8,0:0:0:0:
256,192,74139,1,0,0:0:0:0:
256,192,74327,1,0,0:0:0:0:
256,192,74514,1,8,0:0:0:0:
384,96,75077,1,4,0:0:0:0:
256,192,75452,1,0,0:0:0:0:
256,192,75639,1,8,0:0:0:0:
256,192,75827,1,0,0:0:0:0:
256,192,76014,1,0,0:0:0:0:
256,192,76108,1,0,0:0:0:0:
256,192,76202,1,8,0:0:0:0:
256,192,76389,1,8,0:0:0:0:
256,192,76577,1,0,0:0:0:0:
256,192,76764,1,0,0:0:0:0:
256,192,76858,1,0,0:0:0:0:
256,192,76952,1,8,0:0:0:0:
256,192,77139,1,0,0:0:0:0:
256,192,77327,1,0,0:0:0:0:
256,192,77420,1,0,0:0:0:0:
256,192,77514,1,8,0:0:0:0:
256,192,77608,1,8,0:0:0:0:
256,192,77702,1,0,0:0:0:0:
256,192,77889,1,0,0:0:0:0:
256,192,78077,1,8,0:0:0:0:
256,192,78452,1,8,0:0:0:0:
256,192,78639,1,0,0:0:0:0:
256,192,78827,1,8,0:0:0:0:
256,192,79014,1,8,0:0:0:0:
256,192,79108,1,8,0:0:0:0:
256,192,79202,1,0,0:0:0:0:
256,192,79389,1,8,0:0:0:0:
256,192,79577,1,8,0:0:0:0:
256,192,79764,1,0,0:0:0:0:
256,192,79858,1,0,0:0:0:0:
256,192,79952,1,8,0:0:0:0:
256,192,80139,1,0,0:0:0:0:
256,192,80327,1,8,0:0:0:0:
256,192,80514,1,0,0:0:0:0:
256,192,80608,1,0,0:0:0:0:
256,192,80702,1,8,0:0:0:0:
256,192,80889,1,0,0:0:0:0:
272,172,81077,1,12,0:0:0:0:
256,192,81452,1,0,0:0:0:0:
256,192,81639,1,8,0:0:0:0:
256,192,81733,1,8,0:0:0:0:
256,192,81827,1,0,0:0:0:0:
256,192,82014,1,8,0:0:0:0:
256,192,82202,1,0,0:0:0:0:
256,192,82295,1,0,0:0:0:0:
256,192,82389,1,8,0:0:0:0:
376,94,82577,1,12,0:0:0:0:
256,192,82764,1,0,0:0:0:0:
256,192,82952,1,8,0:0:0:0:
256,192,83327,1,8,0:0:0:0:
256,192,83514,1,0,0:0:0:0:
256,192,83702,1,0,0:0:0:0:
256,192,83889,1,8,0:0:0:0:
384,96,84077,1,4,0:0:0:0:
256,192,84452,1,0,0:0:0:0:
256,192,84545,1,0,0:0:0:0:
256,192,84639,1,0,0:0:0:0:
384,96,84827,1,12,0:0:0:0:
256,192,85014,1,0,0:0:0:0:
256,192,85202,1,8,0:0:0:0:
256,192,85295,1,8,0:0:0:0:
256,192,85389,1,8,0:0:0:0:
384,96,85577,5,12,0:0:0:0:
256,192,85764,1,0,0:0:0:0:
256,192,85952,5,8,0:0:0:0:
256,192,86045,5,8,0:0:0:0:
256,192,86139,5,0,0:0:0:0:
256,192,86233,1,0,0:0:0:0:
256,192,86327,1,8,0:0:0:0:
256,192,86514,5,8,0:0:0:0:
256,192,86608,5,8,0:0:0:0:
256,192,86702,1,0,0:0:0:0:
256,192,86795,5,0,0:0:0:0:
256,192,86889,5,0,0:0:0:0:
256,192,86983,5,0,0:0:0:0:
256,192,87077,1,8,0:0:0:0:
256,192,87827,5,0,0:0:0:0:
256,192,88202,1,8,0:0:0:0:
256,192,88577,1,8,0:0:0:0:
256,192,88858,1,8,0:0:0:0:
256,192,89139,1,0,0:0:0:0:
256,192,90077,1,8,0:0:0:0:
256,192,90827,1,0,0:0:0:0:
256,192,91108,1,8,0:0:0:0:
256,192,91389,1,8,0:0:0:0:
256,192,91577,1,8,0:0:0:0:
256,192,91858,1,0,0:0:0:0:
256,192,92139,1,0,0:0:0:0:
256,192,92702,1,0,0:0:0:0:
256,192,93077,1,8,0:0:0:0:
256,192,93639,1,8,0:0:0:0:
256,192,94014,1,8,0:0:0:0:
256,192,94202,1,8,0:0:0:0:
256,192,94389,1,0,0:0:0:0:
256,192,94577,1,8,0:0:0:0:
256,192,94764,1,0,0:0:0:0:
256,192,94952,1,8,0:0:0:0:
256,192,95139,1,0,0:0:0:0:
256,192,95514,1,0,0:0:0:0:
256,192,95702,1,8,0:0:0:0:
256,192,95889,1,8,0:0:0:0:
256,192,96077,12,0,98702,0:0:0:0:
