osu file format v14

[General]
AudioFilename: audio.mp3
AudioLeadIn: 0
PreviewTime: 62327
Countdown: 0
SampleSet: Normal
StackLeniency: 0.7
Mode: 1
LetterboxInBreaks: 0
WidescreenStoryboard: 1

[Editor]
DistanceSpacing: 1.2
BeatDivisor: 4
GridSize: 32
TimelineZoom: 0.8999999

[Metadata]
Title:Tsuki ni Murakumo Hana ni Kaze (PV ver.)
TitleUnicode:月に叢雲華に風 (PV ver.)
Artist:senya
ArtistUnicode:senya
Creator:BlackBq
Version:Futsuu
Source:東方地霊殿 ~ Subterranean Animism.
Tags:Touhou 東方Project 幻想万華鏡 Gensou Mangekyou 紅霧異変の章 Koumu Ihen no Shou ラストリモート last remote かませ虎 Kamase Tora Iceon 満福神社 Manfuku Jinjya zun senya moimoi MAKI 森永真由美 Morinaga Mayumi maimai pink plus 櫻 vocal japanese jpop j-pop video game 太鼓の達人キミドリver Taiko no Tatsujin Kimidori Version th11 こいし koishi 古明地 komeiji 幽閉サテライト Yuuhei Satellite Fantasy Kaleidoscope ~The Memories of Phantasm~ Team Shanghai Alice
BeatmapID:2631548
BeatmapSetID:1241563

[Difficulty]
HPDrainRate:7
CircleSize:2
OverallDifficulty:4
ApproachRate:10
SliderMultiplier:1.4
SliderTickRate:1

[Events]
//Background and Video events
0,0,"BG.jpg",0,85
//Break Periods
//Storyboard Layer 0 (Background)
//Storyboard Layer 1 (Fail)
//Storyboard Layer 2 (Pass)
//Storyboard Layer 3 (Foreground)
//Storyboard Layer 4 (Overlay)
//Storyboard Sound Samples

[TimingPoints]
1577,375,4,1,0,60,1,0
1577,-100,4,1,0,60,0,0
7577,-100,4,1,0,80,0,0
13577,-100,4,1,0,100,0,0
25577,-100,4,1,0,80,0,0
25764,-100,4,1,0,60,0,0
37577,-100,4,1,0,100,0,0
63077,-100,4,1,0,100,0,1
87077,-100,4,1,0,100,0,0
87827,-100,4,1,0,50,0,0
96452,-100,4,1,0,40,0,0
96827,-100,4,1,0,30,0,0
97202,-100,4,1,0,20,0,0
97577,-100,4,1,0,10,0,0
97952,-100,4,1,0,5,0,0

[HitObjects]
256,192,1577,5,0,0:0:0:0:
256,192,2327,1,0,0:0:0:0:
256,192,2702,1,8,0:0:0:0:
256,192,3077,1,8,0:0:0:0:
256,192,3639,1,0,0:0:0:0:
256,192,4577,1,8,0:0:0:0:
256,192,5327,1,0,0:0:0:0:
256,192,5702,1,0,0:0:0:0:
256,192,6077,1,8,0:0:0:0:
256,192,6639,1,0,0:0:0:0:
256,192,7577,1,0,0:0:0:0:
256,192,8139,1,8,0:0:0:0:
256,192,8702,1,0,0:0:0:0:
256,192,9077,1,0,0:0:0:0:
256,192,9452,1,8,0:0:0:0:
256,192,10014,1,0,0:0:0:0:
256,192,10577,12,0,12827,0:0:0:0:
416,96,13577,5,4,0:0:0:0:
256,192,14139,1,8,0:0:0:0:
256,192,14702,1,8,0:0:0:0:
256,192,14889,1,0,0:0:0:0:
256,192,15264,1,0,0:0:0:0:
256,192,15452,1,8,0:0:0:0:
256,192,15639,1,8,0:0:0:0:
256,192,15827,1,0,0:0:0:0:
256,192,16389,1,8,0:0:0:0:
263,193,16764,1,8,0:0:0:0:
256,192,16952,1,0,0:0:0:0:
263,193,17327,1,8,0:0:0:0:
256,192,17889,1,0,0:0:0:0:
249,186,18639,1,0,0:0:0:0:
256,192,18827,1,8,0:0:0:0:
256,192,19014,1,8,0:0:0:0:
256,192,19202,1,0,0:0:0:0:
384,96,19577,1,4,0:0:0:0:
256,192,20139,1,8,0:0:0:0:
256,192,20327,1,0,0:0:0:0:
256,192,20514,1,8,0:0:0:0:
256,192,20702,1,0,0:0:0:0:
256,192,21077,1,0,0:0:0:0:
256,183,21639,1,8,0:0:0:0:
256,183,22014,1,8,0:0:0:0:
256,183,22202,1,0,0:0:0:0:
384,96,22577,1,4,0:0:0:0:
384,96,23139,1,4,0:0:0:0:
384,96,23702,1,12,0:0:0:0:
384,96,24264,1,12,0:0:0:0:
384,96,24827,1,12,0:0:0:0:
384,96,25202,1,12,0:0:0:0:
384,96,25577,1,4,0:0:0:0:
256,192,26327,1,8,0:0:0:0:
251,188,27077,1,0,0:0:0:0:
244,189,28202,1,0,0:0:0:0:
251,188,28577,1,0,0:0:0:0:
256,192,29139,1,8,0:0:0:0:
251,188,29702,1,0,0:0:0:0:
251,188,30077,1,8,0:0:0:0:
256,192,31202,1,0,0:0:0:0:
250,186,31577,1,8,0:0:0:0:
256,192,32139,1,8,0:0:0:0:
256,192,32702,1,0,0:0:0:0:
250,186,33077,1,8,0:0:0:0:
256,192,33827,1,8,0:0:0:0:
256,192,34202,1,8,0:0:0:0:
250,186,34577,1,0,0:0:0:0:
250,186,36077,1,8,0:0:0:0:
250,186,36827,1,8,0:0:0:0:
256,192,37202,1,0,0:0:0:0:
384,96,37577,1,4,0:0:0:0:
288,192,37952,1,0,0:0:0:0:
256,192,38327,1,8,0:0:0:0:
256,192,38702,1,8,0:0:0:0:
256,192,39077,1,0,0:0:0:0:
256,192,39452,1,0,0:0:0:0:
256,192,39639,1,8,0:0:0:0:
256,192,40014,1,8,0:0:0:0:
256,192,40389,1,0,0:0:0:0:
256,192,40577,1,8,0:0:0:0:
256,192,40952,1,0,0:0:0:0:
256,192,41139,1,0,0:0:0:0:
256,192,41327,1,8,0:0:0:0:
256,192,41702,1,8,0:0:0:0:
256,192,42077,1,8,0:0:0:0:
256,192,42452,1,0,0:0:0:0:
256,192,42827,1,8,0:0:0:0:
384,96,43577,1,12,0:0:0:0:
256,192,43952,1,8,0:0:0:0:
256,192,44327,1,0,0:0:0:0:
256,192,44889,1,8,0:0:0:0:
256,192,45264,1,8,0:0:0:0:
256,192,45452,1,0,0:0:0:0:
256,192,45827,1,8,0:0:0:0:
256,192,46014,1,8,0:0:0:0:
256,192,46202,1,0,0:0:0:0:
384,96,46577,1,12,0:0:0:0:
256,192,46952,1,0,0:0:0:0:
256,192,47139,1,0,0:0:0:0:
256,192,47514,1,0,0:0:0:0:
384,96,48077,1,12,0:0:0:0:
384,96,48827,1,12,0:0:0:0:
384,96,49577,1,4,0:0:0:0:
384,96,50139,1,12,0:0:0:0:
384,104,50702,1,4,0:0:0:0:
384,96,50889,1,4,0:0:0:0:
256,192,51639,1,8,0:0:0:0:
256,192,52014,1,0,0:0:0:0:
256,192,52202,1,0,0:0:0:0:
384,96,52577,1,4,0:0:0:0:
384,96,53139,1,12,0:0:0:0:
384,96,53702,1,12,0:0:0:0:
384,96,53889,1,12,0:0:0:0:
256,192,54639,1,8,0:0:0:0:
256,192,55014,1,8,0:0:0:0:
256,192,55202,1,0,0:0:0:0:
384,96,55577,1,4,0:0:0:0:
384,96,56139,1,4,0:0:0:0:
384,96,56702,1,12,0:0:0:0:
384,96,56889,1,12,0:0:0:0:
256,192,57639,1,0,0:0:0:0:
256,192,58014,1,0,0:0:0:0:
256,192,58202,1,8,0:0:0:0:
256,192,58577,1,4,0:0:0:0:
384,96,59327,1,12,0:0:0:0:
384,96,60077,5,4,0:0:0:0:
384,96,60639,1,4,0:0:0:0:
384,96,61202,1,4,0:0:0:0:
384,96,61577,1,12,0:0:0:0:
256,192,62327,1,0,0:0:0:0:
256,192,62702,1,8,0:0:0:0:
384,96,63077,5,4,0:0:0:0:
256,192,63827,1,8,0:0:0:0:
256,192,64202,1,8,0:0:0:0:
256,192,64389,1,8,0:0:0:0:
256,192,64577,1,0,0:0:0:0:
256,192,64952,1,8,0:0:0:0:
256,192,65139,1,0,0:0:0:0:
256,192,65514,1,0,0:0:0:0:
256,192,65702,1,8,0:0:0:0:
256,192,66077,1,0,0:0:0:0:
256,192,66827,1,8,0:0:0:0:
256,192,67202,1,8,0:0:0:0:
256,192,67389,1,0,0:0:0:0:
256,192,67577,1,8,0:0:0:0:
256,192,67952,1,0,0:0:0:0:
256,192,68139,1,8,0:0:0:0:
256,192,68514,1,8,0:0:0:0:
256,192,68702,1,0,0:0:0:0:
256,192,69077,1,8,0:0:0:0:
256,192,69639,1,8,0:0:0:0:
256,192,70014,1,8,0:0:0:0:
256,192,70202,1,0,0:0:0:0:
256,192,70577,1,0,0:0:0:0:
256,192,70764,1,0,0:0:0:0:
256,192,70952,1,8,0:0:0:0:
256,192,71889,1,8,0:0:0:0:
256,192,72077,1,0,0:0:0:0:
256,192,72639,1,8,0:0:0:0:
256,192,73014,1,8,0:0:0:0:
256,192,73389,1,0,0:0:0:0:
256,192,73764,1,0,0:0:0:0:
256,192,73952,1,8,0:0:0:0:
256,192,74327,1,0,0:0:0:0:
256,192,74514,1,0,0:0:0:0:
384,96,75077,1,4,0:0:0:0:
256,192,75827,1,8,0:0:0:0:
256,192,76202,1,8,0:0:0:0:
256,192,76389,1,0,0:0:0:0:
256,192,76577,1,8,0:0:0:0:
256,192,76952,1,0,0:0:0:0:
256,192,77139,1,8,0:0:0:0:
256,192,77514,1,8,0:0:0:0:
256,192,77702,1,0,0:0:0:0:
256,192,78077,1,8,0:0:0:0:
256,192,78827,1,0,0:0:0:0:
256,192,79202,1,8,0:0:0:0:
256,192,79389,1,0,0:0:0:0:
256,192,79577,1,0,0:0:0:0:
256,192,79952,1,0,0:0:0:0:
256,192,80139,1,8,0:0:0:0:
256,192,80514,1,8,0:0:0:0:
256,192,80702,1,0,0:0:0:0:
382,93,81077,1,12,0:0:0:0:
256,192,81639,1,8,0:0:0:0:
256,192,82014,1,0,0:0:0:0:
256,192,82202,1,8,0:0:0:0:
436,83,82577,1,12,0:0:0:0:
256,192,82952,1,8,0:0:0:0:
256,192,83702,1,0,0:0:0:0:
384,96,84077,1,4,0:0:0:0:
256,192,84452,1,0,0:0:0:0:
384,96,84827,1,12,0:0:0:0:
256,192,85202,1,8,0:0:0:0:
384,96,85577,5,4,0:0:0:0:
256,192,85952,5,0,0:0:0:0:
256,192,86139,5,0,0:0:0:0:
256,192,86327,1,12,0:0:0:0:
256,192,86702,1,8,0:0:0:0:
256,160,86889,5,8,0:0:0:0:
256,192,87077,1,4,0:0:0:0:
256,192,87827,1,0,0:0:0:0:
256,192,88202,1,8,0:0:0:0:
256,192,88577,1,8,0:0:0:0:
256,192,89139,1,0,0:0:0:0:
256,192,90077,1,8,0:0:0:0:
256,192,90827,1,0,0:0:0:0:
256,192,91202,1,0,0:0:0:0:
256,192,91577,1,8,0:0:0:0:
256,192,92139,1,0,0:0:0:0:
256,192,92702,1,0,0:0:0:0:
256,192,93077,1,8,0:0:0:0:
256,192,93639,1,8,0:0:0:0:
256,192,94577,1,0,0:0:0:0:
256,192,94952,1,0,0:0:0:0:
256,192,95514,1,8,0:0:0:0:
256,192,96077,12,0,98702,0:0:0:0:
