osu file format v14

[General]
AudioFilename: audio.mp3
AudioLeadIn: 0
PreviewTime: 122848
Countdown: 0
SampleSet: Soft
StackLeniency: 0.7
Mode: 3
LetterboxInBreaks: 0
SpecialStyle: 0
WidescreenStoryboard: 1

[Editor]
DistanceSpacing: 1
BeatDivisor: 4
GridSize: 8
TimelineZoom: 2.7

[Metadata]
Title:Tsuki ni Murakumo Hana ni Kaze
TitleUnicode:月に叢雲華に風
Artist:senya
ArtistUnicode:senya
Creator:Arzenvald
Version:Hard
Source:東方Project
Tags:ajeemaniz exusagi komeji piano guitar Clouds Over the Moon, and Wind Over the Flowers Profusion of Flowers senka ryouran kamase-tora autobahn yuuhei Satellite mayumi morinaga last remote extra stage theme 東方地霊殿 Touhou Chireiden Subterranean Animism
BeatmapID:1155436
BeatmapSetID:529329

[Difficulty]
HPDrainRate:8.3
CircleSize:4
OverallDifficulty:8
ApproachRate:5
SliderMultiplier:1.4
SliderTickRate:1

[Events]
//Background and Video events
0,0,"BG.jpg",0,0
//Break Periods
//Storyboard Layer 0 (Background)
//Storyboard Layer 1 (Fail)
//Storyboard Layer 2 (Pass)
//Storyboard Layer 3 (Foreground)
//Storyboard Sound Samples

[TimingPoints]
1348,375,4,2,0,50,1,0
13348,-100,4,2,0,70,0,0
62848,-100,4,2,0,80,0,1
86848,-100,4,2,0,70,0,0
125473,-16.6666666666667,4,2,0,70,0,0
125496,-100,4,2,0,70,0,0
125848,-100,4,2,0,80,0,1
146848,-100,4,2,0,80,0,0
149848,-100,4,2,0,80,0,1
173848,-100,4,2,0,80,0,0

[HitObjects]
320,192,1348,5,0,0:0:0:0:
64,192,1535,1,0,0:0:0:0:
192,192,1723,1,0,0:0:0:0:
320,192,1910,1,0,0:0:0:0:
448,192,2285,1,0,0:0:0:0:
192,192,2473,1,0,0:0:0:0:
320,192,2660,1,0,0:0:0:0:
448,192,2848,1,0,0:0:0:0:
64,192,3035,1,0,0:0:0:0:
192,192,3223,1,0,0:0:0:0:
320,192,3410,1,0,0:0:0:0:
192,192,3598,1,0,0:0:0:0:
448,192,3785,1,0,0:0:0:0:
320,192,3973,1,0,0:0:0:0:
448,192,4348,1,0,0:0:0:0:
192,192,4535,1,0,0:0:0:0:
320,192,4723,1,0,0:0:0:0:
64,192,4910,1,0,0:0:0:0:
448,192,5098,1,0,0:0:0:0:
320,192,5285,1,0,0:0:0:0:
192,192,5473,1,0,0:0:0:0:
64,192,5660,1,0,0:0:0:0:
320,192,5848,1,0,0:0:0:0:
448,192,6035,1,0,0:0:0:0:
64,192,6223,1,0,0:0:0:0:
320,192,6410,128,0,6785:0:0:0:0:
448,192,6785,1,0,0:0:0:0:
320,192,6973,1,0,0:0:0:0:
192,192,7160,1,0,0:0:0:0:
64,192,7348,1,0,0:0:0:0:
448,192,7348,128,0,8848:0:0:0:0:
192,192,7535,1,0,0:0:0:0:
320,192,7723,1,0,0:0:0:0:
192,192,7910,1,0,0:0:0:0:
64,192,8098,1,0,0:0:0:0:
192,192,8473,1,0,0:0:0:0:
320,192,8848,128,0,10348:0:0:0:0:
192,192,8848,1,0,0:0:0:0:
64,192,9035,1,0,0:0:0:0:
192,192,9223,1,0,0:0:0:0:
448,192,9410,1,0,0:0:0:0:
64,192,9785,1,0,0:0:0:0:
448,192,9973,1,0,0:0:0:0:
64,192,10348,128,0,11848:0:0:0:0:
448,192,10348,1,0,0:0:0:0:
320,192,10535,1,0,0:0:0:0:
192,192,10910,1,0,0:0:0:0:
320,192,11285,1,0,0:0:0:0:
320,192,11473,1,0,0:0:0:0:
192,192,11660,1,0,0:0:0:0:
320,192,11754,1,0,0:0:0:0:
448,192,11848,1,0,0:0:0:0:
192,192,11941,1,0,0:0:0:0:
64,192,12035,1,0,0:0:0:0:
192,192,12598,1,0,0:0:0:0:
320,192,12598,1,0,0:0:0:0:
448,192,12785,1,0,0:0:0:0:
192,192,12879,1,0,0:0:0:0:
448,192,12973,1,0,0:0:0:0:
64,192,13066,1,0,0:0:0:0:
320,192,13160,1,0,0:0:0:0:
64,192,13254,1,0,0:0:0:0:
192,192,13348,1,0,0:0:0:0:
448,192,13348,1,0,0:0:0:0:
320,192,13535,1,0,0:0:0:0:
192,192,13723,1,0,0:0:0:0:
64,192,13723,1,0,0:0:0:0:
320,192,13910,1,0,0:0:0:0:
448,192,13910,128,0,14473:0:0:0:0:
192,192,14285,1,0,0:0:0:0:
320,192,14473,1,0,0:0:0:0:
192,192,14660,1,0,0:0:0:0:
64,192,14660,128,0,15598:0:0:0:0:
448,192,15035,1,0,0:0:0:0:
320,192,15223,1,0,0:0:0:0:
448,192,15410,1,0,0:0:0:0:
192,192,15598,1,0,0:0:0:0:
320,192,15785,1,0,0:0:0:0:
192,192,15973,1,0,0:0:0:0:
64,192,16160,1,0,0:0:0:0:
448,192,16160,128,0,16535:0:0:0:0:
320,192,16535,128,0,16629:0:0:0:0:
448,192,16723,1,0,0:0:0:0:
192,192,16723,128,0,16816:0:0:0:0:
64,192,16910,128,0,17004:0:0:0:0:
192,192,17098,128,0,17285:0:0:0:0:
320,192,17098,1,0,0:0:0:0:
448,192,17379,128,0,17566:0:0:0:0:
320,192,17473,1,0,0:0:0:0:
192,192,17473,1,0,0:0:0:0:
64,192,17660,128,0,18223:0:0:0:0:
320,192,18035,1,0,0:0:0:0:
192,192,18223,1,0,0:0:0:0:
448,192,18223,1,0,0:0:0:0:
64,192,18410,1,0,0:0:0:0:
320,192,18598,1,0,0:0:0:0:
320,192,18785,1,0,0:0:0:0:
448,192,18973,1,0,0:0:0:0:
192,192,18973,1,0,0:0:0:0:
64,192,19160,1,0,0:0:0:0:
192,192,19348,128,0,19723:0:0:0:0:
320,192,19348,1,0,0:0:0:0:
64,192,19723,1,0,0:0:0:0:
320,192,19910,128,0,20660:0:0:0:0:
448,192,19910,1,0,0:0:0:0:
64,192,20285,1,0,0:0:0:0:
192,192,20473,1,0,0:0:0:0:
448,192,20660,1,0,0:0:0:0:
64,192,20660,1,0,0:0:0:0:
320,192,20848,1,0,0:0:0:0:
448,192,21035,1,0,0:0:0:0:
320,192,21223,1,0,0:0:0:0:
192,192,21223,1,0,0:0:0:0:
320,192,21410,1,0,0:0:0:0:
448,192,21410,128,0,21785:0:0:0:0:
320,192,21785,128,0,21973:0:0:0:0:
448,192,21973,1,0,0:0:0:0:
192,192,21973,128,0,22160:0:0:0:0:
64,192,22160,128,0,22348:0:0:0:0:
192,192,22348,1,0,0:0:0:0:
320,192,22348,1,0,0:0:0:0:
448,192,22348,1,0,0:0:0:0:
64,192,22535,1,0,0:0:0:0:
192,192,22723,1,0,0:0:0:0:
64,192,22910,1,0,0:0:0:0:
320,192,22910,1,0,0:0:0:0:
448,192,22910,1,0,0:0:0:0:
320,192,23285,1,0,0:0:0:0:
192,192,23473,1,0,0:0:0:0:
448,192,23473,1,0,0:0:0:0:
64,192,23473,1,0,0:0:0:0:
320,192,23660,1,0,0:0:0:0:
192,192,23848,1,0,0:0:0:0:
448,192,24035,1,0,0:0:0:0:
320,192,24035,1,0,0:0:0:0:
64,192,24035,1,0,0:0:0:0:
192,192,24223,1,0,0:0:0:0:
64,192,24410,1,0,0:0:0:0:
448,192,24598,1,0,0:0:0:0:
320,192,24691,1,0,0:0:0:0:
192,192,24785,1,0,0:0:0:0:
64,192,24879,1,0,0:0:0:0:
320,192,24973,1,0,0:0:0:0:
192,192,25066,1,0,0:0:0:0:
448,192,25160,1,0,0:0:0:0:
320,192,25254,1,0,0:0:0:0:
192,192,25348,1,0,0:0:0:0:
64,192,25348,1,0,0:0:0:0:
448,192,25535,1,0,0:0:0:0:
192,192,25723,1,0,0:0:0:0:
64,192,25910,1,0,0:0:0:0:
448,192,26098,1,0,0:0:0:0:
64,192,26285,1,0,0:0:0:0:
192,192,26473,1,0,0:0:0:0:
64,192,26660,1,0,0:0:0:0:
320,192,26848,1,0,0:0:0:0:
192,192,27223,1,0,0:0:0:0:
320,192,27410,1,0,0:0:0:0:
448,192,27598,1,0,0:0:0:0:
64,192,27598,1,0,0:0:0:0:
320,192,28348,1,0,0:0:0:0:
192,192,28535,1,0,0:0:0:0:
64,192,28723,1,0,0:0:0:0:
320,192,28910,1,0,0:0:0:0:
64,192,29098,1,0,0:0:0:0:
192,192,29285,1,0,0:0:0:0:
320,192,29473,1,0,0:0:0:0:
192,192,29660,1,0,0:0:0:0:
64,192,29848,1,0,0:0:0:0:
448,192,30223,1,0,0:0:0:0:
192,192,30410,1,0,0:0:0:0:
448,192,30598,1,0,0:0:0:0:
64,192,30598,1,0,0:0:0:0:
192,192,31348,1,0,0:0:0:0:
192,192,31723,1,0,0:0:0:0:
448,192,31910,1,0,0:0:0:0:
64,192,32098,1,0,0:0:0:0:
192,192,32285,1,0,0:0:0:0:
448,192,32473,1,0,0:0:0:0:
320,192,32848,1,0,0:0:0:0:
192,192,33410,1,0,0:0:0:0:
192,192,33598,1,0,0:0:0:0:
448,192,33598,1,0,0:0:0:0:
64,192,33973,1,0,0:0:0:0:
448,192,34348,1,0,0:0:0:0:
320,192,34535,1,0,0:0:0:0:
192,192,34723,1,0,0:0:0:0:
320,192,34910,1,0,0:0:0:0:
192,192,35285,1,0,0:0:0:0:
64,192,35473,1,0,0:0:0:0:
448,192,35848,128,0,36223:0:0:0:0:
320,192,36223,128,0,36598:0:0:0:0:
192,192,36598,128,0,36973:0:0:0:0:
64,192,36973,128,0,37348:0:0:0:0:
448,192,36973,1,0,0:0:0:0:
192,192,37348,1,0,0:0:0:0:
448,192,37348,1,0,0:0:0:0:
320,192,37535,1,0,0:0:0:0:
64,192,37723,1,0,0:0:0:0:
448,192,37723,1,0,0:0:0:0:
320,192,37910,1,0,0:0:0:0:
192,192,38098,1,0,0:0:0:0:
64,192,38285,1,0,0:0:0:0:
320,192,38473,1,0,0:0:0:0:
448,192,38473,1,0,0:0:0:0:
64,192,38660,1,0,0:0:0:0:
192,192,38848,1,0,0:0:0:0:
448,192,38848,128,0,39035:0:0:0:0:
320,192,39035,128,0,39410:0:0:0:0:
192,192,39223,128,0,39410:0:0:0:0:
64,192,39410,128,0,39785:0:0:0:0:
448,192,39598,128,0,39785:0:0:0:0:
192,192,39785,1,0,0:0:0:0:
448,192,39973,1,0,0:0:0:0:
64,192,39973,1,0,0:0:0:0:
192,192,40160,1,0,0:0:0:0:
448,192,40348,128,0,40723:0:0:0:0:
320,192,40348,1,0,0:0:0:0:
192,192,40535,1,0,0:0:0:0:
64,192,40723,1,0,0:0:0:0:
320,192,40910,128,0,41285:0:0:0:0:
448,192,40910,1,0,0:0:0:0:
192,192,41098,1,0,0:0:0:0:
64,192,41285,1,0,0:0:0:0:
320,192,41473,1,0,0:0:0:0:
448,192,41473,128,0,41660:0:0:0:0:
64,192,41660,1,0,0:0:0:0:
192,192,41848,1,0,0:0:0:0:
320,192,41848,128,0,42035:0:0:0:0:
448,192,42035,1,0,0:0:0:0:
64,192,42223,128,0,42410:0:0:0:0:
192,192,42223,1,0,0:0:0:0:
320,192,42410,1,0,0:0:0:0:
448,192,42598,128,0,42785:0:0:0:0:
192,192,42598,1,0,0:0:0:0:
64,192,42785,1,0,0:0:0:0:
320,192,42973,1,0,0:0:0:0:
448,192,42973,1,0,0:0:0:0:
64,192,43160,1,0,0:0:0:0:
192,192,43160,1,0,0:0:0:0:
320,192,43348,1,0,0:0:0:0:
448,192,43348,1,0,0:0:0:0:
64,192,43348,1,0,0:0:0:0:
192,192,43535,1,0,0:0:0:0:
64,192,43723,1,0,0:0:0:0:
448,192,43723,1,0,0:0:0:0:
320,192,43910,1,0,0:0:0:0:
64,192,44098,1,0,0:0:0:0:
192,192,44098,128,0,44285:0:0:0:0:
320,192,44285,128,0,44473:0:0:0:0:
448,192,44473,128,0,44566:0:0:0:0:
64,192,44473,1,0,0:0:0:0:
320,192,44660,1,0,0:0:0:0:
448,192,44660,128,0,44848:0:0:0:0:
192,192,44848,1,0,0:0:0:0:
64,192,45035,1,0,0:0:0:0:
448,192,45035,1,0,0:0:0:0:
320,192,45223,1,0,0:0:0:0:
192,192,45223,1,0,0:0:0:0:
64,192,45410,1,0,0:0:0:0:
448,192,45410,1,0,0:0:0:0:
192,192,45598,1,0,0:0:0:0:
64,192,45598,1,0,0:0:0:0:
320,192,45785,1,0,0:0:0:0:
448,192,45785,1,0,0:0:0:0:
192,192,45973,1,0,0:0:0:0:
64,192,45973,1,0,0:0:0:0:
320,192,46160,1,0,0:0:0:0:
64,192,46348,1,0,0:0:0:0:
192,192,46348,1,0,0:0:0:0:
448,192,46348,1,0,0:0:0:0:
320,192,46441,1,0,0:0:0:0:
192,192,46535,1,0,0:0:0:0:
320,192,46723,1,0,0:0:0:0:
64,192,46910,1,0,0:0:0:0:
448,192,46910,1,0,0:0:0:0:
192,192,47004,1,0,0:0:0:0:
320,192,47098,1,0,0:0:0:0:
64,192,47285,1,0,0:0:0:0:
448,192,47285,1,0,0:0:0:0:
192,192,47379,1,0,0:0:0:0:
320,192,47473,1,0,0:0:0:0:
192,192,47660,1,0,0:0:0:0:
448,192,47660,1,0,0:0:0:0:
64,192,47848,1,0,0:0:0:0:
448,192,47848,1,0,0:0:0:0:
320,192,47848,1,0,0:0:0:0:
192,192,48035,1,0,0:0:0:0:
320,192,48035,1,0,0:0:0:0:
64,192,48129,1,0,0:0:0:0:
448,192,48223,1,0,0:0:0:0:
192,192,48410,1,0,0:0:0:0:
320,192,48410,1,0,0:0:0:0:
64,192,48598,1,0,0:0:0:0:
320,192,48598,1,0,0:0:0:0:
448,192,48598,1,0,0:0:0:0:
320,192,48785,1,0,0:0:0:0:
192,192,48879,1,0,0:0:0:0:
448,192,48973,1,0,0:0:0:0:
320,192,48973,1,0,0:0:0:0:
64,192,49066,1,0,0:0:0:0:
192,192,49160,1,0,0:0:0:0:
320,192,49254,1,0,0:0:0:0:
64,192,49348,1,0,0:0:0:0:
448,192,49348,1,0,0:0:0:0:
192,192,49348,1,0,0:0:0:0:
192,192,49723,128,0,49910:0:0:0:0:
320,192,49910,1,0,0:0:0:0:
448,192,49910,1,0,0:0:0:0:
64,192,50098,1,0,0:0:0:0:
192,192,50191,1,0,0:0:0:0:
320,192,50285,1,0,0:0:0:0:
64,192,50473,1,0,0:0:0:0:
192,192,50473,1,0,0:0:0:0:
320,192,50660,1,0,0:0:0:0:
448,192,50660,1,0,0:0:0:0:
64,192,51035,1,0,0:0:0:0:
192,192,51035,1,0,0:0:0:0:
320,192,51410,1,0,0:0:0:0:
448,192,51410,1,0,0:0:0:0:
64,192,51598,128,0,51973:0:0:0:0:
192,192,51598,1,0,0:0:0:0:
320,192,51973,1,0,0:0:0:0:
448,192,51973,128,0,52348:0:0:0:0:
192,192,52160,1,0,0:0:0:0:
64,192,52348,1,0,0:0:0:0:
320,192,52348,1,0,0:0:0:0:
448,192,52723,128,0,52910:0:0:0:0:
320,192,52910,1,0,0:0:0:0:
192,192,52910,1,0,0:0:0:0:
448,192,53098,1,0,0:0:0:0:
320,192,53191,1,0,0:0:0:0:
192,192,53285,1,0,0:0:0:0:
64,192,53473,1,0,0:0:0:0:
320,192,53473,1,0,0:0:0:0:
192,192,53660,1,0,0:0:0:0:
448,192,53660,1,0,0:0:0:0:
192,192,54035,1,0,0:0:0:0:
448,192,54035,1,0,0:0:0:0:
320,192,54410,1,0,0:0:0:0:
64,192,54410,1,0,0:0:0:0:
192,192,54598,1,0,0:0:0:0:
448,192,54598,128,0,54973:0:0:0:0:
320,192,54973,128,0,55348:0:0:0:0:
192,192,54973,1,0,0:0:0:0:
64,192,55160,1,0,0:0:0:0:
192,192,55348,1,0,0:0:0:0:
448,192,55348,1,0,0:0:0:0:
64,192,55441,1,0,0:0:0:0:
192,192,55535,1,0,0:0:0:0:
448,192,55629,1,0,0:0:0:0:
320,192,55723,1,0,0:0:0:0:
192,192,55816,1,0,0:0:0:0:
320,192,55910,1,0,0:0:0:0:
448,192,55910,1,0,0:0:0:0:
192,192,56004,1,0,0:0:0:0:
64,192,56098,1,0,0:0:0:0:
320,192,56191,1,0,0:0:0:0:
192,192,56285,1,0,0:0:0:0:
320,192,56379,1,0,0:0:0:0:
448,192,56473,1,0,0:0:0:0:
64,192,56473,1,0,0:0:0:0:
192,192,56566,1,0,0:0:0:0:
64,192,56660,1,0,0:0:0:0:
448,192,56660,1,0,0:0:0:0:
320,192,56754,1,0,0:0:0:0:
192,192,56848,1,0,0:0:0:0:
64,192,56941,1,0,0:0:0:0:
320,192,57035,1,0,0:0:0:0:
192,192,57035,1,0,0:0:0:0:
448,192,57129,1,0,0:0:0:0:
320,192,57223,1,0,0:0:0:0:
192,192,57316,1,0,0:0:0:0:
64,192,57410,1,0,0:0:0:0:
448,192,57410,1,0,0:0:0:0:
192,192,57504,1,0,0:0:0:0:
320,192,57598,1,0,0:0:0:0:
448,192,57598,1,0,0:0:0:0:
192,192,57785,1,0,0:0:0:0:
320,192,57973,1,0,0:0:0:0:
448,192,57973,1,0,0:0:0:0:
448,192,58160,1,0,0:0:0:0:
320,192,58160,1,0,0:0:0:0:
192,192,58348,1,0,0:0:0:0:
448,192,58348,1,0,0:0:0:0:
64,192,58348,128,0,58629:0:0:0:0:
192,192,58629,128,0,58910:0:0:0:0:
320,192,58629,1,0,0:0:0:0:
448,192,58910,1,0,0:0:0:0:
320,192,58910,128,0,59098:0:0:0:0:
448,192,59098,128,0,59379:0:0:0:0:
64,192,59098,1,0,0:0:0:0:
192,192,59379,128,0,59660:0:0:0:0:
320,192,59379,1,0,0:0:0:0:
64,192,59660,1,0,0:0:0:0:
448,192,59660,128,0,59848:0:0:0:0:
320,192,59848,1,0,0:0:0:0:
192,192,59848,1,0,0:0:0:0:
64,192,59848,1,0,0:0:0:0:
448,192,60035,1,0,0:0:0:0:
192,192,60223,1,0,0:0:0:0:
64,192,60410,1,0,0:0:0:0:
320,192,60410,1,0,0:0:0:0:
448,192,60410,1,0,0:0:0:0:
320,192,60785,1,0,0:0:0:0:
192,192,60973,1,0,0:0:0:0:
64,192,60973,1,0,0:0:0:0:
448,192,60973,1,0,0:0:0:0:
192,192,61160,1,0,0:0:0:0:
64,192,61348,1,0,0:0:0:0:
320,192,61348,1,0,0:0:0:0:
448,192,61348,1,0,0:0:0:0:
448,192,61535,1,0,0:0:0:0:
320,192,61535,1,0,0:0:0:0:
192,192,61723,1,0,0:0:0:0:
64,192,61723,1,0,0:0:0:0:
64,192,61910,1,0,0:0:0:0:
192,192,61910,1,0,0:0:0:0:
320,192,62098,1,0,0:0:0:0:
448,192,62098,1,0,0:0:0:0:
320,192,62285,1,0,0:0:0:0:
448,192,62285,1,0,0:0:0:0:
64,192,62473,1,0,0:0:0:0:
192,192,62473,1,0,0:0:0:0:
64,192,62660,1,0,0:0:0:0:
192,192,62660,1,0,0:0:0:0:
320,192,62848,1,0,0:0:0:0:
448,192,62848,1,0,0:0:0:0:
64,192,62848,1,0,0:0:0:0:
192,192,63035,1,0,0:0:0:0:
64,192,63223,1,0,0:0:0:0:
320,192,63223,1,0,0:0:0:0:
192,192,63410,1,0,0:0:0:0:
448,192,63410,128,0,63785:0:0:0:0:
320,192,63785,1,0,0:0:0:0:
192,192,63973,1,0,0:0:0:0:
448,192,63973,1,0,0:0:0:0:
320,192,64160,1,0,0:0:0:0:
192,192,64348,1,0,0:0:0:0:
64,192,64535,1,0,0:0:0:0:
192,192,64629,1,0,0:0:0:0:
320,192,64723,1,0,0:0:0:0:
448,192,64723,1,0,0:0:0:0:
192,192,64910,1,0,0:0:0:0:
448,192,65098,128,0,65285:0:0:0:0:
64,192,65098,1,0,0:0:0:0:
320,192,65285,128,0,65473:0:0:0:0:
192,192,65473,128,0,65660:0:0:0:0:
448,192,65473,1,0,0:0:0:0:
64,192,65660,128,0,65848:0:0:0:0:
448,192,65848,1,0,0:0:0:0:
320,192,66035,1,0,0:0:0:0:
64,192,66223,1,0,0:0:0:0:
192,192,66223,1,0,0:0:0:0:
320,192,66410,1,0,0:0:0:0:
448,192,66410,128,0,66785:0:0:0:0:
192,192,66785,1,0,0:0:0:0:
64,192,66973,1,0,0:0:0:0:
320,192,66973,1,0,0:0:0:0:
192,192,67160,1,0,0:0:0:0:
64,192,67348,1,0,0:0:0:0:
448,192,67348,1,0,0:0:0:0:
320,192,67535,1,0,0:0:0:0:
192,192,67723,1,0,0:0:0:0:
448,192,67910,128,0,68285:0:0:0:0:
320,192,67910,1,0,0:0:0:0:
192,192,68098,1,0,0:0:0:0:
320,192,68191,1,0,0:0:0:0:
64,192,68285,128,0,68473:0:0:0:0:
192,192,68285,1,0,0:0:0:0:
448,192,68473,128,0,68660:0:0:0:0:
320,192,68473,1,0,0:0:0:0:
64,192,68660,1,0,0:0:0:0:
192,192,68660,128,0,68848:0:0:0:0:
448,192,68848,1,0,0:0:0:0:
320,192,68848,1,0,0:0:0:0:
192,192,69035,1,0,0:0:0:0:
64,192,69223,1,0,0:0:0:0:
320,192,69223,1,0,0:0:0:0:
320,192,69410,1,0,0:0:0:0:
448,192,69410,128,0,69785:0:0:0:0:
192,192,69785,1,0,0:0:0:0:
64,192,69973,1,0,0:0:0:0:
320,192,69973,1,0,0:0:0:0:
192,192,70160,1,0,0:0:0:0:
448,192,70160,1,0,0:0:0:0:
64,192,70348,1,0,0:0:0:0:
192,192,70535,1,0,0:0:0:0:
320,192,70535,1,0,0:0:0:0:
64,192,70723,1,0,0:0:0:0:
448,192,70723,1,0,0:0:0:0:
320,192,70910,1,0,0:0:0:0:
192,192,71098,1,0,0:0:0:0:
64,192,71098,1,0,0:0:0:0:
320,192,71285,1,0,0:0:0:0:
448,192,71285,1,0,0:0:0:0:
64,192,71473,1,0,0:0:0:0:
192,192,71660,1,0,0:0:0:0:
320,192,71660,1,0,0:0:0:0:
448,192,71848,1,0,0:0:0:0:
64,192,71848,1,0,0:0:0:0:
192,192,72035,1,0,0:0:0:0:
64,192,72035,1,0,0:0:0:0:
320,192,72223,1,0,0:0:0:0:
448,192,72223,1,0,0:0:0:0:
64,192,72410,1,0,0:0:0:0:
448,192,72410,1,0,0:0:0:0:
192,192,72598,1,0,0:0:0:0:
64,192,72691,1,0,0:0:0:0:
320,192,72785,1,0,0:0:0:0:
448,192,72879,1,0,0:0:0:0:
192,192,72973,1,0,0:0:0:0:
64,192,73066,1,0,0:0:0:0:
320,192,73160,1,0,0:0:0:0:
448,192,73254,1,0,0:0:0:0:
192,192,73348,1,0,0:0:0:0:
64,192,73348,1,0,0:0:0:0:
320,192,73441,1,0,0:0:0:0:
448,192,73535,1,0,0:0:0:0:
64,192,73629,1,0,0:0:0:0:
448,192,73723,1,0,0:0:0:0:
192,192,73723,1,0,0:0:0:0:
320,192,73816,1,0,0:0:0:0:
192,192,73910,1,0,0:0:0:0:
320,192,74004,1,0,0:0:0:0:
64,192,74098,1,0,0:0:0:0:
448,192,74098,1,0,0:0:0:0:
192,192,74191,1,0,0:0:0:0:
448,192,74285,1,0,0:0:0:0:
320,192,74285,1,0,0:0:0:0:
64,192,74379,1,0,0:0:0:0:
192,192,74473,1,0,0:0:0:0:
448,192,74566,1,0,0:0:0:0:
64,192,74660,1,0,0:0:0:0:
320,192,74754,1,0,0:0:0:0:
448,192,74848,1,0,0:0:0:0:
64,192,74848,1,0,0:0:0:0:
192,192,74848,1,0,0:0:0:0:
192,192,75035,1,0,0:0:0:0:
64,192,75223,1,0,0:0:0:0:
320,192,75223,1,0,0:0:0:0:
448,192,75410,1,0,0:0:0:0:
192,192,75410,1,0,0:0:0:0:
320,192,75598,1,0,0:0:0:0:
192,192,75785,1,0,0:0:0:0:
320,192,75973,1,0,0:0:0:0:
448,192,75973,1,0,0:0:0:0:
64,192,76160,1,0,0:0:0:0:
448,192,76160,1,0,0:0:0:0:
320,192,76348,1,0,0:0:0:0:
192,192,76535,1,0,0:0:0:0:
320,192,76629,1,0,0:0:0:0:
64,192,76723,1,0,0:0:0:0:
192,192,76723,1,0,0:0:0:0:
320,192,76910,1,0,0:0:0:0:
192,192,77098,1,0,0:0:0:0:
448,192,77098,128,0,77285:0:0:0:0:
64,192,77285,128,0,77473:0:0:0:0:
320,192,77473,1,0,0:0:0:0:
192,192,77473,128,0,77660:0:0:0:0:
448,192,77660,128,0,77848:0:0:0:0:
64,192,77848,1,0,0:0:0:0:
320,192,77848,1,0,0:0:0:0:
192,192,78035,1,0,0:0:0:0:
64,192,78223,1,0,0:0:0:0:
448,192,78223,1,0,0:0:0:0:
320,192,78410,1,0,0:0:0:0:
448,192,78410,1,0,0:0:0:0:
192,192,78598,1,0,0:0:0:0:
320,192,78785,1,0,0:0:0:0:
64,192,78785,1,0,0:0:0:0:
64,192,78973,1,0,0:0:0:0:
192,192,78973,1,0,0:0:0:0:
320,192,79160,1,0,0:0:0:0:
192,192,79348,1,0,0:0:0:0:
448,192,79348,1,0,0:0:0:0:
320,192,79535,1,0,0:0:0:0:
192,192,79629,1,0,0:0:0:0:
64,192,79723,1,0,0:0:0:0:
448,192,79723,1,0,0:0:0:0:
192,192,79910,1,0,0:0:0:0:
320,192,80098,1,0,0:0:0:0:
448,192,80098,1,0,0:0:0:0:
448,192,80285,1,0,0:0:0:0:
64,192,80285,1,0,0:0:0:0:
320,192,80473,1,0,0:0:0:0:
192,192,80473,1,0,0:0:0:0:
64,192,80660,1,0,0:0:0:0:
192,192,80660,1,0,0:0:0:0:
320,192,80848,1,0,0:0:0:0:
448,192,80848,1,0,0:0:0:0:
64,192,80848,1,0,0:0:0:0:
192,192,81035,1,0,0:0:0:0:
64,192,81223,1,0,0:0:0:0:
320,192,81223,1,0,0:0:0:0:
320,192,81410,1,0,0:0:0:0:
448,192,81410,1,0,0:0:0:0:
192,192,81598,1,0,0:0:0:0:
64,192,81785,1,0,0:0:0:0:
320,192,81785,1,0,0:0:0:0:
64,192,81973,1,0,0:0:0:0:
448,192,81973,1,0,0:0:0:0:
192,192,82160,1,0,0:0:0:0:
320,192,82348,1,0,0:0:0:0:
64,192,82348,1,0,0:0:0:0:
448,192,82348,1,0,0:0:0:0:
192,192,82535,1,0,0:0:0:0:
320,192,82723,1,0,0:0:0:0:
448,192,82723,1,0,0:0:0:0:
192,192,82910,1,0,0:0:0:0:
64,192,83098,1,0,0:0:0:0:
320,192,83098,1,0,0:0:0:0:
192,192,83285,1,0,0:0:0:0:
448,192,83285,1,0,0:0:0:0:
320,192,83473,1,0,0:0:0:0:
192,192,83660,1,0,0:0:0:0:
64,192,83660,1,0,0:0:0:0:
320,192,83848,1,0,0:0:0:0:
448,192,83848,1,0,0:0:0:0:
64,192,84035,128,0,84223:0:0:0:0:
192,192,84223,128,0,84410:0:0:0:0:
320,192,84410,128,0,84785:0:0:0:0:
448,192,84598,1,0,0:0:0:0:
64,192,84598,1,0,0:0:0:0:
192,192,84598,1,0,0:0:0:0:
448,192,84785,128,0,84973:0:0:0:0:
320,192,84973,128,0,85160:0:0:0:0:
192,192,85160,128,0,85348:0:0:0:0:
64,192,85348,1,0,0:0:0:0:
448,192,85348,1,0,0:0:0:0:
320,192,85441,1,0,0:0:0:0:
64,192,85535,1,0,0:0:0:0:
448,192,85629,1,0,0:0:0:0:
192,192,85723,1,0,0:0:0:0:
448,192,85816,1,0,0:0:0:0:
64,192,85910,1,0,0:0:0:0:
320,192,86004,1,0,0:0:0:0:
192,192,86098,1,0,0:0:0:0:
448,192,86098,1,0,0:0:0:0:
320,192,86191,1,0,0:0:0:0:
64,192,86285,1,0,0:0:0:0:
192,192,86379,1,0,0:0:0:0:
64,192,86473,1,0,0:0:0:0:
448,192,86473,1,0,0:0:0:0:
320,192,86566,1,0,0:0:0:0:
448,192,86660,1,0,0:0:0:0:
192,192,86754,1,0,0:0:0:0:
64,192,86848,1,0,0:0:0:0:
320,192,86848,1,0,0:0:0:0:
192,192,87035,1,0,0:0:0:0:
320,192,87223,1,0,0:0:0:0:
64,192,87223,1,0,0:0:0:0:
192,192,87410,1,0,0:0:0:0:
448,192,87410,128,0,87785:0:0:0:0:
320,192,87785,1,0,0:0:0:0:
192,192,87973,1,0,0:0:0:0:
448,192,87973,1,0,0:0:0:0:
320,192,88160,1,0,0:0:0:0:
64,192,88160,128,0,88535:0:0:0:0:
448,192,88535,1,0,0:0:0:0:
320,192,88723,1,0,0:0:0:0:
64,192,88723,1,0,0:0:0:0:
192,192,88910,1,0,0:0:0:0:
448,192,88910,128,0,89285:0:0:0:0:
320,192,89285,128,0,89473:0:0:0:0:
192,192,89285,1,0,0:0:0:0:
64,192,89473,128,0,89660:0:0:0:0:
448,192,89473,1,0,0:0:0:0:
192,192,89660,128,0,89848:0:0:0:0:
320,192,89660,1,0,0:0:0:0:
64,192,89848,1,0,0:0:0:0:
448,192,89848,128,0,90223:0:0:0:0:
192,192,90035,1,0,0:0:0:0:
320,192,90223,1,0,0:0:0:0:
64,192,90410,1,0,0:0:0:0:
192,192,90410,128,0,90785:0:0:0:0:
64,192,90785,1,0,0:0:0:0:
192,192,90973,1,0,0:0:0:0:
320,192,90973,1,0,0:0:0:0:
448,192,91160,128,0,91348:0:0:0:0:
64,192,91160,1,0,0:0:0:0:
320,192,91348,128,0,91535:0:0:0:0:
192,192,91535,1,0,0:0:0:0:
64,192,91723,1,0,0:0:0:0:
448,192,91723,1,0,0:0:0:0:
320,192,91816,1,0,0:0:0:0:
192,192,91910,1,0,0:0:0:0:
64,192,92098,1,0,0:0:0:0:
192,192,92285,1,0,0:0:0:0:
448,192,92285,1,0,0:0:0:0:
320,192,92473,1,0,0:0:0:0:
64,192,92473,1,0,0:0:0:0:
192,192,92660,1,0,0:0:0:0:
448,192,92848,128,0,93223:0:0:0:0:
64,192,92848,1,0,0:0:0:0:
320,192,93035,1,0,0:0:0:0:
64,192,93223,128,0,93598:0:0:0:0:
192,192,93223,1,0,0:0:0:0:
320,192,93410,1,0,0:0:0:0:
192,192,93598,128,0,93785:0:0:0:0:
448,192,93598,1,0,0:0:0:0:
448,192,93785,128,0,94160:0:0:0:0:
320,192,93785,1,0,0:0:0:0:
64,192,94160,1,0,0:0:0:0:
192,192,94348,1,0,0:0:0:0:
320,192,94410,1,0,0:0:0:0:
448,192,94473,1,0,0:0:0:0:
64,192,94535,1,0,0:0:0:0:
192,192,94598,1,0,0:0:0:0:
320,192,94660,1,0,0:0:0:0:
448,192,94723,1,0,0:0:0:0:
192,192,94816,1,0,0:0:0:0:
64,192,94910,1,0,0:0:0:0:
448,192,95004,1,0,0:0:0:0:
320,192,95098,1,0,0:0:0:0:
192,192,95191,1,0,0:0:0:0:
320,192,95285,1,0,0:0:0:0:
192,192,95379,1,0,0:0:0:0:
64,192,95473,1,0,0:0:0:0:
320,192,95566,1,0,0:0:0:0:
448,192,95660,128,0,95848:0:0:0:0:
64,192,95848,128,0,96035:0:0:0:0:
320,192,95848,1,0,0:0:0:0:
448,192,96035,1,0,0:0:0:0:
320,192,96098,1,0,0:0:0:0:
192,192,96160,1,0,0:0:0:0:
64,192,96223,1,0,0:0:0:0:
448,192,96223,128,0,96410:0:0:0:0:
64,192,96410,1,0,0:0:0:0:
192,192,96473,1,0,0:0:0:0:
320,192,96535,1,0,0:0:0:0:
64,192,96598,1,0,0:0:0:0:
448,192,96598,128,0,96785:0:0:0:0:
192,192,96691,1,0,0:0:0:0:
320,192,96785,128,0,97160:0:0:0:0:
64,192,96973,1,0,0:0:0:0:
448,192,96973,1,0,0:0:0:0:
192,192,96973,1,0,0:0:0:0:
192,192,97160,1,0,0:0:0:0:
64,192,97254,1,0,0:0:0:0:
448,192,97348,1,0,0:0:0:0:
320,192,97441,1,0,0:0:0:0:
192,192,97535,1,0,0:0:0:0:
320,192,97629,1,0,0:0:0:0:
64,192,97723,1,0,0:0:0:0:
192,192,97816,1,0,0:0:0:0:
320,192,97910,1,0,0:0:0:0:
448,192,98004,1,0,0:0:0:0:
64,192,98098,1,0,0:0:0:0:
192,192,98098,1,0,0:0:0:0:
448,192,98191,1,0,0:0:0:0:
320,192,98285,1,0,0:0:0:0:
64,192,98285,1,0,0:0:0:0:
192,192,98379,1,0,0:0:0:0:
320,192,98473,1,0,0:0:0:0:
192,192,98566,1,0,0:0:0:0:
64,192,98660,1,0,0:0:0:0:
320,192,98754,1,0,0:0:0:0:
448,192,98848,1,0,0:0:0:0:
192,192,98848,1,0,0:0:0:0:
64,192,98848,1,0,0:0:0:0:
320,192,99035,1,0,0:0:0:0:
192,192,99129,1,0,0:0:0:0:
64,192,99223,1,0,0:0:0:0:
448,192,99223,1,0,0:0:0:0:
448,192,99410,1,0,0:0:0:0:
192,192,99598,128,0,99973:0:0:0:0:
64,192,99598,1,0,0:0:0:0:
320,192,99973,1,0,0:0:0:0:
448,192,99973,1,0,0:0:0:0:
64,192,100160,1,0,0:0:0:0:
192,192,100348,1,0,0:0:0:0:
320,192,100535,1,0,0:0:0:0:
192,192,100723,1,0,0:0:0:0:
448,192,100723,128,0,100910:0:0:0:0:
64,192,100910,128,0,101285:0:0:0:0:
320,192,100910,1,0,0:0:0:0:
192,192,101285,1,0,0:0:0:0:
448,192,101285,128,0,101660:0:0:0:0:
64,192,101660,1,0,0:0:0:0:
192,192,101660,128,0,101848:0:0:0:0:
448,192,101848,1,0,0:0:0:0:
192,192,101941,1,0,0:0:0:0:
320,192,102035,1,0,0:0:0:0:
64,192,102129,1,0,0:0:0:0:
448,192,102223,1,0,0:0:0:0:
320,192,102316,1,0,0:0:0:0:
64,192,102410,1,0,0:0:0:0:
192,192,102504,1,0,0:0:0:0:
448,192,102598,1,0,0:0:0:0:
192,192,102691,1,0,0:0:0:0:
320,192,102785,1,0,0:0:0:0:
448,192,102879,1,0,0:0:0:0:
64,192,102973,1,0,0:0:0:0:
192,192,103066,1,0,0:0:0:0:
320,192,103160,1,0,0:0:0:0:
192,192,103254,1,0,0:0:0:0:
448,192,103348,1,0,0:0:0:0:
64,192,103348,128,0,103535:0:0:0:0:
192,192,103535,128,0,103723:0:0:0:0:
320,192,103723,128,0,103910:0:0:0:0:
192,192,103910,1,0,0:0:0:0:
448,192,103910,128,0,104285:0:0:0:0:
320,192,104285,1,0,0:0:0:0:
192,192,104285,128,0,104473:0:0:0:0:
64,192,104473,128,0,104660:0:0:0:0:
448,192,104473,1,0,0:0:0:0:
320,192,104660,1,0,0:0:0:0:
64,192,104848,1,0,0:0:0:0:
192,192,104848,1,0,0:0:0:0:
448,192,104848,128,0,106348:0:0:0:0:
320,192,105035,1,0,0:0:0:0:
64,192,105223,1,0,0:0:0:0:
320,192,105410,1,0,0:0:0:0:
192,192,105785,1,0,0:0:0:0:
64,192,105973,1,0,0:0:0:0:
320,192,105973,1,0,0:0:0:0:
64,192,106348,128,0,106629:0:0:0:0:
192,192,106348,1,0,0:0:0:0:
192,192,106629,128,0,106910:0:0:0:0:
320,192,106629,1,0,0:0:0:0:
320,192,106910,128,0,107098:0:0:0:0:
448,192,106910,1,0,0:0:0:0:
64,192,107098,1,0,0:0:0:0:
192,192,107098,128,0,107379:0:0:0:0:
448,192,107379,128,0,107660:0:0:0:0:
320,192,107379,1,0,0:0:0:0:
192,192,107660,128,0,107848:0:0:0:0:
64,192,107660,1,0,0:0:0:0:
448,192,107848,1,0,0:0:0:0:
64,192,107848,1,0,0:0:0:0:
320,192,107941,1,0,0:0:0:0:
192,192,108035,1,0,0:0:0:0:
448,192,108129,1,0,0:0:0:0:
64,192,108129,1,0,0:0:0:0:
320,192,108223,1,0,0:0:0:0:
192,192,108316,1,0,0:0:0:0:
448,192,108410,1,0,0:0:0:0:
64,192,108410,1,0,0:0:0:0:
320,192,108504,1,0,0:0:0:0:
192,192,108598,1,0,0:0:0:0:
64,192,108598,1,0,0:0:0:0:
320,192,108691,1,0,0:0:0:0:
448,192,108785,1,0,0:0:0:0:
192,192,108879,1,0,0:0:0:0:
64,192,108879,1,0,0:0:0:0:
320,192,108973,1,0,0:0:0:0:
448,192,109066,1,0,0:0:0:0:
192,192,109160,1,0,0:0:0:0:
64,192,109160,1,0,0:0:0:0:
320,192,109254,1,0,0:0:0:0:
64,192,109348,1,0,0:0:0:0:
448,192,109348,1,0,0:0:0:0:
192,192,109441,1,0,0:0:0:0:
320,192,109535,1,0,0:0:0:0:
448,192,109629,1,0,0:0:0:0:
192,192,109723,1,0,0:0:0:0:
320,192,109816,1,0,0:0:0:0:
448,192,109910,1,0,0:0:0:0:
320,192,110004,1,0,0:0:0:0:
448,192,110098,1,0,0:0:0:0:
64,192,110098,1,0,0:0:0:0:
320,192,110191,1,0,0:0:0:0:
192,192,110285,1,0,0:0:0:0:
64,192,110379,1,0,0:0:0:0:
192,192,110473,1,0,0:0:0:0:
64,192,110566,1,0,0:0:0:0:
320,192,110660,1,0,0:0:0:0:
192,192,110754,1,0,0:0:0:0:
64,192,110848,1,0,0:0:0:0:
448,192,110848,1,0,0:0:0:0:
320,192,110848,1,0,0:0:0:0:
192,192,111223,128,0,111410:0:0:0:0:
64,192,111410,1,0,0:0:0:0:
320,192,111410,1,0,0:0:0:0:
448,192,111598,1,0,0:0:0:0:
320,192,111691,1,0,0:0:0:0:
64,192,111785,1,0,0:0:0:0:
192,192,111973,1,0,0:0:0:0:
320,192,111973,1,0,0:0:0:0:
448,192,112160,1,0,0:0:0:0:
64,192,112160,1,0,0:0:0:0:
320,192,112535,1,0,0:0:0:0:
64,192,112535,1,0,0:0:0:0:
64,192,112910,1,0,0:0:0:0:
192,192,112910,1,0,0:0:0:0:
320,192,113098,1,0,0:0:0:0:
448,192,113098,128,0,113473:0:0:0:0:
192,192,113473,128,0,113848:0:0:0:0:
320,192,113473,1,0,0:0:0:0:
448,192,113660,1,0,0:0:0:0:
64,192,113848,1,0,0:0:0:0:
320,192,113848,1,0,0:0:0:0:
192,192,114223,128,0,114410:0:0:0:0:
64,192,114410,1,0,0:0:0:0:
320,192,114410,1,0,0:0:0:0:
192,192,114598,1,0,0:0:0:0:
320,192,114691,1,0,0:0:0:0:
448,192,114785,1,0,0:0:0:0:
64,192,114973,1,0,0:0:0:0:
192,192,114973,1,0,0:0:0:0:
64,192,115160,1,0,0:0:0:0:
320,192,115160,1,0,0:0:0:0:
192,192,115535,1,0,0:0:0:0:
448,192,115535,1,0,0:0:0:0:
192,192,115910,1,0,0:0:0:0:
320,192,115910,1,0,0:0:0:0:
64,192,116098,1,0,0:0:0:0:
448,192,116098,128,0,116473:0:0:0:0:
64,192,116473,128,0,116848:0:0:0:0:
192,192,116473,1,0,0:0:0:0:
320,192,116660,1,0,0:0:0:0:
448,192,116848,1,0,0:0:0:0:
192,192,116848,1,0,0:0:0:0:
64,192,117035,1,0,0:0:0:0:
192,192,117129,1,0,0:0:0:0:
320,192,117223,1,0,0:0:0:0:
192,192,117316,1,0,0:0:0:0:
64,192,117410,1,0,0:0:0:0:
448,192,117410,1,0,0:0:0:0:
320,192,117598,1,0,0:0:0:0:
192,192,117691,1,0,0:0:0:0:
64,192,117785,1,0,0:0:0:0:
320,192,117879,1,0,0:0:0:0:
192,192,117973,1,0,0:0:0:0:
448,192,117973,1,0,0:0:0:0:
320,192,118066,1,0,0:0:0:0:
64,192,118160,1,0,0:0:0:0:
448,192,118160,1,0,0:0:0:0:
192,192,118254,1,0,0:0:0:0:
320,192,118348,1,0,0:0:0:0:
192,192,118441,1,0,0:0:0:0:
448,192,118535,1,0,0:0:0:0:
64,192,118535,1,0,0:0:0:0:
320,192,118629,1,0,0:0:0:0:
192,192,118723,1,0,0:0:0:0:
320,192,118816,1,0,0:0:0:0:
192,192,118910,1,0,0:0:0:0:
448,192,118910,1,0,0:0:0:0:
64,192,119004,1,0,0:0:0:0:
448,192,119098,1,0,0:0:0:0:
320,192,119098,1,0,0:0:0:0:
192,192,119285,1,0,0:0:0:0:
64,192,119473,1,0,0:0:0:0:
320,192,119473,1,0,0:0:0:0:
448,192,119473,1,0,0:0:0:0:
448,192,119660,1,0,0:0:0:0:
64,192,119660,1,0,0:0:0:0:
192,192,119848,1,0,0:0:0:0:
320,192,119848,1,0,0:0:0:0:
64,192,120035,1,0,0:0:0:0:
320,192,120129,1,0,0:0:0:0:
64,192,120223,1,0,0:0:0:0:
192,192,120410,1,0,0:0:0:0:
320,192,120410,1,0,0:0:0:0:
64,192,120598,1,0,0:0:0:0:
448,192,120598,1,0,0:0:0:0:
448,192,120785,1,0,0:0:0:0:
192,192,120879,1,0,0:0:0:0:
448,192,120973,1,0,0:0:0:0:
320,192,121160,1,0,0:0:0:0:
64,192,121160,1,0,0:0:0:0:
64,192,121348,1,0,0:0:0:0:
192,192,121348,1,0,0:0:0:0:
320,192,121441,1,0,0:0:0:0:
448,192,121535,1,0,0:0:0:0:
192,192,121535,1,0,0:0:0:0:
64,192,121723,1,0,0:0:0:0:
448,192,121910,1,0,0:0:0:0:
64,192,121910,128,0,122285:0:0:0:0:
320,192,121910,1,0,0:0:0:0:
320,192,122285,1,0,0:0:0:0:
448,192,122285,1,0,0:0:0:0:
320,192,122473,1,0,0:0:0:0:
192,192,122473,1,0,0:0:0:0:
64,192,122660,1,0,0:0:0:0:
448,192,122848,128,0,122941:0:0:0:0:
192,192,122848,128,0,122941:0:0:0:0:
192,192,123035,1,0,0:0:0:0:
448,192,123035,1,0,0:0:0:0:
64,192,123223,128,0,123316:0:0:0:0:
320,192,123223,128,0,123316:0:0:0:0:
64,192,123410,1,0,0:0:0:0:
320,192,123410,1,0,0:0:0:0:
192,192,123598,128,0,123691:0:0:0:0:
448,192,123598,128,0,123691:0:0:0:0:
448,192,123785,1,0,0:0:0:0:
192,192,123785,1,0,0:0:0:0:
64,192,123973,128,0,124066:0:0:0:0:
320,192,123973,128,0,124066:0:0:0:0:
320,192,124160,1,0,0:0:0:0:
64,192,124160,1,0,0:0:0:0:
192,192,125098,1,0,0:0:0:0:
64,192,125473,1,0,0:0:0:0:
320,192,125473,1,0,0:0:0:0:
448,192,125473,1,0,0:0:0:0:
192,192,125848,1,0,0:0:0:0:
320,192,125848,1,0,0:0:0:0:
64,192,126035,1,0,0:0:0:0:
448,192,126129,1,0,0:0:0:0:
320,192,126223,1,0,0:0:0:0:
192,192,126223,1,0,0:0:0:0:
448,192,126410,128,0,126785:0:0:0:0:
64,192,126410,1,0,0:0:0:0:
320,192,126785,1,0,0:0:0:0:
192,192,126973,1,0,0:0:0:0:
64,192,126973,1,0,0:0:0:0:
320,192,127160,1,0,0:0:0:0:
448,192,127348,1,0,0:0:0:0:
64,192,127535,1,0,0:0:0:0:
448,192,127629,1,0,0:0:0:0:
192,192,127723,1,0,0:0:0:0:
320,192,127723,1,0,0:0:0:0:
448,192,127910,1,0,0:0:0:0:
64,192,128098,1,0,0:0:0:0:
448,192,128098,128,0,128285:0:0:0:0:
192,192,128285,128,0,128473:0:0:0:0:
64,192,128473,1,0,0:0:0:0:
320,192,128473,128,0,128660:0:0:0:0:
448,192,128660,128,0,128848:0:0:0:0:
192,192,128848,1,0,0:0:0:0:
64,192,128848,1,0,0:0:0:0:
320,192,129035,1,0,0:0:0:0:
192,192,129129,1,0,0:0:0:0:
448,192,129223,1,0,0:0:0:0:
64,192,129223,1,0,0:0:0:0:
192,192,129410,128,0,129785:0:0:0:0:
320,192,129410,1,0,0:0:0:0:
448,192,129785,1,0,0:0:0:0:
192,192,129879,1,0,0:0:0:0:
320,192,129973,1,0,0:0:0:0:
64,192,129973,1,0,0:0:0:0:
192,192,130160,1,0,0:0:0:0:
448,192,130348,1,0,0:0:0:0:
64,192,130348,1,0,0:0:0:0:
192,192,130535,1,0,0:0:0:0:
64,192,130629,1,0,0:0:0:0:
320,192,130723,1,0,0:0:0:0:
448,192,130910,1,0,0:0:0:0:
192,192,130910,128,0,131285:0:0:0:0:
64,192,131098,1,0,0:0:0:0:
64,192,131285,1,0,0:0:0:0:
448,192,131285,128,0,131473:0:0:0:0:
192,192,131473,1,0,0:0:0:0:
320,192,131473,128,0,131660:0:0:0:0:
64,192,131660,128,0,131848:0:0:0:0:
448,192,131660,1,0,0:0:0:0:
320,192,131848,1,0,0:0:0:0:
192,192,131848,1,0,0:0:0:0:
448,192,132035,1,0,0:0:0:0:
320,192,132223,1,0,0:0:0:0:
64,192,132223,1,0,0:0:0:0:
192,192,132410,128,0,132785:0:0:0:0:
320,192,132410,1,0,0:0:0:0:
448,192,132785,1,0,0:0:0:0:
320,192,132973,1,0,0:0:0:0:
64,192,132973,1,0,0:0:0:0:
192,192,133160,1,0,0:0:0:0:
448,192,133160,1,0,0:0:0:0:
64,192,133348,1,0,0:0:0:0:
320,192,133535,1,0,0:0:0:0:
448,192,133535,1,0,0:0:0:0:
192,192,133723,1,0,0:0:0:0:
64,192,133723,1,0,0:0:0:0:
320,192,133910,1,0,0:0:0:0:
64,192,134098,1,0,0:0:0:0:
448,192,134098,1,0,0:0:0:0:
192,192,134285,1,0,0:0:0:0:
320,192,134285,1,0,0:0:0:0:
64,192,134473,1,0,0:0:0:0:
320,192,134660,1,0,0:0:0:0:
448,192,134660,1,0,0:0:0:0:
64,192,134848,1,0,0:0:0:0:
192,192,134848,1,0,0:0:0:0:
64,192,135035,1,0,0:0:0:0:
448,192,135035,1,0,0:0:0:0:
192,192,135223,1,0,0:0:0:0:
320,192,135223,1,0,0:0:0:0:
448,192,135410,1,0,0:0:0:0:
320,192,135410,1,0,0:0:0:0:
64,192,135598,1,0,0:0:0:0:
192,192,135691,1,0,0:0:0:0:
320,192,135785,1,0,0:0:0:0:
64,192,135785,1,0,0:0:0:0:
192,192,135879,1,0,0:0:0:0:
448,192,135973,1,0,0:0:0:0:
64,192,136066,1,0,0:0:0:0:
320,192,136160,1,0,0:0:0:0:
448,192,136160,1,0,0:0:0:0:
192,192,136254,1,0,0:0:0:0:
64,192,136348,1,0,0:0:0:0:
320,192,136348,1,0,0:0:0:0:
448,192,136441,1,0,0:0:0:0:
192,192,136535,1,0,0:0:0:0:
320,192,136629,1,0,0:0:0:0:
64,192,136723,1,0,0:0:0:0:
192,192,136816,1,0,0:0:0:0:
448,192,136910,1,0,0:0:0:0:
64,192,137004,1,0,0:0:0:0:
448,192,137098,1,0,0:0:0:0:
320,192,137191,1,0,0:0:0:0:
64,192,137285,1,0,0:0:0:0:
192,192,137285,1,0,0:0:0:0:
448,192,137379,1,0,0:0:0:0:
320,192,137473,1,0,0:0:0:0:
192,192,137473,1,0,0:0:0:0:
64,192,137566,1,0,0:0:0:0:
448,192,137660,1,0,0:0:0:0:
320,192,137660,1,0,0:0:0:0:
192,192,137754,1,0,0:0:0:0:
448,192,137848,1,0,0:0:0:0:
64,192,137848,1,0,0:0:0:0:
320,192,137848,1,0,0:0:0:0:
192,192,138035,1,0,0:0:0:0:
320,192,138223,1,0,0:0:0:0:
64,192,138223,1,0,0:0:0:0:
448,192,138410,1,0,0:0:0:0:
192,192,138410,128,0,138785:0:0:0:0:
320,192,138598,1,0,0:0:0:0:
448,192,138785,1,0,0:0:0:0:
192,192,138973,1,0,0:0:0:0:
320,192,138973,1,0,0:0:0:0:
192,192,139160,1,0,0:0:0:0:
64,192,139160,1,0,0:0:0:0:
320,192,139348,1,0,0:0:0:0:
448,192,139535,1,0,0:0:0:0:
320,192,139629,1,0,0:0:0:0:
448,192,139723,1,0,0:0:0:0:
64,192,139723,1,0,0:0:0:0:
320,192,139910,1,0,0:0:0:0:
192,192,140098,128,0,140285:0:0:0:0:
448,192,140098,1,0,0:0:0:0:
64,192,140285,128,0,140473:0:0:0:0:
448,192,140473,128,0,140660:0:0:0:0:
320,192,140473,1,0,0:0:0:0:
192,192,140660,128,0,140848:0:0:0:0:
320,192,140848,1,0,0:0:0:0:
64,192,140848,1,0,0:0:0:0:
448,192,141035,1,0,0:0:0:0:
192,192,141223,1,0,0:0:0:0:
64,192,141223,1,0,0:0:0:0:
320,192,141410,128,0,141785:0:0:0:0:
448,192,141410,1,0,0:0:0:0:
192,192,141598,1,0,0:0:0:0:
64,192,141785,1,0,0:0:0:0:
448,192,141785,1,0,0:0:0:0:
320,192,141879,1,0,0:0:0:0:
192,192,141973,1,0,0:0:0:0:
64,192,142160,1,0,0:0:0:0:
448,192,142160,1,0,0:0:0:0:
192,192,142254,1,0,0:0:0:0:
448,192,142348,128,0,142723:0:0:0:0:
320,192,142535,1,0,0:0:0:0:
192,192,142629,1,0,0:0:0:0:
64,192,142723,1,0,0:0:0:0:
448,192,142910,1,0,0:0:0:0:
192,192,143098,1,0,0:0:0:0:
320,192,143098,128,0,143285:0:0:0:0:
192,192,143285,1,0,0:0:0:0:
64,192,143285,128,0,143473:0:0:0:0:
448,192,143473,1,0,0:0:0:0:
320,192,143473,128,0,143660:0:0:0:0:
192,192,143660,1,0,0:0:0:0:
64,192,143660,128,0,143848:0:0:0:0:
448,192,143848,1,0,0:0:0:0:
192,192,143848,1,0,0:0:0:0:
320,192,143848,1,0,0:0:0:0:
448,192,144035,1,0,0:0:0:0:
320,192,144223,1,0,0:0:0:0:
64,192,144223,1,0,0:0:0:0:
192,192,144410,128,0,144598:0:0:0:0:
320,192,144410,1,0,0:0:0:0:
448,192,144598,1,0,0:0:0:0:
320,192,144785,1,0,0:0:0:0:
64,192,144785,1,0,0:0:0:0:
192,192,144973,1,0,0:0:0:0:
320,192,144973,128,0,145160:0:0:0:0:
448,192,145160,1,0,0:0:0:0:
192,192,145348,1,0,0:0:0:0:
320,192,145348,1,0,0:0:0:0:
64,192,145348,128,0,145535:0:0:0:0:
448,192,145535,1,0,0:0:0:0:
192,192,145723,1,0,0:0:0:0:
320,192,145723,128,0,145910:0:0:0:0:
64,192,145910,1,0,0:0:0:0:
320,192,146098,1,0,0:0:0:0:
192,192,146098,128,0,146285:0:0:0:0:
64,192,146285,1,0,0:0:0:0:
448,192,146285,128,0,146473:0:0:0:0:
320,192,146473,1,0,0:0:0:0:
192,192,146660,1,0,0:0:0:0:
64,192,146660,128,0,146848:0:0:0:0:
192,192,146848,1,0,0:0:0:0:
320,192,146848,1,0,0:0:0:0:
448,192,146848,128,0,147035:0:0:0:0:
64,192,147035,128,0,147223:0:0:0:0:
192,192,147223,128,0,147410:0:0:0:0:
320,192,147410,128,0,147785:0:0:0:0:
448,192,147598,1,0,0:0:0:0:
64,192,147598,1,0,0:0:0:0:
192,192,147598,1,0,0:0:0:0:
192,192,147785,128,0,147973:0:0:0:0:
320,192,147973,128,0,148160:0:0:0:0:
448,192,148160,128,0,148348:0:0:0:0:
192,192,148348,1,0,0:0:0:0:
64,192,148348,1,0,0:0:0:0:
320,192,148441,1,0,0:0:0:0:
64,192,148535,1,0,0:0:0:0:
192,192,148629,1,0,0:0:0:0:
448,192,148723,1,0,0:0:0:0:
192,192,148816,1,0,0:0:0:0:
64,192,148910,1,0,0:0:0:0:
320,192,149004,1,0,0:0:0:0:
192,192,149098,1,0,0:0:0:0:
448,192,149098,128,0,149191:0:0:0:0:
320,192,149191,128,0,149285:0:0:0:0:
192,192,149285,128,0,149379:0:0:0:0:
64,192,149379,128,0,149473:0:0:0:0:
192,192,149473,1,0,0:0:0:0:
448,192,149473,128,0,149566:0:0:0:0:
320,192,149566,128,0,149660:0:0:0:0:
192,192,149660,128,0,149754:0:0:0:0:
64,192,149754,128,0,149848:0:0:0:0:
320,192,149848,1,0,0:0:0:0:
448,192,149848,1,0,0:0:0:0:
64,192,150035,1,0,0:0:0:0:
192,192,150223,1,0,0:0:0:0:
448,192,150223,1,0,0:0:0:0:
320,192,150410,1,0,0:0:0:0:
448,192,150410,128,0,150785:0:0:0:0:
192,192,150598,1,0,0:0:0:0:
64,192,150785,1,0,0:0:0:0:
192,192,150973,1,0,0:0:0:0:
320,192,150973,1,0,0:0:0:0:
192,192,151160,1,0,0:0:0:0:
448,192,151160,1,0,0:0:0:0:
320,192,151348,1,0,0:0:0:0:
64,192,151348,1,0,0:0:0:0:
192,192,151535,1,0,0:0:0:0:
320,192,151629,1,0,0:0:0:0:
64,192,151723,1,0,0:0:0:0:
448,192,151723,1,0,0:0:0:0:
320,192,151910,1,0,0:0:0:0:
192,192,152098,1,0,0:0:0:0:
448,192,152098,1,0,0:0:0:0:
320,192,152285,128,0,152473:0:0:0:0:
64,192,152473,128,0,152660:0:0:0:0:
192,192,152473,1,0,0:0:0:0:
320,192,152660,128,0,152848:0:0:0:0:
448,192,152848,128,0,154348:0:0:0:0:
64,192,152848,1,0,0:0:0:0:
192,192,153035,1,0,0:0:0:0:
64,192,153223,1,0,0:0:0:0:
320,192,153223,1,0,0:0:0:0:
192,192,153410,1,0,0:0:0:0:
320,192,153410,1,0,0:0:0:0:
64,192,153598,1,0,0:0:0:0:
320,192,153785,1,0,0:0:0:0:
192,192,153973,1,0,0:0:0:0:
64,192,153973,1,0,0:0:0:0:
64,192,154160,1,0,0:0:0:0:
320,192,154348,128,0,154535:0:0:0:0:
192,192,154348,1,0,0:0:0:0:
64,192,154535,128,0,154723:0:0:0:0:
448,192,154723,128,0,154910:0:0:0:0:
320,192,154723,1,0,0:0:0:0:
192,192,154910,128,0,155098:0:0:0:0:
320,192,155098,128,0,155285:0:0:0:0:
448,192,155098,1,0,0:0:0:0:
64,192,155285,128,0,155660:0:0:0:0:
192,192,155285,1,0,0:0:0:0:
320,192,155473,1,0,0:0:0:0:
448,192,155473,1,0,0:0:0:0:
192,192,155660,128,0,155848:0:0:0:0:
448,192,155848,128,0,156785:0:0:0:0:
64,192,155848,1,0,0:0:0:0:
192,192,156035,1,0,0:0:0:0:
320,192,156223,1,0,0:0:0:0:
64,192,156223,1,0,0:0:0:0:
320,192,156410,1,0,0:0:0:0:
192,192,156410,1,0,0:0:0:0:
64,192,156598,1,0,0:0:0:0:
192,192,156785,1,0,0:0:0:0:
320,192,156973,1,0,0:0:0:0:
64,192,156973,1,0,0:0:0:0:
192,192,157160,1,0,0:0:0:0:
448,192,157160,1,0,0:0:0:0:
320,192,157348,1,0,0:0:0:0:
192,192,157535,1,0,0:0:0:0:
64,192,157535,1,0,0:0:0:0:
320,192,157723,1,0,0:0:0:0:
448,192,157723,1,0,0:0:0:0:
64,192,157910,1,0,0:0:0:0:
192,192,158098,1,0,0:0:0:0:
448,192,158098,1,0,0:0:0:0:
320,192,158285,1,0,0:0:0:0:
64,192,158285,1,0,0:0:0:0:
448,192,158473,1,0,0:0:0:0:
192,192,158660,1,0,0:0:0:0:
64,192,158660,1,0,0:0:0:0:
448,192,158848,1,0,0:0:0:0:
320,192,158848,128,0,159035:0:0:0:0:
192,192,159035,1,0,0:0:0:0:
448,192,159223,1,0,0:0:0:0:
320,192,159223,128,0,159410:0:0:0:0:
64,192,159410,1,0,0:0:0:0:
192,192,159598,1,0,0:0:0:0:
320,192,159598,128,0,159785:0:0:0:0:
64,192,159785,1,0,0:0:0:0:
448,192,159785,128,0,159973:0:0:0:0:
64,192,159973,1,0,0:0:0:0:
192,192,159973,1,0,0:0:0:0:
320,192,159973,1,0,0:0:0:0:
448,192,160160,128,0,160348:0:0:0:0:
320,192,160348,1,0,0:0:0:0:
64,192,160348,128,0,160441:0:0:0:0:
192,192,160441,128,0,160535:0:0:0:0:
448,192,160535,128,0,160629:0:0:0:0:
320,192,160629,128,0,160723:0:0:0:0:
64,192,160723,1,0,0:0:0:0:
192,192,160723,128,0,160816:0:0:0:0:
320,192,160816,128,0,160910:0:0:0:0:
448,192,160910,128,0,161004:0:0:0:0:
64,192,161004,128,0,161098:0:0:0:0:
448,192,161098,1,0,0:0:0:0:
320,192,161098,128,0,161191:0:0:0:0:
192,192,161191,128,0,161285:0:0:0:0:
64,192,161285,1,0,0:0:0:0:
448,192,161285,128,0,161379:0:0:0:0:
320,192,161379,128,0,161473:0:0:0:0:
192,192,161473,1,0,0:0:0:0:
64,192,161473,128,0,161566:0:0:0:0:
448,192,161566,128,0,161660:0:0:0:0:
320,192,161660,1,0,0:0:0:0:
192,192,161660,128,0,161754:0:0:0:0:
64,192,161754,128,0,161848:0:0:0:0:
320,192,161848,1,0,0:0:0:0:
448,192,161848,1,0,0:0:0:0:
64,192,162035,1,0,0:0:0:0:
192,192,162223,1,0,0:0:0:0:
448,192,162223,1,0,0:0:0:0:
448,192,162410,1,0,0:0:0:0:
64,192,162410,1,0,0:0:0:0:
320,192,162598,1,0,0:0:0:0:
192,192,162598,1,0,0:0:0:0:
448,192,162785,1,0,0:0:0:0:
320,192,162973,1,0,0:0:0:0:
64,192,162973,1,0,0:0:0:0:
64,192,163160,1,0,0:0:0:0:
448,192,163160,1,0,0:0:0:0:
192,192,163348,1,0,0:0:0:0:
320,192,163348,1,0,0:0:0:0:
64,192,163535,1,0,0:0:0:0:
192,192,163629,1,0,0:0:0:0:
320,192,163723,1,0,0:0:0:0:
448,192,163723,1,0,0:0:0:0:
192,192,163910,1,0,0:0:0:0:
320,192,163910,1,0,0:0:0:0:
64,192,164098,1,0,0:0:0:0:
448,192,164098,1,0,0:0:0:0:
192,192,164285,128,0,164473:0:0:0:0:
64,192,164285,1,0,0:0:0:0:
320,192,164473,128,0,164660:0:0:0:0:
448,192,164473,1,0,0:0:0:0:
64,192,164660,128,0,164848:0:0:0:0:
192,192,164660,1,0,0:0:0:0:
448,192,164848,128,0,165035:0:0:0:0:
320,192,164848,1,0,0:0:0:0:
320,192,165129,128,0,165316:0:0:0:0:
192,192,165129,1,0,0:0:0:0:
192,192,165410,128,0,165598:0:0:0:0:
64,192,165410,1,0,0:0:0:0:
320,192,165598,128,0,165785:0:0:0:0:
448,192,165598,1,0,0:0:0:0:
192,192,165879,128,0,166066:0:0:0:0:
448,192,165879,1,0,0:0:0:0:
64,192,166160,128,0,166348:0:0:0:0:
320,192,166160,1,0,0:0:0:0:
192,192,166348,128,0,166723:0:0:0:0:
448,192,166348,1,0,0:0:0:0:
320,192,166535,1,0,0:0:0:0:
64,192,166723,1,0,0:0:0:0:
448,192,166723,1,0,0:0:0:0:
192,192,166910,1,0,0:0:0:0:
64,192,167098,1,0,0:0:0:0:
448,192,167098,1,0,0:0:0:0:
320,192,167191,1,0,0:0:0:0:
192,192,167285,1,0,0:0:0:0:
448,192,167285,1,0,0:0:0:0:
320,192,167473,1,0,0:0:0:0:
448,192,167473,1,0,0:0:0:0:
64,192,167473,1,0,0:0:0:0:
192,192,167660,1,0,0:0:0:0:
64,192,167848,1,0,0:0:0:0:
448,192,167848,1,0,0:0:0:0:
320,192,167848,1,0,0:0:0:0:
320,192,168035,1,0,0:0:0:0:
192,192,168035,1,0,0:0:0:0:
64,192,168223,1,0,0:0:0:0:
192,192,168223,1,0,0:0:0:0:
448,192,168410,128,0,168785:0:0:0:0:
320,192,168410,1,0,0:0:0:0:
192,192,168598,1,0,0:0:0:0:
320,192,168785,1,0,0:0:0:0:
64,192,168785,1,0,0:0:0:0:
192,192,168973,1,0,0:0:0:0:
320,192,168973,1,0,0:0:0:0:
64,192,169160,1,0,0:0:0:0:
320,192,169348,1,0,0:0:0:0:
448,192,169348,1,0,0:0:0:0:
192,192,169348,1,0,0:0:0:0:
64,192,169535,1,0,0:0:0:0:
320,192,169723,1,0,0:0:0:0:
448,192,169723,1,0,0:0:0:0:
192,192,169910,1,0,0:0:0:0:
64,192,170098,1,0,0:0:0:0:
192,192,170098,1,0,0:0:0:0:
320,192,170285,1,0,0:0:0:0:
448,192,170285,1,0,0:0:0:0:
320,192,170473,1,0,0:0:0:0:
64,192,170473,1,0,0:0:0:0:
448,192,170660,1,0,0:0:0:0:
192,192,170660,1,0,0:0:0:0:
320,192,170848,1,0,0:0:0:0:
64,192,170848,1,0,0:0:0:0:
448,192,170848,1,0,0:0:0:0:
192,192,171035,1,0,0:0:0:0:
64,192,171035,1,0,0:0:0:0:
320,192,171223,1,0,0:0:0:0:
448,192,171223,1,0,0:0:0:0:
64,192,171410,1,0,0:0:0:0:
448,192,171410,1,0,0:0:0:0:
192,192,171598,1,0,0:0:0:0:
320,192,171598,1,0,0:0:0:0:
64,192,171598,1,0,0:0:0:0:
448,192,171785,1,0,0:0:0:0:
320,192,171785,1,0,0:0:0:0:
192,192,171973,1,0,0:0:0:0:
448,192,171973,1,0,0:0:0:0:
64,192,172160,1,0,0:0:0:0:
64,192,172348,1,0,0:0:0:0:
448,192,172348,1,0,0:0:0:0:
320,192,172348,128,0,172441:0:0:0:0:
192,192,172441,128,0,172535:0:0:0:0:
320,192,172535,128,0,172629:0:0:0:0:
448,192,172629,128,0,172723:0:0:0:0:
320,192,172723,1,0,0:0:0:0:
64,192,172723,128,0,172816:0:0:0:0:
192,192,172816,128,0,172910:0:0:0:0:
320,192,172910,128,0,173004:0:0:0:0:
64,192,173004,128,0,173098:0:0:0:0:
192,192,173098,1,0,0:0:0:0:
448,192,173098,128,0,173191:0:0:0:0:
320,192,173191,128,0,173285:0:0:0:0:
64,192,173285,1,0,0:0:0:0:
192,192,173285,128,0,173379:0:0:0:0:
448,192,173379,128,0,173473:0:0:0:0:
192,192,173473,1,0,0:0:0:0:
320,192,173473,128,0,173566:0:0:0:0:
64,192,173566,128,0,173660:0:0:0:0:
320,192,173660,1,0,0:0:0:0:
448,192,173660,128,0,173754:0:0:0:0:
192,192,173754,128,0,173848:0:0:0:0:
64,192,173848,1,0,0:0:0:0:
448,192,173848,1,0,0:0:0:0:
320,192,173848,1,0,0:0:0:0:
