osu file format v14

[General]
AudioFilename: tsuKI NIIIIIIIIIIII WA MURAKUMOOOOOO.mp3
AudioLeadIn: 0
PreviewTime: 62236
Countdown: 0
SampleSet: Soft
StackLeniency: 0.7
Mode: 2
LetterboxInBreaks: 0
WidescreenStoryboard: 1

[Editor]
Bookmarks: 13580,25580,37580,49580,63080,75080,87080
DistanceSpacing: 1.2
BeatDivisor: 4
GridSize: 4
TimelineZoom: 2.899999

[Metadata]
Title:Tsuki ni Murakumo Hana Ni Kaze (PV ver.)
TitleUnicode:月に叢雲華に風 (PV ver.)
Artist:senya
ArtistUnicode:senya
Creator:Benita
Version:Magic Girl & Hyperion's Rain
Source:東方地霊殿 ~ Subterranean Animism.
Tags:Touhou Project Toho Arrange Album Chireiden Earth Spirit Palace Clouds Over the Moon, and Wind Over the Flowers Iceon Kamase Tora かませ虎 senya 森永真由美 Morinaga Mayumi ラストリモート Last Remote Extra Stage Theme moimoi 幻想万華鏡~The Memories of Phantasm~ Gensou Mangekyou Fantasy Kaleidoscope Manpuku Jinja video game japanese jpop j-pop Magic Girl wonjae Paranoid Grapes JBH JBHyperion BennyBananas Benny-
BeatmapID:2654792
BeatmapSetID:1277845

[Difficulty]
HPDrainRate:6
CircleSize:4
OverallDifficulty:9
ApproachRate:9
SliderMultiplier:1.7
SliderTickRate:2

[Events]
//Background and Video events
0,0,"hAAAANA NI WA KAZE TOOO.jpg",0,0
//Break Periods
//Storyboard Layer 0 (Background)
//Storyboard Layer 1 (Fail)
//Storyboard Layer 2 (Pass)
//Storyboard Layer 3 (Foreground)
//Storyboard Layer 4 (Overlay)
//Storyboard Sound Samples

[TimingPoints]
-1700,375,4,2,1,50,1,0
550,-153.846153846153,4,2,1,50,0,0
1300,-100,4,2,1,50,0,0
2800,-80,4,2,1,50,0,0
3175,-100,4,2,1,50,0,0
5800,-80,4,2,1,50,0,0
6175,-100,4,2,1,50,0,0
7300,-80,4,2,1,50,0,0
8237,-100,4,2,1,50,0,0
10300,-80,4,2,1,60,0,0
10675,-100,4,2,1,60,0,0
10862,-100,4,2,1,70,0,0
11800,-80,4,2,1,75,0,0
12175,-100,4,2,1,75,0,0
13300,-100,4,2,1,80,0,0
13862,-66.6666666666667,4,2,1,80,0,0
14237,-66.6666666666667,4,2,1,80,0,0
14987,-100,4,2,1,80,0,0
19300,-76.9230769230769,4,2,1,80,0,0
20237,-100,4,2,1,80,0,0
21362,-76.9230769230769,4,2,1,80,0,0
21737,-100,4,2,1,80,0,0
22300,-76.9230769230769,4,2,1,80,0,0
23425,-100,4,2,1,80,0,0
25300,-80,4,2,1,50,0,0
25675,-100,4,2,1,50,0,0
32800,-80,4,2,1,50,0,0
33175,-100,4,2,1,50,0,0
36925,-100,4,2,1,60,0,0
37300,-80,4,2,1,80,0,0
37675,-100,4,2,1,80,0,0
43300,-100,4,2,1,80,0,0
43675,-100,4,2,1,80,0,0
44050,-80,4,2,1,80,0,0
44425,-100,4,2,1,80,0,0
46300,-100,4,2,1,80,0,0
47425,-100,4,2,1,80,0,0
47800,-100,4,2,1,80,0,0
48175,-100,4,2,1,80,0,0
48550,-100,4,2,1,80,0,0
49300,-100,4,2,1,80,0,0
50612,-80,4,2,1,80,0,0
50987,-100,4,2,1,80,0,0
53612,-80,4,2,1,80,0,0
53987,-100,4,2,1,80,0,0
55300,-100,4,2,1,80,0,0
55862,-80,4,2,1,80,0,0
56237,-100,4,2,1,80,0,0
56612,-66.6666666666667,4,2,1,80,0,0
56893,-100,4,2,1,80,0,0
59050,-86.9565217391304,4,2,1,80,0,0
59612,-100,4,2,1,80,0,0
62050,-100,4,2,1,80,0,0
62800,-66.6666666666667,4,2,1,90,0,1
63175,-83.3333333333333,4,2,1,90,0,1
80800,-100,4,2,1,90,0,1
81175,-100,4,2,1,90,0,1
82300,-100,4,2,1,90,0,1
82675,-100,4,2,1,90,0,1
83800,-80,4,2,1,90,0,1
84175,-80,4,2,1,90,0,1
84550,-80,4,2,1,90,0,1
84925,-80,4,2,1,90,0,1
85300,-80,4,2,1,90,0,1
85675,-80,4,2,1,90,0,1
86050,-80,4,2,1,90,0,1
86800,-80,4,2,1,50,0,0
87175,-100,4,2,1,50,0,0
88862,-133.333333333333,4,2,1,50,0,0
89612,-100,4,2,1,50,0,0
96175,-100,4,2,1,50,0,0
96550,-100,4,2,1,50,0,0
96925,-100,4,2,1,50,0,0
97300,-100,4,2,1,50,0,0
97675,-100,4,2,1,45,0,0
98050,-100,4,2,1,30,0,0
98425,-100,4,2,1,25,0,0
98800,-100,4,2,1,20,0,0
99175,-100,4,2,1,15,0,0
99550,-100,4,2,1,5,0,0

[Colours]
Combo1 : 255,79,79
Combo2 : 253,181,128
Combo3 : 250,235,48
Combo4 : 53,255,104
Combo5 : 186,117,255

[HitObjects]
396,248,550,6,0,L|400:132,1,110.499994941712,2|0,0:0|0:0,0:0:0:0:
132,192,1300,5,2,0:0:0:0:
64,148,1487,1,0,0:0:0:0:
70,67,1675,1,0,0:0:0:0:
145,35,1862,1,2,0:0:0:0:
324,36,2050,2,0,L|338:118,1,85,0|0,0:0|0:0,0:0:0:0:
149,148,2425,2,0,L|49:148,1,85,0|0,0:0|0:0,0:0:0:0:
372,120,2800,6,0,P|468:152|504:252,1,212.5,2|0,0:0|0:0,0:0:0:0:
404,248,3362,1,0,0:0:0:0:
232,248,3550,2,0,L|224:340,1,85,2|0,0:0|0:0,0:0:0:0:
352,336,3925,2,0,L|360:244,1,85,2|0,0:0|0:0,0:0:0:0:
112,248,4300,6,0,L|12:248,1,85,2|0,0:0|0:0,0:0:0:0:
148,248,4675,1,0,0:0:0:0:
268,252,4862,1,0,0:0:0:0:
456,192,5050,2,0,L|324:192,2,127.5,2|0|0,0:0|0:0|0:0,0:0:0:0:
208,192,5800,6,0,P|112:160|84:56,1,212.5,2|0,0:0|0:0,0:0:0:0:
264,64,6362,1,2,0:0:0:0:
432,64,6737,1,0,0:0:0:0:
244,192,6925,1,2,0:0:0:0:
364,192,7112,1,0,0:0:0:0:
108,192,7300,6,0,P|48:272|108:352,1,212.5,2|0,0:0|0:0,0:0:0:0:
292,352,7862,2,0,P|268:252|172:224,1,212.5,2|0,0:0|0:0,0:0:0:0:
292,228,8425,2,0,L|368:192,1,85,0|0,0:0|0:0,0:0:0:0:
184,144,8800,6,0,L|100:144,2,85,2|0|0,0:0|0:0|0:0,0:0:0:0:
368,144,9362,1,2,0:0:0:0:
164,64,9737,1,0,0:0:0:0:
336,64,9925,1,2,0:0:0:0:
184,64,10112,1,0,0:0:0:0:
440,64,10300,6,0,P|504:136|440:212,1,212.5,2|0,0:0|0:0,0:0:0:0:
340,212,10862,1,2,0:0:0:0:
152,208,11050,1,0,0:0:0:0:
155,263,11144,1,0,0:0:0:0:
186,309,11238,1,0,0:0:0:0:
236,336,11331,1,0,0:0:0:0:
348,336,11425,2,0,L|352:280,1,42.5,0|0,0:0|0:0,0:0:0:0:
180,208,11612,2,0,L|132:208,1,42.5,0|0,0:0|0:0,0:0:0:0:
300,208,11800,6,0,P|364:136|300:60,1,212.5,2|0,0:0|0:0,0:0:0:0:
184,60,12362,1,0,0:0:0:0:
432,208,12550,2,0,L|436:124,1,85,0|0,1:2|1:2,0:0:0:0:
376,112,12831,1,0,0:0:0:0:
196,112,12925,2,0,L|140:112,1,42.5,0|0,1:2|1:2,0:0:0:0:
336,208,13112,2,0,L|388:208,1,42.5,0|0,0:0|1:2,0:0:0:0:
212,212,13300,6,0,L|104:212,1,85,8|0,0:0|0:0,0:0:0:0:
20,212,13675,1,8,1:2:0:0:
328,288,13862,2,0,P|400:256|312:156,1,255.000009727478,2|2,0:0|0:0,0:0:0:0:
496,100,14425,1,8,1:2:0:0:
188,104,14612,2,0,P|140:144|256:216,1,255.000009727478,2|2,0:0|0:0,0:0:0:0:
392,192,15175,6,0,L|488:132,1,85,8|2,1:2|0:0,0:0:0:0:
324,120,15550,2,0,L|212:120,1,85,8|2,0:0|0:0,0:0:0:0:
380,56,15925,1,8,1:2:0:0:
112,56,16112,2,0,P|28:96|36:164,1,170,2|2,0:0|0:0,0:0:0:0:
288,184,16675,5,8,1:2:0:0:
148,184,16862,1,10,0:0:0:0:
404,184,17050,2,0,L|504:264,2,127.5,8|0|2,0:0|0:0|0:0,0:0:0:0:
216,192,17800,6,0,L|312:192,1,85,0|2,0:0|0:0,0:0:0:0:
28,188,18175,2,0,P|20:136|48:84,1,85,8|2,1:2|0:0,0:0:0:0:
316,100,18550,2,0,P|316:160|264:192,1,85,8|2,0:0|0:0,0:0:0:0:
112,176,18925,2,0,L|20:176,1,85,8|10,1:2|0:0,0:0:0:0:
312,184,19300,6,0,P|380:192|384:328,1,220.999989883423,12|8,0:0|1:2,0:0:0:0:
116,320,19862,2,0,P|52:288|84:140,1,220.999989883423,2|2,0:0|0:0,0:0:0:0:
224,152,20425,2,0,L|320:152,1,85,8|2,1:2|0:0,0:0:0:0:
188,88,20800,5,8,0:0:0:0:
324,88,20987,1,2,0:0:0:0:
180,88,21175,1,8,1:2:0:0:
428,88,21362,2,0,P|472:124|460:276,1,220.999989883423,2|2,0:0|0:0,0:0:0:0:
360,236,21925,2,0,L|432:192,1,85,8|2,1:2|0:0,0:0:0:0:
48,240,22300,6,0,P|28:184|144:88,1,220.999989883423,12|8,0:0|1:2,0:0:0:0:
432,212,22862,2,0,P|460:112|372:40,1,220.999989883423,6|2,0:0|0:0,0:0:0:0:
208,40,23425,1,12,0:0:0:0:
464,40,23612,2,0,L|384:80,1,85,0|8,0:0|0:0,0:0:0:0:
496,120,23987,5,2,0:0:0:0:
236,136,24175,2,0,L|116:152,1,85,8|2,0:0|0:0,0:0:0:0:
400,160,24550,2,0,L|480:192,1,85,8|2,0:0|0:0,0:0:0:0:
332,212,24925,1,8,0:0:0:0:
440,212,25112,1,2,0:0:0:0:
116,212,25300,6,0,P|52:284|120:352,1,212.5,4|0,0:0|0:0,0:0:0:0:
212,352,25862,1,0,0:0:0:0:
400,280,26050,2,0,L|335:226,1,85,2|0,0:0|0:0,0:0:0:0:
224,224,26425,2,0,L|288:170,1,85,0|0,0:0|0:0,0:0:0:0:
476,168,26800,6,0,P|488:120|408:48,1,170,2|0,0:0|0:0,0:0:0:0:
304,48,27362,1,0,0:0:0:0:
120,48,27550,1,2,0:0:0:0:
324,48,27925,2,0,L|332:136,1,85,0|0,0:0|0:0,0:0:0:0:
160,132,28300,6,0,P|168:204|248:248,1,170,2|0,0:0|0:0,0:0:0:0:
424,364,28862,2,0,P|416:292|336:248,1,170,2|0,0:0|0:0,0:0:0:0:
216,248,29425,2,0,L|304:248,1,85,2|0,0:0|0:0,0:0:0:0:
124,248,29800,6,0,P|52:212|48:116,1,170,2|0,0:0|0:0,0:0:0:0:
144,132,30362,1,0,0:0:0:0:
332,136,30550,1,2,0:0:0:0:
153,132,30925,1,0,0:0:0:0:
324,136,31112,1,0,0:0:0:0:
61,132,31300,6,0,P|5:88|61:24,1,170,2|0,0:0|0:0,0:0:0:0:
225,24,31862,2,0,L|386:82,1,170,2|0,0:0|0:0,0:0:0:0:
213,80,32425,2,0,L|121:80,1,85,2|0,0:0|0:0,0:0:0:0:
428,84,32800,6,0,P|392:180|280:212,1,212.5,2|0,0:0|0:0,0:0:0:0:
184,212,33362,1,0,0:0:0:0:
440,216,33550,1,2,0:0:0:0:
152,304,33925,1,0,0:0:0:0:
448,304,34300,6,0,L|508:244,2,85,2|0|0,0:0|0:0|0:0,0:0:0:0:
268,304,34862,2,0,P|212:264|264:192,1,170,2|0,0:0|0:0,0:0:0:0:
360,196,35425,1,2,0:0:0:0:
48,196,35800,6,0,P|20:120|76:60,1,170,2|2,0:0|0:0,0:0:0:0:
176,64,36362,1,0,0:0:0:0:
356,64,36550,2,0,L|448:64,1,85,0|0,1:2|1:2,0:0:0:0:
388,64,36831,1,0,1:2:0:0:
216,152,36925,2,2,L|160:152,2,42.5,0|0|0,1:2|1:2|1:2,0:0:0:0:
468,152,37300,6,0,P|512:216|420:304,1,212.5,12|8,0:0|0:0,0:0:0:0:
332,300,37862,1,2,0:0:0:0:
84,304,38050,2,0,L|68:220,1,85,8|2,0:0|0:0,0:0:0:0:
192,260,38425,2,0,L|172:168,1,85,8|2,0:0|0:0,0:0:0:0:
432,208,38800,6,0,P|468:156|396:92,1,170,8|8,0:0|0:0,0:0:0:0:
248,92,39362,2,0,L|348:92,1,85,2|8,0:0|0:0,0:0:0:0:
76,92,39737,2,0,P|48:128|132:216,1,170,2|0,0:0|0:0,0:0:0:0:
304,176,40300,6,0,L|184:152,2,85,8|2|8,0:0|0:0|0:0,0:0:0:0:
120,180,40862,2,0,L|224:180,2,85,2|8|2,0:0|0:0|0:0,0:0:0:0:
328,224,41425,2,0,L|416:260,1,85,8|2,0:0|0:0,0:0:0:0:
152,268,41800,6,0,L|64:296,1,85,8|2,0:0|0:0,0:0:0:0:
348,280,42175,2,0,L|440:316,1,85,8|2,0:0|0:0,0:0:0:0:
268,268,42550,2,0,L|172:268,1,85,8|2,0:0|0:0,0:0:0:0:
144,268,42831,1,0,0:0:0:0:
304,196,42925,2,0,L|404:172,1,85,8|2,0:0|0:0,0:0:0:0:
104,188,43300,6,0,L|184:116,1,85,12|2,0:0|0:0,0:0:0:0:
308,96,43675,2,0,L|208:68,1,85,8|2,0:0|0:0,0:0:0:0:
476,44,44050,2,0,P|512:120|428:208,1,212.5,8|8,0:0|0:0,0:0:0:0:
176,192,44612,2,0,P|128:216|208:268,1,170,2|2,0:0|0:0,0:0:0:0:
336,284,45175,6,0,L|432:256,1,85,8|2,0:0|0:0,0:0:0:0:
240,220,45550,2,0,L|144:196,1,85,8|2,0:0|0:0,0:0:0:0:
472,212,45925,1,8,0:0:0:0:
416,96,46112,1,2,0:0:0:0:
104,56,46300,5,12,0:0:0:0:
33,90,46393,1,0,0:0:0:0:
15,166,46487,1,0,0:0:0:0:
62,229,46581,1,0,0:0:0:0:
224,168,46675,5,8,0:0:0:0:
266,233,46768,1,0,0:0:0:0:
242,308,46862,1,2,0:0:0:0:
170,338,46956,1,0,0:0:0:0:
284,340,47050,2,0,L|360:340,1,42.5,8|0,0:0|0:0,0:0:0:0:
156,264,47237,2,0,L|64:276,2,85,2|8|2,0:0|0:0|0:0,0:0:0:0:
460,316,47800,6,0,L|520:304,1,42.5,4|0,0:0|0:0,0:0:0:0:
444,268,47987,2,0,L|388:284,1,42.5,0|0,0:0|0:0,0:0:0:0:
248,280,48175,5,0,0:0:0:0:
199,213,48268,1,0,0:0:0:0:
209,130,48362,1,0,0:0:0:0:
272,76,48456,1,0,0:0:0:0:
116,168,48550,2,0,L|32:192,1,85,4|0,0:0|0:0,0:0:0:0:
96,248,48831,1,0,0:0:0:0:
264,248,48925,1,4,0:0:0:0:
212,248,49018,1,0,0:0:0:0:
160,248,49112,1,0,0:0:0:0:
416,248,49300,6,0,P|456:180|404:116,1,170,12|0,0:0|0:0,0:0:0:0:
220,116,49862,2,0,L|316:116,2,85,10|0|8,0:0|0:0|0:0,0:0:0:0:
392,116,50425,1,0,0:0:0:0:
136,116,50612,6,0,P|132:200|244:220,1,212.5,10|8,0:0|0:0,0:0:0:0:
348,220,51175,1,0,0:0:0:0:
176,220,51362,1,10,0:0:0:0:
432,220,51550,2,0,L|436:312,1,85,0|0,0:0|0:0,0:0:0:0:
264,308,51925,2,0,L|360:308,1,85,0|0,0:0|0:0,0:0:0:0:
92,308,52300,6,0,P|48:268|104:192,1,170,10|0,0:0|0:0,0:0:0:0:
280,192,52862,2,0,L|100:192,1,170,10|8,0:0|0:0,0:0:0:0:
288,192,53425,1,0,0:0:0:0:
32,192,53612,6,0,P|24:116|136:80,1,212.5,10|8,0:0|0:0,0:0:0:0:
248,80,54175,1,0,0:0:0:0:
76,80,54362,1,10,0:0:0:0:
332,80,54550,2,0,L|420:80,1,85,0|0,0:0|0:0,0:0:0:0:
244,168,54925,2,0,L|236:252,1,85,8|0,0:0|0:0,0:0:0:0:
496,252,55300,6,0,L|320:252,1,170,12|0,0:0|0:0,0:0:0:0:
28,252,55862,2,0,P|60:156|164:124,1,212.5,12|0,0:0|0:0,0:0:0:0:
328,124,56425,2,0,L|336:72,1,42.5,0|0,0:0|0:0,0:0:0:0:
160,48,56612,6,0,P|92:68|108:180,1,191.250007295609,12|0,0:0|0:0,0:0:0:0:
208,212,56987,2,0,L|256:212,1,42.5,2|0,0:0|0:0,0:0:0:0:
188,284,57175,2,0,L|144:284,1,42.5,8|0,0:0|0:0,0:0:0:0:
256,284,57362,2,0,L|304:284,1,42.5,2|0,0:0|0:0,0:0:0:0:
144,352,57550,2,0,L|56:352,1,85,8|2,0:0|0:0,0:0:0:0:
312,352,57925,2,0,L|397:352,1,85,12|2,0:0|0:0,0:0:0:0:
120,240,58300,6,0,L|240:192,2,127.5,12|0|2,0:0|0:0|0:0,0:0:0:0:
420,192,59050,2,0,L|272:192,2,146.62500279665,12|0|2,0:0|0:0|0:0,0:0:0:0:
80,192,59800,6,0,L|76:96,1,85,12|0,0:0|0:0,0:0:0:0:
144,108,60081,1,0,0:0:0:0:
256,108,60175,2,0,L|308:108,1,42.5,8|0,0:0|0:0,0:0:0:0:
144,192,60362,1,6,0:0:0:0:
280,192,60550,5,8,0:0:0:0:
348,200,60643,1,0,0:0:0:0:
392,252,60737,1,2,0:0:0:0:
400,320,60831,1,0,0:0:0:0:
300,320,60925,2,2,L|248:320,1,42.5,8|0,0:0|0:0,0:0:0:0:
349,252,61112,2,2,L|413:252,1,42.5,2|0,0:0|0:0,0:0:0:0:
220,252,61300,6,0,L|132:252,1,85,8|2,0:0|0:0,0:0:0:0:
308,252,61675,1,8,0:0:0:0:
367,217,61768,1,0,0:0:0:0:
368,149,61862,1,2,0:0:0:0:
312,112,61956,1,0,0:0:0:0:
140,112,62050,6,0,L|96:112,1,42.5,8|0,0:0|0:0,0:0:0:0:
156,36,62237,2,0,L|212:36,1,42.5,2|0,0:0|0:0,0:0:0:0:
360,184,62425,2,0,L|404:184,1,42.5,8|0,0:0|0:0,0:0:0:0:
232,180,62612,2,0,L|189:180,1,42.5,2|0,0:0|0:0,0:0:0:0:
452,64,62800,6,0,P|512:120|416:248,1,255.000009727478,12|8,0:0|1:2,0:0:0:0:
328,248,63362,1,2,0:0:0:0:
56,252,63550,2,0,P|28:216|72:132,1,152.999995330811,8|0,0:0|0:0,0:0:0:0:
248,176,63925,2,0,P|296:136|268:52,1,152.999995330811,8|0,1:2|0:0,0:0:0:0:
116,52,64300,6,0,L|4:96,2,101.999996887207,8|2|8,0:0|0:0|1:2,0:0:0:0:
391,49,64862,1,2,0:0:0:0:
236,112,65050,2,0,L|320:192,2,101.999996887207,8|2|8,0:0|0:0|1:2,0:0:0:0:
389,149,65612,1,2,0:0:0:0:
118,129,65800,6,0,P|126:201|235:252,1,203.999993774414,8|8,0:0|1:2,0:0:0:0:
395,196,66362,1,2,0:0:0:0:
140,196,66550,2,0,L|8:112,2,152.999995330811,8|0|2,0:0|0:0|0:0,0:0:0:0:
312,200,67300,6,0,L|340:100,1,101.999996887207,8|2,0:0|0:0,0:0:0:0:
188,80,67675,1,8,1:2:0:0:
476,200,67862,2,0,P|496:136|408:48,1,203.999993774414,2|2,0:0|0:0,0:0:0:0:
272,44,68425,2,0,L|168:44,1,101.999996887207,8|2,1:2|0:0,0:0:0:0:
232,44,68706,1,0,0:0:0:0:
408,48,68800,6,0,P|396:108|276:164,1,203.999993774414,8|8,0:0|1:2,0:0:0:0:
16,212,69362,2,0,L|120:212,1,101.999996887207,2|8,0:0|0:0,0:0:0:0:
264,204,69737,2,0,L|168:160,1,101.999996887207,2|8,0:0|1:2,0:0:0:0:
448,120,70112,1,2,0:0:0:0:
304,120,70300,5,8,0:0:0:0:
472,120,70487,1,2,0:0:0:0:
184,120,70675,2,0,L|60:120,1,101.999996887207,8|2,1:2|0:0,0:0:0:0:
296,120,71050,1,8,0:0:0:0:
128,120,71237,2,8,P|112:168|132:228,1,101.999996887207,2|8,0:0|1:2,0:0:0:0:
396,220,71612,1,2,0:0:0:0:
104,220,71800,6,0,L|8:180,2,101.999996887207,8|2|8,0:0|0:0|1:2,0:0:0:0:
376,252,72362,1,2,0:0:0:0:
480,248,72550,2,0,L|500:116,1,101.999996887207,8|2,0:2|0:0,0:0:0:0:
176,144,72925,1,8,1:2:0:0:
128,125,73018,1,0,0:0:0:0:
80,107,73112,1,2,0:0:0:0:
380,76,73300,5,8,0:0:0:0:
426,126,73393,1,0,0:0:0:0:
413,193,73487,1,2,0:0:0:0:
350,221,73581,1,0,0:0:0:0:
140,232,73675,1,8,1:2:0:0:
82,189,73768,1,0,0:0:0:0:
131,155,73862,1,2,0:0:0:0:
195,122,73956,1,0,0:0:0:0:
432,104,74050,6,0,L|456:52,1,50.9999984436036,8|0,0:0|0:0,0:0:0:0:
372,64,74237,2,0,L|372:4,1,50.9999984436036,2|0,0:0|0:0,0:0:0:0:
124,176,74425,1,8,1:2:0:0:
89,115,74518,1,0,0:0:0:0:
117,53,74612,1,2,0:0:0:0:
185,40,74706,1,0,0:0:0:0:
392,76,74800,6,0,L|496:76,1,101.999996887207,12|2,0:0|0:0,0:0:0:0:
352,152,75175,2,0,L|456:152,1,101.999996887207,8|2,1:2|0:0,0:0:0:0:
168,152,75550,2,0,L|160:256,1,101.999996887207,8|2,0:0|0:0,0:0:0:0:
232,252,75831,1,0,0:0:0:0:
304,252,75925,2,0,L|200:252,1,101.999996887207,8|2,1:2|0:0,0:0:0:0:
488,252,76300,6,8,L|384:252,1,101.999996887207,8|2,0:0|0:0,0:0:0:0:
304,252,76581,1,0,0:0:0:0:
222,252,76675,2,8,L|118:252,1,101.999996887207,8|2,1:2|0:0,0:0:0:0:
328,243,77050,2,0,P|380:219|396:179,1,101.999996887207,8|2,0:0|0:0,0:0:0:0:
306,176,77331,1,0,0:0:0:0:
396,180,77425,1,8,1:2:0:0:
445,137,77518,1,0,0:0:0:0:
443,71,77612,1,2,0:0:0:0:
391,31,77706,1,0,0:0:0:0:
184,32,77800,6,0,P|96:80|64:176,1,203.999993774414,8|8,0:0|1:2,0:0:0:0:
188,172,78362,1,2,0:0:0:0:
456,172,78550,2,0,P|464:220|444:272,1,101.999996887207,8|2,0:0|0:0,0:0:0:0:
368,272,78831,1,0,0:0:0:0:
288,272,78925,2,0,L|184:272,1,101.999996887207,8|2,1:2|0:0,0:0:0:0:
492,264,79300,6,0,P|488:320|408:368,1,152.999995330811,8|0,0:0|0:0,0:0:0:0:
300,368,79675,2,0,L|180:368,1,101.999996887207,8|2,1:2|0:0,0:0:0:0:
404,264,80050,2,0,P|428:204|416:156,1,101.999996887207,8|2,0:0|0:0,0:0:0:0:
331,168,80331,1,0,0:0:0:0:
240,168,80425,2,0,L|184:168,1,50.9999984436036,10|0,1:2|0:0,0:0:0:0:
120,168,80612,2,0,L|172:168,1,50.9999984436036,2|0,0:0|0:0,0:0:0:0:
344,52,80800,6,0,L|432:52,2,85,12|2|8,0:0|0:0|1:2,0:0:0:0:
80,48,81362,2,0,P|20:108|64:168,1,170,2|2,0:0|0:0,0:0:0:0:
312,172,81925,2,0,L|208:172,1,85,8|2,1:2|0:0,0:0:0:0:
476,172,82300,6,0,L|480:264,1,85,12|2,0:0|0:0,0:0:0:0:
308,256,82675,2,0,L|408:256,1,85,8|2,1:2|0:0,0:0:0:0:
280,256,83050,1,8,0:0:0:0:
400,336,83237,1,2,0:0:0:0:
220,336,83425,2,0,L|128:336,1,85,8|2,1:2|0:0,0:0:0:0:
380,256,83800,6,0,B|432:256|432:256|368:256,1,106.25,12|2,0:0|0:0,0:0:0:0:
304,256,84081,1,0,0:0:0:0:
108,256,84175,2,0,L|100:196,1,53.125,8|0,1:2|0:0,0:0:0:0:
176,200,84362,2,0,L|228:192,1,53.125,2|0,0:0|0:0,0:0:0:0:
412,100,84550,6,0,P|456:112|484:164,1,106.25,12|2,0:0|0:0,0:0:0:0:
412,172,84831,1,0,0:0:0:0:
236,272,84925,2,0,L|180:272,1,53.125,8|0,1:2|0:0,0:0:0:0:
292,272,85112,2,0,L|300:216,1,53.125,2|0,0:0|0:0,0:0:0:0:
92,272,85300,5,8,0:0:0:0:
59,211,85393,1,0,0:0:0:0:
84,148,85487,1,2,0:0:0:0:
149,127,85581,1,0,0:0:0:0:
340,128,85675,2,0,L|396:128,1,53.125,8|0,0:0|0:0,0:0:0:0:
300,128,85862,2,0,L|232:128,1,53.125,2|0,0:0|0:0,0:0:0:0:
48,148,86050,5,8,0:0:0:0:
40,217,86143,1,0,0:0:0:0:
75,277,86237,1,2,0:0:0:0:
144,292,86331,1,0,0:0:0:0:
320,356,86425,2,0,L|272:328,1,53.125,8|0,0:0|0:0,0:0:0:0:
176,212,86612,2,0,L|223:238,1,53.125,2|0,0:0|0:0,0:0:0:0:
400,236,86800,6,0,B|500:196|500:196|496:80,1,212.5,4|0,0:0|0:0,0:0:0:0:
216,120,87550,2,0,P|188:168|216:276,1,170,2|0,0:0|0:0,0:0:0:0:
392,276,88300,6,0,L|488:160,2,127.5,2|0|0,0:0|0:0|0:0,0:0:0:0:
288,280,89050,2,0,L|204:280,1,63.7500024318696,0|0,0:0|0:0,0:0:0:0:
124,280,89425,2,0,L|200:280,1,63.7500024318696,0|0,0:0|0:0,0:0:0:0:
384,280,89800,5,2,0:0:0:0:
431,201,89987,1,0,0:0:0:0:
414,112,90175,1,0,0:0:0:0:
341,56,90362,1,0,0:0:0:0:
168,60,90550,2,0,L|284:156,2,127.5,2|0|0,0:0|0:0|0:0,0:0:0:0:
340,48,91300,6,0,P|388:88|336:144,1,127.5,2|0,0:0|0:0,0:0:0:0:
180,140,91862,2,0,P|178:201|276:252,1,170,0|0,0:0|0:0,0:0:0:0:
404,264,92425,2,0,L|364:344,1,85,2|0,0:0|0:0,0:0:0:0:
192,316,92800,6,0,L|272:264,2,85,2|0|0,0:0|0:0|0:0,0:0:0:0:
22,316,93362,2,0,L|202:316,1,170,2|0,0:0|0:0,0:0:0:0:
342,316,93925,2,0,L|250:316,1,85,2|0,0:0|0:0,0:0:0:0:
126,308,94300,6,0,L|46:272,2,85,2|0|0,0:0|0:0|0:0,0:0:0:0:
278,312,94862,2,0,P|318:268|274:168,1,170,2|0,0:0|0:0,0:0:0:0:
134,160,95425,2,0,L|238:160,1,85,0|0,0:0|0:0,0:0:0:0:
48,48,95800,6,2,L|36:0,2,28.3333333333333,2|0|0,0:0|0:0|0:0,0:0:0:0:
256,192,96175,12,0,99925,0:0:0:0:
