osu file format v14

[General]
AudioFilename: audio.mp3
AudioLeadIn: 0
PreviewTime: 74683
Countdown: 0
SampleSet: Soft
StackLeniency: 0.7
Mode: 0
LetterboxInBreaks: 0
WidescreenStoryboard: 0

[Editor]
DistanceSpacing: 1.3
BeatDivisor: 4
GridSize: 32
TimelineZoom: 1.7

[Metadata]
Title:Theta de Tsukisashite
TitleUnicode:θで突き刺して
Artist:senya
ArtistUnicode:senya
Creator:Serafeim
Version:Theta
Source:東方怪綺談 ~ Mystic Square
Tags:touhou video game trance japanese th5 2hu ms the Grimoire of Alice Margatroid Theme 東方project ZUN Team Shanghai Alice Autobahn かませ虎 kamase-tora 幽閉サテライト Mayumi Morinaga 森永真由美 Yuuhei Satellite dagger-gazel Roda_Totsuki reiSevia Nokashi OJT2021 osu japan tournament qualifier
BeatmapID:2801940
BeatmapSetID:1353531

[Difficulty]
HPDrainRate:6
CircleSize:4
OverallDifficulty:8
ApproachRate:8.6
SliderMultiplier:1.8
SliderTickRate:1

[Events]
//Background and Video events
0,0,"BGv2.jpg",0,0
//Break Periods
2,134985,146102
//Storyboard Layer 0 (Background)
//Storyboard Layer 1 (Fail)
//Storyboard Layer 2 (Pass)
//Storyboard Layer 3 (Foreground)
//Storyboard Layer 4 (Overlay)
//Storyboard Sound Samples

[TimingPoints]
-215,375,4,1,0,100,1,0
1285,-133.333333333333,4,2,1,50,0,0
13285,-125,4,2,1,70,0,0
26785,-111.111111111111,4,2,1,60,0,0
34941,-111.111111111111,4,2,1,5,0,0
35035,-111.111111111111,4,2,1,60,0,0
35785,-111.111111111111,4,2,1,50,0,0
36535,-111.111111111111,4,2,1,55,0,0
37285,-111.111111111111,4,2,1,50,0,0
38785,-108.695652173913,4,2,1,60,0,0
49285,-125,4,2,1,60,0,0
50785,-108.695652173913,4,2,1,60,0,0
62785,-117.647058823529,4,2,1,50,0,0
74691,-117.647058823529,4,2,1,50,0,0
74785,-90.9090909090909,4,2,1,70,0,1
77128,-90.9090909090909,4,2,1,5,0,1
77222,-90.9090909090909,4,2,1,70,0,1
78628,-90.9090909090909,4,2,1,5,0,1
78722,-90.9090909090909,4,2,1,70,0,1
89128,-90.9090909090909,4,2,1,5,0,1
89222,-90.9090909090909,4,2,1,70,0,1
98785,-108.695652173913,4,2,1,60,0,0
109285,-125,4,2,1,60,0,0
110785,-108.695652173913,4,2,1,60,0,0
122785,-117.647058823529,4,2,1,50,0,0
146785,-125,4,2,1,50,0,0
155785,-125,4,2,1,40,0,0
156535,-125,4,2,1,50,0,0
157285,-125,4,2,1,60,0,0
158035,-125,4,2,1,70,0,0
158410,-125,4,2,1,70,0,0
158597,-125,4,2,1,70,0,0
158785,-90.9090909090909,4,2,1,70,0,1
161128,-90.9090909090909,4,2,1,5,0,1
161222,-90.9090909090909,4,2,1,70,0,1
162628,-90.9090909090909,4,2,1,5,0,1
162722,-90.9090909090909,4,2,1,70,0,1
173128,-90.9090909090909,4,2,1,5,0,1
173222,-90.9090909090909,4,2,1,70,0,1
174628,-90.9090909090909,4,2,1,5,0,1
174722,-90.9090909090909,4,2,1,70,0,1
182503,-90.9090909090909,4,2,1,5,0,1
182597,-90.9090909090909,4,2,1,70,0,1
182785,-108.695652173913,4,2,1,60,0,0
194785,-108.695652173913,4,2,1,50,0,0

[Colours]
Combo1 : 105,114,192
Combo2 : 199,155,73
Combo3 : 75,83,148
Combo4 : 171,88,88

[HitObjects]
61,105,1285,6,0,P|120:67|198:87,1,135.000005149842,6|0,3:2|0:0,0:0:0:0:
282,158,1847,2,0,L|298:13,1,135.000005149842,2|2,0:0|0:0,0:0:0:0:
383,102,2410,1,2,0:0:0:0:
383,102,2597,1,2,0:0:0:0:
215,215,2785,6,0,P|281:203|337:257,1,135.000005149842,2|0,0:0|0:0,0:0:0:0:
236,307,3347,2,0,B|172:278|172:351|80:310,1,135.000005149842,2|2,0:0|0:0,0:0:0:0:
15,249,3910,1,2,0:0:0:0:
15,249,4097,1,2,0:0:0:0:
158,114,4285,6,0,P|138:156|127:262,1,135.000005149842,2|0,0:0|0:0,0:0:0:0:
12,31,4847,2,0,P|32:73|43:179,1,135.000005149842,2|2,0:0|0:0,0:0:0:0:
119,29,5410,1,2,0:0:0:0:
119,29,5597,1,2,0:0:0:0:
261,113,5785,6,0,B|196:97|196:163|136:147,1,135.000005149842,2|0,0:0|0:0,0:0:0:0:
274,209,6347,2,0,P|323:185|350:111,1,135.000005149842,2|2,0:0|0:0,0:0:0:0:
442,77,6910,2,0,L|458:155,1,67.5000025749208,2|2,0:0|0:0,0:0:0:0:
467,328,7285,6,0,P|413:288|326:312,1,135.000005149842,2|0,0:0|0:0,0:0:0:0:
208,361,7847,2,0,P|273:358|343:390,1,135.000005149842,2|2,0:0|0:0,0:0:0:0:
266,268,8410,1,2,0:0:0:0:
266,268,8597,1,2,0:0:0:0:
384,162,8785,6,0,P|402:54|394:-1,1,135.000005149842,2|0,0:0|0:0,0:0:0:0:
323,0,9347,1,2,0:0:0:0:
323,0,9722,1,2,0:0:0:0:
256,87,9910,2,0,P|207:83|168:93,1,67.5000025749208,2|2,0:0|0:0,0:0:0:0:
22,203,10285,6,0,B|71:191|108:223|108:223|163:208,1,135.000005149842,2|0,0:0|0:0,0:0:0:0:
259,357,10847,1,2,0:0:0:0:
259,357,11222,1,2,0:0:0:0:
213,269,11410,1,2,0:0:0:0:
213,269,11597,1,2,0:0:0:0:
378,233,11785,6,0,B|453:209|453:277|530:248,1,135.000005149842,2|0,0:0|0:0,0:0:0:0:
476,76,12347,1,2,0:0:0:0:
476,76,12441,1,2,0:0:0:0:
476,76,12535,2,0,B|485:113|485:113|481:133|481:133|493:179,2,101.250003862381,2|2|2,0:0|0:0|0:0,0:0:0:0:
254,14,13285,6,0,P|245:63|247:103,1,72,2|0,0:0|0:0,0:0:0:0:
323,238,13660,1,0,0:0:0:0:
258,179,13847,2,0,P|298:154|387:177,1,144,2|2,0:0|0:0,0:0:0:0:
420,263,14410,1,2,0:0:0:0:
420,263,14597,1,2,0:0:0:0:
298,384,14785,6,0,P|274:356|261:323,1,72,2|0,0:0|0:0,0:0:0:0:
244,247,15160,1,0,0:0:0:0:
81,338,15347,2,0,B|95:286|95:286|76:261|76:261|89:191,1,144,2|2,0:0|0:0,0:0:0:0:
169,149,15910,1,2,0:0:0:0:
23,46,16097,1,2,0:0:0:0:
23,46,16191,1,0,0:0:0:0:
23,46,16285,6,0,P|61:32|114:38,1,72,2|0,0:0|0:0,0:0:0:0:
260,112,16660,1,0,0:0:0:0:
185,0,16847,2,0,B|222:71|150:71|180:144,1,144,2|2,0:0|0:0,0:0:0:0:
282,212,17410,1,2,0:0:0:0:
269,109,17597,1,2,0:0:0:0:
385,187,17785,6,0,P|389:221|378:256,1,72,2|0,0:0|0:0,0:0:0:0:
304,305,18160,1,0,0:0:0:0:
460,379,18347,2,0,B|383:350|383:350|356:378|321:390,1,144,2|2,0:0|0:0,0:0:0:0:
217,289,18910,1,2,0:0:0:0:
379,230,19097,1,2,0:0:0:0:
379,230,19191,1,0,0:0:0:0:
379,230,19285,6,0,L|364:159,1,72,2|0,0:0|0:0,0:0:0:0:
232,44,19660,1,0,0:0:0:0:
427,106,19847,2,0,P|372:79|284:124,1,144,2|2,0:0|0:0,0:0:0:0:
235,180,20410,2,0,L|152:164,1,72,2|2,0:0|0:0,0:0:0:0:
17,84,20691,1,0,0:0:0:0:
17,84,20785,6,0,B|71:64|71:64|117:79|117:79|172:62,1,144,2|0,0:0|0:0,0:0:0:0:
72,225,21347,2,0,L|56:144,1,72,2|0,0:0|0:0,0:0:0:0:
160,215,21722,1,2,0:0:0:0:
180,301,21910,2,0,L|164:382,1,72,2|2,0:0|0:0,0:0:0:0:
278,378,22191,1,0,0:0:0:0:
278,378,22285,6,0,P|339:358|439:376,1,144,2|0,0:0|0:0,0:0:0:0:
503,271,22847,2,0,P|445:262|403:277,1,72,2|0,0:0|0:0,0:0:0:0:
265,192,23222,1,2,0:0:0:0:
342,274,23410,2,0,L|351:169,1,72,2|2,0:0|0:0,0:0:0:0:
287,112,23691,1,0,0:0:0:0:
287,112,23785,6,0,B|221:89|221:156|149:135,1,144,2|0,0:0|0:0,0:0:0:0:
50,185,24347,2,0,L|44:131,1,36,2|2,0:0|0:0,0:0:0:0:
47,22,24535,2,0,B|85:30|85:30|104:24|104:24|152:34,2,108,2|2|2,0:0|0:0|0:0,0:0:0:0:
256,192,25285,12,0,26597,0:0:0:0:
364,36,26785,6,0,P|354:81|352:125,1,80.9999975280763,6|0,3:2|0:0,0:0:0:0:
453,189,27160,1,0,3:2:0:0:
278,286,27347,2,0,P|341:272|419:359,1,161.999995056153,2|0,0:0|0:0,0:0:0:0:
197,368,27910,2,0,P|190:306|176:255,1,80.9999975280763,2|0,3:2|0:0,0:0:0:0:
365,175,28285,2,0,P|357:214|353:255,1,80.9999975280763,2|0,3:2|0:0,0:0:0:0:
260,89,28660,2,0,P|292:61|354:58,1,80.9999975280763,0|2,3:2|0:0,0:0:0:0:
453,217,29035,5,0,3:2:0:0:
274,176,29222,1,0,0:0:0:0:
442,108,29410,1,2,3:2:0:0:
360,265,29597,1,0,0:0:0:0:
185,141,29785,6,0,P|173:195|192:244,1,80.9999975280763,2|0,3:2|0:0,0:0:0:0:
102,367,30160,1,0,3:2:0:0:
229,285,30347,2,0,B|153:331|153:253|60:291,1,161.999995056153,2|0,0:0|0:0,0:0:0:0:
44,105,30910,2,0,P|14:132|-1:182,1,80.9999975280763,2|0,3:2|0:0,0:0:0:0:
149,98,31191,1,0,0:0:0:0:
149,98,31285,2,0,P|140:58|104:20,1,80.9999975280763,2|0,3:2|0:0,0:0:0:0:
103,189,31660,1,0,3:2:0:0:
264,53,31847,2,0,P|322:36|441:64,1,161.999995056153,2|0,0:0|0:0,0:0:0:0:
490,192,32410,1,2,3:2:0:0:
348,134,32597,5,0,0:0:0:0:
348,134,32691,1,0,0:0:0:0:
348,134,32785,2,0,L|335:227,1,80.9999975280763,2|0,3:2|0:0,0:0:0:0:
171,352,33160,1,8,0:0:0:0:
358,303,33347,2,0,B|294:291|294:291|270:260|270:260|211:249,1,161.999995056153,2|0,0:0|0:0,0:0:0:0:
9,93,33910,6,0,L|-6:183,1,80.9999975280763,10|0,0:0|0:0,0:0:0:0:
136,265,34285,2,0,L|121:175,1,80.9999975280763,2|0,3:2|0:0,0:0:0:0:
0,369,34660,2,0,P|42:343|125:361,1,121.499996292114,8|0,0:0|0:0,0:0:0:0:
132,366,35035,1,0,3:2:0:0:
270,238,35222,1,0,0:0:0:0:
115,260,35410,1,10,0:0:0:0:
298,336,35597,1,0,0:0:0:0:
182,173,35785,6,0,L|192:234,3,40.4999987640381,2|0|0|0,3:2|1:2|1:2|1:2,0:0:0:0:
255,89,36160,2,0,L|262:35,1,40.4999987640381,8|0,0:0|1:2,0:0:0:0:
105,97,36347,2,0,L|44:87,3,40.4999987640381,2|0|0|0,1:2|1:2|3:2|1:2,0:0:0:0:
182,173,36722,2,0,L|243:163,1,40.4999987640381,0|0,1:2|1:2,0:0:0:0:
38,249,36910,2,0,L|28:188,3,40.4999987640381,10|0|0|0,0:0|1:2|1:2|1:2,0:0:0:0:
227,359,37285,6,0,L|166:349,5,40.4999987640381,2|0|0|0|8|0,3:2|1:2|1:2|1:2|0:0|1:2,0:0:0:0:
128,268,37847,2,0,L|189:258,5,40.4999987640381,2|0|0|0|0|0,1:2|1:2|1:2|1:2|1:2|1:2,0:0:0:0:
308,270,38410,1,10,0:0:0:0:
311,239,38503,1,0,1:2:0:0:
314,209,38597,1,0,1:2:0:0:
317,179,38691,1,0,1:2:0:0:
320,149,38785,5,6,3:2:0:0:
180,60,38972,1,0,0:0:0:0:
230,179,39160,1,0,3:2:0:0:
96,304,39347,2,0,P|80:231|150:172,1,165.599994440918,2|2,0:0|0:0,0:0:0:0:
251,270,39910,2,0,L|144:251,1,82.7999972204591,2|2,3:2|0:0,0:0:0:0:
319,157,40285,6,0,P|367:192|362:324,1,165.599994440918,2|0,3:2|3:2,0:0:0:0:
230,179,40847,1,2,0:0:0:0:
331,48,41035,1,0,3:2:0:0:
314,144,41222,1,0,0:0:0:0:
156,58,41410,2,0,P|195:46|236:47,1,82.7999972204591,2|2,3:2|0:0,0:0:0:0:
13,164,41785,6,0,L|-5:52,1,82.7999972204591,2|0,3:2|0:0,0:0:0:0:
123,157,42160,1,0,3:2:0:0:
7,312,42347,2,0,B|95:274|93:362|198:313,1,165.599994440918,2|0,0:0|0:0,0:0:0:0:
242,351,42816,1,0,0:0:0:0:
256,361,42910,2,0,L|270:258,1,82.7999972204591,2|0,3:2|0:0,0:0:0:0:
134,164,43285,6,0,L|148:267,1,82.7999972204591,2|0,3:2|0:0,0:0:0:0:
303,202,43660,1,0,3:2:0:0:
146,77,43847,2,0,P|222:53|290:95,1,165.599994440918,2|0,0:0|0:0,0:0:0:0:
422,116,44410,1,2,3:2:0:0:
345,299,44597,5,0,0:0:0:0:
345,299,44691,1,0,0:0:0:0:
345,299,44785,1,2,3:2:0:0:
265,200,44972,1,0,0:0:0:0:
460,279,45160,1,0,3:2:0:0:
289,371,45347,6,0,P|224:353|115:386,1,165.599994440918,0|2,0:0|0:0,0:0:0:0:
22,225,45910,1,2,3:2:0:0:
34,344,46097,1,2,0:0:0:0:
136,203,46285,2,0,B|227:163|227:252|315:212,1,165.599994440918,2|0,3:2|3:2,0:0:0:0:
380,128,46847,1,2,0:0:0:0:
291,317,47035,1,0,3:2:0:0:
271,142,47222,1,0,0:0:0:0:
456,230,47410,2,0,L|366:216,1,82.7999972204591,2|2,3:2|0:0,0:0:0:0:
219,69,47785,6,0,P|278:55|331:75,1,82.7999972204591,2|0,3:2|0:0,0:0:0:0:
180,156,48160,1,0,3:2:0:0:
279,288,48347,2,0,B|308:186|308:186|257:116,1,165.599994440918,2|0,0:0|0:0,0:0:0:0:
115,231,48910,2,0,L|209:246,1,82.7999972204591,2|0,3:2|0:0,0:0:0:0:
297,364,49191,1,0,0:0:0:0:
288,373,49285,6,0,B|228:389|228:313|153:339,1,144,2|0,3:2|0:0,0:0:0:0:
365,317,49847,2,0,P|382:368|364:415,1,72,2|0,0:0|0:0,0:0:0:0:
299,229,50222,1,0,3:2:0:0:
314,215,50316,1,0,3:2:0:0:
333,206,50410,1,0,3:2:0:0:
352,200,50503,1,0,3:2:0:0:
373,197,50597,1,0,3:2:0:0:
393,198,50691,1,0,3:2:0:0:
426,203,50785,6,0,L|435:96,1,82.7999972204591,6|0,3:2|0:0,0:0:0:0:
312,94,51160,1,8,0:0:0:0:
373,276,51347,2,0,P|463:286|507:227,1,165.599994440918,0|2,0:0|0:0,0:0:0:0:
306,214,51910,2,0,P|283:267|296:326,1,82.7999972204591,10|2,0:0|0:0,0:0:0:0:
346,102,52285,6,0,B|268:133|268:50|167:81,1,165.599994440918,2|8,3:2|0:0,0:0:0:0:
50,197,52847,1,2,0:0:0:0:
212,154,53035,1,0,3:2:0:0:
48,29,53222,1,0,0:0:0:0:
48,29,53316,1,0,0:0:0:0:
48,29,53410,2,0,L|61:128,1,82.7999972204591,10|2,0:0|0:0,0:0:0:0:
133,290,53785,6,0,P|64:282|26:186,1,165.599994440918,0|8,3:2|0:0,0:0:0:0:
225,279,54347,2,0,L|210:378,1,82.7999972204591,0|0,0:0|3:2,0:0:0:0:
179,184,54722,1,0,0:0:0:0:
179,184,54816,1,0,0:0:0:0:
179,184,54910,1,10,0:0:0:0:
331,257,55097,1,2,0:0:0:0:
364,55,55285,6,0,B|417:23|417:23|527:68,1,165.599994440918,2|8,3:2|0:0,0:0:0:0:
272,32,55847,2,0,P|217:31|173:62,1,82.7999972204591,2|0,0:0|3:2,0:0:0:0:
264,229,56222,1,0,0:0:0:0:
264,229,56316,1,0,0:0:0:0:
264,229,56410,2,0,L|243:123,1,82.7999972204591,10|0,0:0|0:0,0:0:0:0:
246,135,56691,1,0,0:0:0:0:
243,125,56785,5,2,3:2:0:0:
43,178,56972,1,0,0:0:0:0:
177,264,57160,1,8,0:0:0:0:
0,345,57347,2,0,B|88:311|88:386|171:348,1,165.599994440918,0|2,0:0|0:0,0:0:0:0:
307,247,57910,1,10,0:0:0:0:
307,247,58097,1,2,0:0:0:0:
244,384,58285,6,0,P|240:297|151:268,1,165.599994440918,2|8,3:2|0:0,0:0:0:0:
42,158,58847,2,0,L|32:248,1,82.7999972204591,2|0,0:0|3:2,0:0:0:0:
185,125,59222,1,0,0:0:0:0:
185,125,59316,1,0,0:0:0:0:
185,125,59410,1,10,0:0:0:0:
136,222,59597,1,2,0:0:0:0:
1,49,59785,6,0,B|78:31|78:31|116:44|116:44|182:24,1,165.599994440918,0|8,3:2|0:0,0:0:0:0:
276,148,60347,2,0,L|181:131,1,82.7999972204591,0|0,0:0|3:2,0:0:0:0:
279,61,60722,1,0,0:0:0:0:
279,61,60816,1,0,0:0:0:0:
279,61,60910,1,10,0:0:0:0:
387,140,61097,1,2,0:0:0:0:
221,297,61285,6,0,P|277:270|395:280,1,165.599994440918,0|8,3:2|0:0,0:0:0:0:
179,182,61847,1,0,0:0:0:0:
99,384,62035,2,0,B|85:337|85:337|94:308|94:308|81:248,2,124.199995830689,0|0|0,3:2|3:2|3:2,0:0:0:0:
172,176,62785,5,6,3:2:0:0:
221,297,62972,1,2,0:0:0:0:
221,297,63066,1,2,0:0:0:0:
221,297,63160,1,10,1:2:0:0:
72,191,63347,1,0,3:2:0:0:
71,160,63440,1,8,1:2:0:0:
81,133,63534,1,2,3:2:0:0:
98,110,63628,1,8,1:2:0:0:
120,93,63722,1,0,3:2:0:0:
255,162,63910,1,10,1:2:0:0:
288,27,64097,2,0,B|251:23|251:23|194:46,1,76.5000014591217,0|0,1:2|3:2,0:0:0:0:
432,222,64472,5,2,3:2:0:0:
359,181,64660,2,0,P|399:180|457:214,1,76.5000014591217,10|8,0:0|0:0,0:0:0:0:
377,379,65035,2,0,B|290:350|290:350|227:392,1,153.000002918243,2|10,3:2|0:0,0:0:0:0:
226,235,65597,1,2,3:2:0:0:
307,315,65785,1,0,3:2:0:0:
260,149,65972,5,10,1:2:0:0:
260,149,66066,1,8,1:2:0:0:
260,149,66160,2,0,B|215:139|215:139|162:156,1,76.5000014591217,10|0,1:2|3:2,0:0:0:0:
97,350,66535,2,0,L|204:337,1,76.5000014591217,2|0,3:2|3:2,0:0:0:0:
191,337,66816,1,0,0:0:0:0:
215,335,66910,1,10,0:0:0:0:
70,185,67097,2,0,P|63:231|92:287,1,76.5000014591217,2|0,1:2|3:2,0:0:0:0:
237,120,67472,5,2,3:2:0:0:
65,55,67660,1,2,3:2:0:0:
159,222,67847,1,10,1:2:0:0:
217,32,68035,2,0,P|256:33|299:52,1,76.5000014591217,2|0,3:2|3:2,0:0:0:0:
397,144,68410,1,10,1:2:0:0:
237,120,68597,2,0,L|250:227,1,76.5000014591217,2|0,0:0|3:2,0:0:0:0:
473,223,68972,5,2,0:0:0:0:
404,133,69160,1,10,1:2:0:0:
338,261,69347,1,0,3:2:0:0:
342,289,69440,1,8,1:2:0:0:
346,317,69534,1,2,3:2:0:0:
350,346,69628,1,8,1:2:0:0:
354,374,69722,1,0,3:2:0:0:
438,322,69910,1,10,1:2:0:0:
262,384,70097,2,0,L|172:377,1,76.5000014591217,2|0,1:2|3:2,0:0:0:0:
42,291,70472,5,2,3:2:0:0:
50,299,70566,1,2,0:0:0:0:
61,310,70660,2,0,P|79:264|74:203,1,76.5000014591217,10|8,0:0|0:0,0:0:0:0:
175,117,71035,2,0,P|242:130|277:214,1,153.000002918243,2|10,3:2|0:0,0:0:0:0:
84,130,71597,2,0,L|100:25,1,76.5000014591217,2|0,3:2|3:2,0:0:0:0:
326,42,71972,5,10,1:2:0:0:
326,42,72066,1,8,1:2:0:0:
326,42,72160,1,10,1:2:0:0:
175,117,72347,1,0,3:2:0:0:
213,120,72440,1,8,0:0:0:0:
247,138,72534,1,2,3:2:0:0:
270,168,72628,1,8,0:0:0:0:
279,204,72722,1,0,3:2:0:0:
417,185,72910,5,10,0:0:0:0:
321,329,73097,1,10,1:2:0:0:
350,129,73285,2,0,P|409:97|488:135,1,153.000002918243,2|0,3:2|3:2,0:0:0:0:
417,339,73847,1,8,3:0:0:0:
320,239,74035,1,2,0:0:0:0:
241,369,74222,1,0,3:2:0:0:
241,369,74316,1,0,3:2:0:0:
241,369,74410,2,0,P|200:349|123:372,1,114.750002188683,8|0,3:0|0:0,0:0:0:0:
110,374,74785,6,0,L|92:262,1,99.0000030212403,6|0,3:2|0:0,0:0:0:0:
209,81,75160,1,8,0:0:0:0:
5,224,75347,2,0,P|66:188|185:251,1,198.000006042481,2|2,0:0|0:0,0:0:0:0:
333,332,75910,1,10,0:0:0:0:
241,369,76097,1,2,0:0:0:0:
479,228,76285,6,0,P|511:288|510:337,1,99.0000030212403,2|0,3:2|0:0,0:0:0:0:
344,233,76660,1,8,0:0:0:0:
512,62,76847,2,0,B|444:28|444:109|358:72,1,148.50000453186,2|0,0:0|0:0,0:0:0:0:
354,77,77222,1,2,0:0:0:0:
173,137,77410,1,10,0:0:0:0:
241,42,77597,1,2,0:0:0:0:
204,248,77785,6,0,L|92:229,1,99.0000030212403,2|0,3:2|0:0,0:0:0:0:
14,117,78160,1,8,0:0:0:0:
9,384,78347,2,0,P|53:339|156:349,1,148.50000453186,2|0,0:0|0:0,0:0:0:0:
155,344,78722,1,2,0:0:0:0:
377,308,78910,1,10,0:0:0:0:
333,384,79097,1,2,0:0:0:0:
183,161,79285,6,0,L|175:266,1,99.0000030212403,2|0,3:2|0:0,0:0:0:0:
320,376,79660,1,8,0:0:0:0:
434,221,79847,2,0,P|384:203|327:215,1,99.0000030212403,2|0,0:0|3:2,0:0:0:0:
234,57,80222,1,2,0:0:0:0:
432,128,80410,1,10,0:0:0:0:
346,58,80597,1,2,0:0:0:0:
229,282,80785,6,0,L|329:294,1,99.0000030212403,2|0,3:2|0:0,0:0:0:0:
217,183,81160,1,8,0:0:0:0:
180,375,81347,2,0,B|59:340|59:340|-13:386,1,198.000006042481,2|2,0:0|0:0,0:0:0:0:
64,185,81910,1,10,0:0:0:0:
113,270,82097,1,2,0:0:0:0:
112,59,82285,6,0,P|65:43|15:56,1,99.0000030212403,2|0,3:2|0:0,0:0:0:0:
155,185,82660,1,8,0:0:0:0:
324,10,82847,2,0,P|312:78|337:229,1,198.000006042481,2|2,0:0|0:0,0:0:0:0:
499,264,83410,1,10,0:0:0:0:
441,169,83597,1,2,0:0:0:0:
307,384,83785,6,0,L|408:369,1,99.0000030212403,2|0,3:2|0:0,0:0:0:0:
307,250,84160,1,8,0:0:0:0:
490,72,84347,2,0,B|422:64|422:64|375:97|375:97|289:84,1,198.000006042481,2|2,0:0|0:0,0:0:0:0:
109,142,84910,1,10,0:0:0:0:
188,23,85097,1,2,0:0:0:0:
138,261,85285,6,0,P|78:266|-1:166,1,198.000006042481,2|0,3:2|0:0,0:0:0:0:
212,191,85847,2,0,L|223:245,2,49.5000015106202,2|2|2,0:0|0:0|0:0,0:0:0:0:
126,384,86222,5,0,3:2:0:0:
153,355,86316,1,0,3:2:0:0:
187,338,86410,1,0,3:2:0:0:
225,328,86503,1,0,3:2:0:0:
263,329,86597,1,0,3:2:0:0:
301,338,86691,1,0,3:2:0:0:
335,358,86785,6,0,L|358:230,1,99.0000030212403,6|0,3:2|0:0,0:0:0:0:
295,76,87160,1,8,0:0:0:0:
447,248,87347,2,0,B|426:196|426:196|360:140|268:198,1,198.000006042481,2|2,0:0|0:0,0:0:0:0:
82,174,87910,1,10,0:0:0:0:
144,253,88097,1,2,0:0:0:0:
127,25,88285,6,0,L|17:48,1,99.0000030212403,2|0,3:2|0:0,0:0:0:0:
42,267,88660,1,8,0:0:0:0:
290,110,88847,2,0,B|264:175|334:175|310:261,1,148.50000453186,2|0,0:0|0:0,0:0:0:0:
301,274,89222,1,2,0:0:0:0:
490,341,89410,1,10,0:0:0:0:
353,368,89597,1,2,0:0:0:0:
512,161,89785,6,0,P|502:96|458:61,1,99.0000030212403,2|0,3:2|0:0,0:0:0:0:
297,93,90160,1,8,0:0:0:0:
416,251,90347,2,0,L|433:140,1,99.0000030212403,2|0,0:0|3:2,0:0:0:0:
233,253,90722,1,2,0:0:0:0:
341,375,90910,1,10,0:0:0:0:
326,281,91097,1,2,0:0:0:0:
10,297,91285,6,0,P|62:283|117:286,1,99.0000030212403,2|0,3:2|0:0,0:0:0:0:
259,340,91660,1,8,0:0:0:0:
282,112,91847,2,0,P|234:105|190:128,1,99.0000030212403,2|0,0:0|3:2,0:0:0:0:
136,261,92222,1,2,0:0:0:0:
268,369,92410,2,0,L|161:353,1,99.0000030212403,10|2,0:0|0:0,0:0:0:0:
403,204,92785,6,0,B|418:264|418:264|465:310|465:310|475:380,1,198.000006042481,2|8,3:2|0:0,0:0:0:0:
491,178,93347,2,0,P|472:134|431:109,1,99.0000030212403,2|0,0:0|3:2,0:0:0:0:
298,312,93722,1,2,0:0:0:0:
217,165,93910,1,10,0:0:0:0:
315,210,94097,1,2,0:0:0:0:
221,37,94285,6,0,P|157:1|36:54,1,198.000006042481,2|8,3:2|0:0,0:0:0:0:
0,223,94847,2,0,L|106:204,1,99.0000030212403,2|0,0:0|3:2,0:0:0:0:
229,211,95222,1,2,0:0:0:0:
134,361,95410,1,10,0:0:0:0:
115,186,95597,1,2,0:0:0:0:
373,274,95785,6,0,B|287:228|287:333|164:276,1,198.000006042481,2|8,3:2|0:0,0:0:0:0:
417,347,96347,2,0,B|457:373|457:373|511:313|450:232,1,198.000006042481,2|2,0:0|0:0,0:0:0:0:
287,112,96910,1,10,0:0:0:0:
347,265,97097,1,2,0:0:0:0:
512,131,97285,6,0,B|443:146|443:146|400:131|400:131|313:144,1,198.000006042481,2|0,3:2|0:0,0:0:0:0:
227,262,97847,1,2,0:0:0:0:
221,237,97941,1,2,0:0:0:0:
215,213,98035,1,2,0:0:0:0:
313,346,98222,1,0,0:0:0:0:
235,120,98410,2,0,P|167:129|124:229,1,148.50000453186
103,205,98785,6,0,L|1:196,1,82.7999972204591,6|0,3:2|0:0,0:0:0:0:
52,312,99160,1,0,3:2:0:0:
200,246,99347,2,0,B|284:209|284:295|375:248,1,165.599994440918,2|2,0:0|0:0,0:0:0:0:
505,256,99910,1,2,3:2:0:0:
464,337,100097,1,2,0:0:0:0:
381,168,100285,6,0,P|412:120|522:124,1,165.599994440918,2|0,3:2|3:2,0:0:0:0:
416,255,100847,1,2,0:0:0:0:
286,154,101035,1,0,3:2:0:0:
321,243,101222,1,0,0:0:0:0:
338,57,101410,2,0,P|290:46|232:64,1,82.7999972204591,2|2,3:2|0:0,0:0:0:0:
91,114,101785,6,0,L|192:127,1,82.7999972204591,2|0,3:2|0:0,0:0:0:0:
195,234,102160,1,0,3:2:0:0:
0,182,102347,2,0,B|-18:82|-18:82|41:21,1,165.599994440918,2|0,0:0|0:0,0:0:0:0:
177,33,102816,1,0,0:0:0:0:
185,43,102910,2,0,L|173:132,1,82.7999972204591,2|0,3:2|0:0,0:0:0:0:
107,271,103285,6,0,L|95:182,1,82.7999972204591,2|0,3:2|0:0,0:0:0:0:
219,235,103660,1,0,3:2:0:0:
155,379,103847,2,0,B|95:367|95:367|73:375|73:375|54:358|54:358|-17:344,1,165.599994440918,2|0,0:0|0:0,0:0:0:0:
95,188,104410,1,2,3:2:0:0:
250,342,104597,5,0,0:0:0:0:
250,342,104691,1,0,0:0:0:0:
250,342,104785,1,2,3:2:0:0:
139,282,104972,1,0,0:0:0:0:
274,240,105160,1,0,3:2:0:0:
43,114,105347,2,0,P|100:100|180:168,1,165.599994440918,2|2,0:0|0:0,0:0:0:0:
317,161,105910,1,2,3:2:0:0:
282,253,106097,1,2,0:0:0:0:
427,71,106285,6,0,B|328:37|328:37|260:69,1,165.599994440918,2|0,3:2|3:2,0:0:0:0:
226,172,106847,1,2,0:0:0:0:
386,219,107035,1,0,3:2:0:0:
276,267,107222,1,0,0:0:0:0:
473,293,107410,2,0,P|497:230|480:182,1,82.7999972204591,2|2,3:2|0:0,0:0:0:0:
305,102,107785,6,0,L|315:201,1,82.7999972204591,2|0,3:2|0:0,0:0:0:0:
378,319,108160,1,0,3:2:0:0:
258,262,108347,2,0,B|178:241|178:318|90:281,1,165.599994440918,2|0,0:0|0:0,0:0:0:0:
29,174,108910,2,0,P|81:171|121:192,1,82.7999972204591,2|0,3:2|0:0,0:0:0:0:
110,372,109191,1,0,0:0:0:0:
96,375,109285,6,0,P|37:372|5:281,1,144,2|0,3:2|0:0,0:0:0:0:
204,247,109847,2,0,L|218:338,1,72,2|0,0:0|0:0,0:0:0:0:
239,118,110222,1,0,3:2:0:0:
218,112,110316,1,0,3:2:0:0:
198,112,110410,1,0,3:2:0:0:
178,114,110503,1,0,3:2:0:0:
158,120,110597,1,0,3:2:0:0:
140,130,110691,1,0,3:2:0:0:
116,146,110785,6,0,L|106:45,1,82.7999972204591,6|0,3:2|0:0,0:0:0:0:
0,155,111160,1,8,0:0:0:0:
191,223,111347,2,0,P|262:195|354:213,1,165.599994440918,2|2,0:0|0:0,0:0:0:0:
505,282,111910,1,10,0:0:0:0:
349,340,112097,1,2,0:0:0:0:
430,169,112285,6,0,B|468:247|394:247|438:329,1,165.599994440918,2|8,3:2|0:0,0:0:0:0:
347,209,112847,1,2,0:0:0:0:
499,122,113035,1,0,3:2:0:0:
306,67,113222,1,0,0:0:0:0:
306,67,113316,1,0,0:0:0:0:
306,67,113410,2,0,P|353:53|391:65,1,82.7999972204591,10|2,0:0|0:0,0:0:0:0:
256,194,113785,6,0,L|150:180,1,82.7999972204591,0|0,3:2|0:0,0:0:0:0:
25,75,114160,1,8,0:0:0:0:
201,7,114347,2,0,L|189:94,1,82.7999972204591,0|0,0:0|3:2,0:0:0:0:
70,171,114722,1,0,0:0:0:0:
70,171,114816,1,0,0:0:0:0:
70,171,114910,1,10,0:0:0:0:
231,235,115097,1,2,0:0:0:0:
71,354,115285,6,0,P|144:338|242:356,1,165.599994440918,2|8,3:2|0:0,0:0:0:0:
398,284,115847,2,0,L|413:187,1,82.7999972204591,2|0,0:0|3:2,0:0:0:0:
255,230,116222,1,0,0:0:0:0:
355,361,116410,2,0,P|401:372|438:362,1,82.7999972204591,10|0,0:0|0:0,0:0:0:0:
452,361,116691,1,0,0:0:0:0:
472,355,116785,5,2,3:2:0:0:
276,218,116972,1,0,0:0:0:0:
485,188,117160,1,8,0:0:0:0:
299,305,117347,2,0,B|224:331|224:257|136:277,1,165.599994440918,2|2,0:0|0:0,0:0:0:0:
33,187,117910,1,10,0:0:0:0:
143,136,118097,1,2,0:0:0:0:
133,371,118285,6,0,P|82:367|38:259,1,165.599994440918,2|8,3:2|0:0,0:0:0:0:
217,197,118847,2,0,L|199:292,1,82.7999972204591,2|0,0:0|3:2,0:0:0:0:
48,135,119222,1,0,0:0:0:0:
48,135,119316,1,0,0:0:0:0:
48,135,119410,1,10,0:0:0:0:
97,248,119597,1,2,0:0:0:0:
196,110,119785,6,0,B|277:86|277:167|357:143,1,165.599994440918,0|8,3:2|0:0,0:0:0:0:
448,0,120347,2,0,P|395:11|363:42,1,82.7999972204591,0|0,0:0|3:2,0:0:0:0:
497,177,120722,1,0,0:0:0:0:
497,177,120816,1,0,0:0:0:0:
497,177,120910,1,10,0:0:0:0:
297,245,121097,1,2,0:0:0:0:
509,379,121285,6,0,P|444:351|337:372,1,165.599994440918,0|8,3:2|0:0,0:0:0:0:
181,256,121847,1,0,0:0:0:0:
252,383,122035,2,0,B|267:337|267:337|260:314|260:314|277:265,2,124.199995830689,0|0|0,3:2|3:2|3:2,0:0:0:0:
151,136,122785,6,0,P|105:150|69:184,1,76.5000014591217,6|2,3:2|0:0,0:0:0:0:
70,181,123066,1,0,0:0:0:0:
63,201,123160,1,10,1:2:0:0:
133,356,123347,1,0,3:2:0:0:
139,328,123440,1,8,1:2:0:0:
145,300,123534,1,2,3:2:0:0:
151,272,123628,1,8,1:2:0:0:
158,244,123722,1,0,3:2:0:0:
293,197,123910,1,10,1:2:0:0:
298,332,124097,2,0,P|247:328|210:303,1,76.5000014591217,0|0,1:2|3:2,0:0:0:0:
448,349,124472,5,2,3:2:0:0:
489,270,124660,2,0,B|500:224|500:224|482:182,1,76.5000014591217,10|8,0:0|0:0,0:0:0:0:
288,45,125035,2,0,B|337:23|337:23|373:60|341:150,1,153.000002918243,2|10,3:2|0:0,0:0:0:0:
308,226,125597,1,2,3:2:0:0:
259,137,125785,1,0,3:2:0:0:
154,269,125972,5,10,1:2:0:0:
154,269,126066,1,8,1:2:0:0:
154,269,126160,1,10,1:2:0:0:
316,243,126347,1,0,3:2:0:0:
221,369,126535,2,0,P|178:356|133:360,1,76.5000014591217,2|0,3:2|3:2,0:0:0:0:
130,354,126816,1,0,0:0:0:0:
114,355,126910,1,10,0:0:0:0:
13,243,127097,2,0,B|-8:279|-8:279|3:327,1,76.5000014591217,2|0,1:2|3:2,0:0:0:0:
179,96,127472,5,2,3:2:0:0:
97,254,127660,1,2,3:2:0:0:
66,87,127847,1,10,1:2:0:0:
195,236,128035,2,0,B|235:213|274:230|274:230|303:262|356:257,1,153.000002918243,2|10,3:2|1:2,0:0:0:0:
455,87,128597,2,0,P|394:105|370:143,1,76.5000014591217,2|0,0:0|3:2,0:0:0:0:
420,285,128972,5,2,0:0:0:0:
336,179,129160,1,10,1:2:0:0:
483,215,129347,1,0,3:2:0:0:
504,246,129440,1,8,1:2:0:0:
512,283,129534,1,2,3:2:0:0:
504,320,129628,1,8,1:2:0:0:
483,351,129722,1,0,3:2:0:0:
309,304,129910,1,10,1:2:0:0:
360,153,130097,2,0,P|305:152|203:175,1,153.000002918243,2|2,1:2|3:2,0:0:0:0:
198,180,130566,1,0,0:0:0:0:
187,187,130660,5,10,0:0:0:0:
191,341,130847,1,8,0:0:0:0:
48,237,131035,2,0,B|26:297|26:297|40:330|40:330|18:403,1,153.000002918243,2|10,3:2|0:0,0:0:0:0:
136,244,131597,2,0,B|134:203|134:203|110:171,1,76.5000014591217,2|0,3:2|3:2,0:0:0:0:
0,18,131972,5,10,1:2:0:0:
0,18,132066,1,8,1:2:0:0:
0,18,132160,1,10,1:2:0:0:
15,173,132347,1,0,3:2:0:0:
30,138,132440,1,8,0:0:0:0:
57,111,132534,1,2,3:2:0:0:
93,98,132628,1,8,0:0:0:0:
131,100,132722,1,0,3:2:0:0:
284,240,132910,1,10,0:0:0:0:
137,220,133097,1,10,1:2:0:0:
336,151,133285,6,0,P|379:178|384:295,1,153.000002918243,2|0,3:2|3:2,0:0:0:0:
233,353,133847,1,8,3:0:0:0:
233,353,133941,1,0,0:0:0:0:
233,353,134035,1,2,0:0:0:0:
441,377,134222,1,0,3:2:0:0:
209,252,134410,2,0,B|164:261|164:261|151:276|151:276|90:288,1,114.750002188683,8|0,3:0|0:0,0:0:0:0:
88,295,134785,5,4,3:2:0:0:
41,303,146785,6,0,P|89:295|118:295,1,72,6|0,3:2|0:0,0:0:0:0:
263,359,147160,1,0,0:0:0:0:
182,247,147347,2,0,B|230:323|149:323|191:400,1,144,2|2,0:0|0:0,0:0:0:0:
118,194,147910,2,0,P|153:171|213:172,1,72,2|2,0:0|0:0,0:0:0:0:
316,44,148285,6,0,P|295:108|299:201,1,144,2|0,0:0|0:0,0:0:0:0:
394,178,148847,2,0,P|415:242|411:335,1,144,2|2,0:0|0:0,0:0:0:0:
320,293,149410,1,2,0:0:0:0:
320,293,149597,1,2,0:0:0:0:
353,92,149785,6,0,P|397:82|485:160,1,144,2|0,0:0|0:0,0:0:0:0:
394,178,150347,2,0,B|329:153|329:232|234:194,1,144,2|2,0:0|0:0,0:0:0:0:
66,187,150910,1,2,0:0:0:0:
98,275,151097,1,2,0:0:0:0:
140,74,151285,6,0,B|48:60|48:60|-2:95,1,144,2|0,0:0|0:0,0:0:0:0:
81,175,151847,2,0,B|179:159|179:159|223:196,1,144,2|2,0:0|0:0,0:0:0:0:
256,271,152410,1,2,0:0:0:0:
256,271,152597,1,2,0:0:0:0:
106,264,152785,6,0,P|124:314|65:389,1,144,2|0,0:0|0:0,0:0:0:0:
20,221,153347,1,2,0:0:0:0:
20,221,153722,1,2,0:0:0:0:
88,150,153910,1,2,0:0:0:0:
88,150,154097,1,2,0:0:0:0:
206,248,154285,6,0,B|278:215|278:294|360:258,1,144,2|0,0:0|0:0,0:0:0:0:
462,210,154847,1,2,0:0:0:0:
462,210,155222,1,2,0:0:0:0:
419,324,155410,1,2,0:0:0:0:
419,324,155597,1,2,0:0:0:0:
512,129,155785,6,0,P|442:117|381:159,1,144,2|0,1:2|1:2,0:0:0:0:
268,210,156347,2,0,B|229:171|229:171|245:70,1,144,2|2,1:2|1:2,0:0:0:0:
130,51,156910,1,2,1:2:0:0:
117,27,157097,1,2,1:2:0:0:
43,265,157285,6,0,B|68:266|88:270|88:270|108:254|124:237|124:237|152:234|178:233,1,144,2|0,3:2|1:2,0:0:0:0:
362,241,157847,2,0,L|349:300,1,36,2|2,1:2|1:2,0:0:0:0:
249,377,158035,5,2,1:2:0:0:
218,358,158128,1,0,1:2:0:0:
183,349,158222,1,0,1:2:0:0:
147,353,158316,1,2,1:2:0:0:
115,367,158410,1,0,1:2:0:0:
110,359,158503,1,0,1:2:0:0:
106,351,158597,1,2,1:2:0:0:
102,343,158691,1,0,1:2:0:0:
99,335,158785,6,0,L|123:221,1,99.0000030212403,6|0,3:2|0:0,0:0:0:0:
45,46,159160,1,8,0:0:0:0:
219,203,159347,2,0,P|164:148|31:177,1,198.000006042481,2|2,0:0|0:0,0:0:0:0:
210,306,159910,1,10,0:0:0:0:
119,238,160097,1,2,0:0:0:0:
321,384,160285,6,0,P|353:349|359:290,1,99.0000030212403,2|0,3:2|0:0,0:0:0:0:
482,244,160660,1,8,0:0:0:0:
207,201,160847,2,0,B|259:216|259:216|298:190|298:190|375:202,1,148.50000453186,2|0,0:0|0:0,0:0:0:0:
378,187,161222,1,2,0:0:0:0:
417,5,161410,1,10,0:0:0:0:
512,93,161597,1,2,0:0:0:0:
194,33,161785,6,0,P|240:22|327:140,1,198.000006042481,2|8,3:2|0:0,0:0:0:0:
208,291,162347,2,0,P|209:223|176:124,1,148.50000453186,2|0,0:0|0:0,0:0:0:0:
162,133,162722,1,2,0:0:0:0:
0,167,162910,1,10,0:0:0:0:
71,74,163097,1,2,0:0:0:0:
102,303,163285,6,0,P|21:314|-13:293,1,99.0000030212403,2|0,3:2|0:0,0:0:0:0:
158,142,163660,1,8,0:0:0:0:
194,354,163847,2,0,L|299:338,1,99.0000030212403,2|0,0:0|3:2,0:0:0:0:
457,226,164222,1,2,0:0:0:0:
428,380,164410,1,10,0:0:0:0:
325,269,164597,1,2,0:0:0:0:
495,153,164785,6,0,B|401:113|401:218|293:165,1,198.000006042481,2|8,3:2|0:0,0:0:0:0:
163,18,165347,2,0,P|212:18|255:41,1,99.0000030212403,2|0,0:0|3:2,0:0:0:0:
221,208,165722,1,2,0:0:0:0:
341,102,165910,1,10,0:0:0:0:
313,280,166097,1,2,0:0:0:0:
188,115,166285,6,0,B|101:80|101:178|-24:133,1,198.000006042481,2|8,3:2|0:0,0:0:0:0:
107,315,166847,2,0,B|144:319|167:351|167:351|234:297|191:202,1,198.000006042481,2|2,0:0|0:0,0:0:0:0:
383,83,167410,1,10,0:0:0:0:
298,231,167597,1,2,0:0:0:0:
210,23,167785,6,0,B|286:31|286:31|328:-1|328:-1|405:0,1,198.000006042481,2|8,3:2|0:0,0:0:0:0:
479,195,168347,2,0,P|398:181|323:291,1,198.000006042481,2|2,0:0|0:0,0:0:0:0:
446,373,168910,1,10,0:0:0:0:
512,277,169097,1,2,0:0:0:0:
284,352,169285,6,0,B|187:300|187:393|76:340,1,198.000006042481,2|0,3:2|0:0,0:0:0:0:
39,262,169847,2,0,L|47:194,2,49.5000015106202,2|2|2,0:0|0:0|0:0,0:0:0:0:
0,100,170222,5,0,3:2:0:0:
33,85,170316,1,0,3:2:0:0:
70,84,170410,1,0,3:2:0:0:
105,95,170503,1,0,3:2:0:0:
135,117,170597,1,0,3:2:0:0:
154,149,170691,1,0,3:2:0:0:
160,185,170785,6,0,P|262:154|353:182,1,198.000006042481,6|8,3:2|0:0,0:0:0:0:
439,370,171347,2,0,B|466:307|466:307|452:236|452:236|486:160,1,198.000006042481,2|2,0:0|0:0,0:0:0:0:
269,102,171910,1,10,0:0:0:0:
317,195,172097,1,2,0:0:0:0:
512,72,172285,6,0,P|463:62|407:90,1,99.0000030212403,2|0,3:2|0:0,0:0:0:0:
408,209,172660,1,8,0:0:0:0:
222,185,172847,2,0,B|184:260|266:259|214:351,1,148.50000453186,2|0,0:0|0:0,0:0:0:0:
224,351,173222,1,2,0:0:0:0:
83,246,173410,1,10,0:0:0:0:
153,297,173597,1,2,0:0:0:0:
280,71,173785,6,0,P|232:48|114:123,1,198.000006042481,2|8,3:2|0:0,0:0:0:0:
34,340,174347,2,0,P|32:263|-3:163,1,148.50000453186,2|0,0:0|0:0,0:0:0:0:
0,141,174722,1,2,0:0:0:0:
213,135,174910,1,10,0:0:0:0:
167,218,175097,1,2,0:0:0:0:
0,53,175285,6,0,P|50:44|116:59,1,99.0000030212403,2|0,3:2|0:0,0:0:0:0:
258,214,175660,1,8,0:0:0:0:
91,315,175847,2,0,B|73:180|73:180|131:129,1,198.000006042481,2|2,0:0|0:0,0:0:0:0:
308,132,176410,2,0,P|345:180|347:227,1,99.0000030212403,10|2,0:0|0:0,0:0:0:0:
180,348,176785,6,0,P|247:332|379:372,1,198.000006042481,2|8,3:2|0:0,0:0:0:0:
97,384,177347,2,0,B|81:321|81:321|104:256|104:256|87:178,1,198.000006042481,2|2,0:0|0:0,0:0:0:0:
245,69,177910,1,10,0:0:0:0:
186,212,178097,1,2,0:0:0:0:
2,105,178285,6,0,P|57:80|113:88,1,99.0000030212403,2|0,3:2|0:0,0:0:0:0:
338,109,178660,1,8,0:0:0:0:
259,58,178847,2,0,B|207:152|308:152|252:274,1,198.000006042481,2|2,0:0|0:0,0:0:0:0:
177,384,179410,2,0,P|234:344|290:352,1,99.0000030212403,10|2,0:0|0:0,0:0:0:0:
512,222,179785,6,0,P|456:239|469:388,1,198.000006042481,2|8,3:2|0:0,0:0:0:0:
290,165,180347,2,0,L|274:272,1,99.0000030212403,2|0,0:0|3:2,0:0:0:0:
452,153,180722,1,2,0:0:0:0:
242,60,180910,2,0,P|299:45|352:63,1,99.0000030212403,10|2,0:0|0:0,0:0:0:0:
183,159,181285,6,0,B|115:135|115:135|67:163|67:163|-11:141,1,198.000006042481,2|8,3:2|0:0,0:0:0:0:
4,342,181847,1,2,0:0:0:0:
4,342,181941,1,2,0:0:0:0:
4,342,182035,2,0,P|65:326|105:340,1,99.0000030212403,2|0,3:2|0:0,0:0:0:0:
131,338,182316,1,0,3:2:0:0:
131,338,182410,2,0,P|168:339|217:329,1,49.5000015106202
225,329,182597,1,0,3:2:0:0:
398,217,182785,5,6,3:2:0:0:
312,351,182972,1,0,0:0:0:0:
485,301,183160,1,8,0:0:0:0:
253,186,183347,1,2,0:0:0:0:
253,186,183722,1,0,0:0:0:0:
417,135,183910,2,0,P|427:195|419:242,1,82.7999972204591,10|0,0:0|0:0,0:0:0:0:
229,91,184285,5,2,3:2:0:0:
409,47,184472,1,0,0:0:0:0:
342,189,184660,1,8,0:0:0:0:
219,7,184847,1,2,0:0:0:0:
219,7,185222,1,0,0:0:0:0:
142,106,185410,2,0,P|95:93|26:105,1,82.7999972204591,10|0,0:0|0:0,0:0:0:0:
19,340,185785,6,0,P|72:290|184:321,1,165.599994440918,2|8,3:2|0:0,0:0:0:0:
383,360,186347,2,0,B|307:319|307:398|211:364,1,165.599994440918,2|0,0:0|0:0,0:0:0:0:
311,253,186910,1,10,0:0:0:0:
311,253,187097,1,0,0:0:0:0:
475,381,187285,6,0,P|487:297|525:194,1,165.599994440918,2|8,3:2|0:0,0:0:0:0:
343,35,187847,2,0,P|394:73|371:180,1,165.599994440918,2|0,0:0|0:0,0:0:0:0:
227,40,188410,1,10,0:0:0:0:
312,117,188597,1,0,0:0:0:0:
132,19,188785,6,0,L|116:110,1,82.7999972204591,2|0,3:2|0:0,0:0:0:0:
28,259,189160,1,8,0:0:0:0:
235,178,189347,2,0,B|162:134|146:224|53:165,1,165.599994440918,2|0,0:0|0:0,0:0:0:0:
47,370,189910,2,0,P|85:332|136:329,1,82.7999972204591,10|0,0:0|0:0,0:0:0:0:
363,284,190285,6,0,L|347:387,1,82.7999972204591,2|0,3:2|0:0,0:0:0:0:
255,266,190660,1,8,0:0:0:0:
493,210,190847,2,0,B|443:223|443:223|386:195|386:195|301:204,1,165.599994440918,2|0,0:0|0:0,0:0:0:0:
293,66,191410,2,0,P|346:81|376:110,1,82.7999972204591,10|0,0:0|0:0,0:0:0:0:
126,200,191785,6,0,L|112:89,1,82.7999972204591,2|0,3:2|0:0,0:0:0:0:
232,162,192160,1,8,0:0:0:0:
187,270,192347,2,0,P|103:298|38:236,1,165.599994440918,2|0,0:0|0:0,0:0:0:0:
259,169,192910,2,0,L|271:268,1,82.7999972204591,10|0,0:0|0:0,0:0:0:0:
499,227,193285,6,0,L|485:324,1,82.7999972204591,2|0,3:2|0:0,0:0:0:0:
406,241,193660,1,0,0:0:0:0:
434,143,193847,2,0,P|477:124|531:131,1,82.7999972204591,2|0,0:0|0:0,0:0:0:0:
340,168,194222,5,0,3:2:0:0:
307,156,194316,1,0,3:2:0:0:
273,158,194410,1,2,3:2:0:0:
242,174,194503,1,0,3:2:0:0:
212,190,194597,1,0,3:2:0:0:
178,197,194691,1,0,3:2:0:0:
145,192,194785,1,6,3:2:0:0:
