osu file format v14

[General]
AudioFilename: audio.mp3
AudioLeadIn: 0
PreviewTime: 74683
Countdown: 0
SampleSet: Soft
StackLeniency: 0.7
Mode: 0
LetterboxInBreaks: 0
WidescreenStoryboard: 1

[Editor]
DistanceSpacing: 1.3
BeatDivisor: 4
GridSize: 32
TimelineZoom: 1

[Metadata]
Title:Theta de Tsukisashite
TitleUnicode:θで突き刺して
Artist:senya
ArtistUnicode:senya
Creator:Serafeim
Version:Hard
Source:東方怪綺談 ~ Mystic Square
Tags:touhou video game trance japanese th5 2hu ms the Grimoire of Alice Margatroid Theme 東方project ZUN Team Shanghai Alice Autobahn かませ虎 kamase-tora 幽閉サテライト Mayumi Morinaga 森永真由美 Yuuhei Satellite dagger-gazel Roda_Totsuki reiSevia Nokashi OJT2021 osu japan tournament qualifier
BeatmapID:2802609
BeatmapSetID:1353531

[Difficulty]
HPDrainRate:5
CircleSize:4
OverallDifficulty:6
ApproachRate:8
SliderMultiplier:1.5
SliderTickRate:1

[Events]
//Background and Video events
0,0,"BGv2.jpg",0,0
//Break Periods
2,134985,146035
//Storyboard Layer 0 (Background)
//Storyboard Layer 1 (Fail)
//Storyboard Layer 2 (Pass)
//Storyboard Layer 3 (Foreground)
//Storyboard Layer 4 (Overlay)
//Storyboard Sound Samples

[TimingPoints]
-215,375,4,1,0,100,1,0
1285,-133.333333333333,4,2,1,50,0,0
13285,-125,4,2,1,70,0,0
26785,-111.111111111111,4,2,1,60,0,0
35785,-111.111111111111,4,2,1,40,0,0
36535,-111.111111111111,4,2,1,50,0,0
37285,-111.111111111111,4,2,1,55,0,0
38785,-108.695652173913,4,2,1,60,0,0
62785,-111.111111111111,4,2,1,50,0,0
74410,-117.647058823529,4,2,1,50,0,0
74691,-117.647058823529,4,2,1,50,0,0
74785,-90.9090909090909,4,2,1,70,0,1
98785,-108.695652173913,4,2,1,60,0,0
122785,-111.111111111111,4,2,1,50,0,0
146785,-125,4,2,1,50,0,0
155785,-125,4,2,1,40,0,0
156535,-125,4,2,1,50,0,0
157285,-125,4,2,1,60,0,0
158035,-125,4,2,1,70,0,0
158410,-125,4,2,1,70,0,0
158597,-125,4,2,1,70,0,0
158785,-90.9090909090909,4,2,1,70,0,1
182785,-108.695652173913,4,2,1,60,0,0
194785,-108.695652173913,4,2,1,50,0,0

[Colours]
Combo1 : 105,114,192
Combo2 : 199,155,73
Combo3 : 75,83,148
Combo4 : 171,88,88

[HitObjects]
55,81,1285,6,0,P|108:59|213:105,1,168.750006437302,6|2,3:2|0:0,0:0:0:0:
90,202,2222,1,2,0:0:0:0:
90,202,2410,2,0,L|97:269,1,56.2500021457673,2|2,0:0|0:0,0:0:0:0:
114,330,2785,2,0,B|199:299|198:377|278:338,1,168.750006437302,2|2,0:0|0:0,0:0:0:0:
431,361,3722,1,2,0:0:0:0:
431,361,3910,2,0,L|441:295,1,56.2500021457673,2|2,0:0|0:0,0:0:0:0:
478,236,4285,6,0,B|434:197|434:197|309:224,1,168.750006437302,2|2,0:0|0:0,0:0:0:0:
237,69,5222,1,2,0:0:0:0:
237,69,5410,2,0,L|229:137,1,56.2500021457673,2|2,0:0|0:0,0:0:0:0:
235,214,5785,2,0,P|186:192|68:233,1,168.750006437302,2|2,0:0|0:0,0:0:0:0:
11,365,6722,1,2,0:0:0:0:
11,365,6910,2,0,L|75:378,1,56.2500021457673,2|2,0:0|0:0,0:0:0:0:
143,360,7285,6,0,B|163:304|163:304|153:240|153:240|167:187,1,168.750006437302,2|2,0:0|0:0,0:0:0:0:
247,67,8222,1,2,0:0:0:0:
247,67,8410,2,0,L|314:80,1,56.2500021457673,2|2,0:0|0:0,0:0:0:0:
364,29,8785,2,0,B|334:68|334:68|357:197,1,168.750006437302,2|2,0:0|0:0,0:0:0:0:
476,285,9722,1,2,0:0:0:0:
420,340,9910,2,0,P|377:333|349:336,1,56.2500021457673,2|2,0:0|0:0,0:0:0:0:
327,365,10285,6,0,P|336:300|261:218,1,168.750006437302,2|2,0:0|0:0,0:0:0:0:
147,131,11222,1,2,0:0:0:0:
94,190,11410,2,0,L|88:260,1,56.2500021457673,2|2,0:0|0:0,0:0:0:0:
42,310,11785,2,0,P|91:326|163:292,1,112.500004291535,2|0,0:0|0:0,0:0:0:0:
215,258,12347,2,0,L|246:260,1,28.1250010728836,2|2,0:0|0:0,0:0:0:0:
281,241,12535,2,0,L|296:137,2,84.3750032186509,2|2|2,0:0|0:0|0:0,0:0:0:0:
338,302,13285,6,0,P|392:291|456:319,1,120,2|0,0:0|0:0,0:0:0:0:
494,243,13847,2,0,L|502:167,1,60,2|0,0:0|0:0,0:0:0:0:
495,99,14222,1,2,0:0:0:0:
495,99,14410,2,0,L|428:87,1,60,2|2,0:0|0:0,0:0:0:0:
368,38,14785,6,0,P|392:88|381:165,1,120,2|0,0:0|0:0,0:0:0:0:
329,211,15347,2,0,P|278:192|192:207,1,120,2|2,0:0|0:0,0:0:0:0:
139,156,15910,1,2,0:0:0:0:
139,156,16097,1,2,0:0:0:0:
70,205,16285,6,0,B|43:172|43:172|58:76,1,120,2|0,0:0|0:0,0:0:0:0:
107,30,16847,2,0,B|171:14|171:65|234:41,1,120,2|2,0:0|0:0,0:0:0:0:
303,21,17410,1,2,0:0:0:0:
303,21,17597,1,2,0:0:0:0:
366,75,17785,6,0,P|358:123|356:216,1,120,2|0,0:0|0:0,0:0:0:0:
435,218,18347,2,0,P|443:266|445:359,1,120,2|2,0:0|0:0,0:0:0:0:
372,379,18910,2,0,P|341:368|301:369,1,60,2|2,0:0|0:0,0:0:0:0:
230,357,19285,6,0,B|220:313|220:313|236:274|236:274|224:227,1,120,2|0,0:0|0:0,0:0:0:0:
175,177,19847,2,0,P|127:191|52:162,1,120,2|2,0:0|0:0,0:0:0:0:
27,92,20410,2,0,L|36:23,1,60,2|2,0:0|0:0,0:0:0:0:
118,19,20785,6,0,B|166:46|166:46|246:26,1,120,2|0,0:0|0:0,0:0:0:0:
312,41,21347,2,0,P|297:98|297:187,1,120,2|2,0:0|0:0,0:0:0:0:
305,242,21910,1,2,0:0:0:0:
305,242,22097,1,2,0:0:0:0:
378,199,22285,6,0,B|436:182|436:182|494:202,1,120,2|0,0:0|0:0,0:0:0:0:
496,286,22847,2,0,P|438:300|379:288,1,120,2|2,0:0|0:0,0:0:0:0:
312,339,23410,1,2,0:0:0:0:
312,339,23597,1,2,0:0:0:0:
234,307,23785,6,0,B|184:294|184:294|111:320,1,120,2|0,0:0|0:0,0:0:0:0:
46,359,24347,2,0,L|37:322,1,30,2|2,0:0|0:0,0:0:0:0:
41,290,24535,2,0,B|47:255|47:255|63:235|63:235|72:187,2,90,2|2|2,0:0|0:0|0:0,0:0:0:0:
256,192,25285,12,0,26410,0:0:0:0:
76,51,26785,6,0,P|112:37|161:46,1,67.4999979400635,6|0,3:2|0:0,0:0:0:0:
227,76,27160,1,0,3:2:0:0:
151,132,27347,2,0,B|143:192|143:192|158:227|158:227|151:289,1,134.999995880127,2|0,0:0|0:0,0:0:0:0:
225,325,27910,6,0,L|294:317,1,67.4999979400635,2|0,3:2|0:0,0:0:0:0:
365,377,28285,2,0,L|434:385,1,67.4999979400635,2|0,3:2|0:0,0:0:0:0:
504,324,28660,2,0,L|496:255,1,67.4999979400635,0|2,3:2|0:0,0:0:0:0:
423,196,29035,1,0,3:2:0:0:
423,196,29222,1,0,0:0:0:0:
497,137,29410,1,2,3:2:0:0:
497,137,29597,1,0,0:0:0:0:
407,107,29785,6,0,P|345:98|318:102,1,67.4999979400635,2|0,3:2|0:0,0:0:0:0:
270,161,30160,1,0,3:2:0:0:
219,81,30347,2,0,P|173:120|172:204,1,134.999995880127,2|0,0:0|0:0,0:0:0:0:
241,248,30910,2,0,L|234:316,1,67.4999979400635,2|0,3:2|0:0,0:0:0:0:
160,374,31285,2,0,P|116:362|81:363,1,67.4999979400635,2|0,3:2|0:0,0:0:0:0:
27,304,31660,1,0,3:2:0:0:
106,267,31847,6,0,B|143:196|74:197|110:120,1,134.999995880127,2|0,0:0|0:0,0:0:0:0:
57,62,32410,2,0,P|101:52|142:60,1,67.4999979400635,2|0,3:2|0:0,0:0:0:0:
187,113,32785,2,0,P|231:123|272:115,1,67.4999979400635,2|0,3:2|0:0,0:0:0:0:
305,50,33160,1,8,0:0:0:0:
340,129,33347,2,0,B|328:184|328:184|343:221|343:221|328:283,1,134.999995880127,2|0,0:0|0:0,0:0:0:0:
356,343,33910,2,0,L|288:350,1,67.4999979400635,10|0,0:0|0:0,0:0:0:0:
241,275,34285,2,0,L|161:266,1,67.4999979400635,2|0,3:2|0:0,0:0:0:0:
117,334,34660,2,0,L|37:343,1,67.4999979400635,8|2,0:0|0:0,0:0:0:0:
15,266,35035,5,0,3:2:0:0:
15,266,35222,1,0,0:0:0:0:
86,213,35410,1,10,0:0:0:0:
86,213,35597,1,0,0:0:0:0:
10,167,35785,2,0,L|19:96,1,67.4999979400635,2|0,3:2|1:2,0:0:0:0:
3,13,36160,1,8,0:0:0:0:
93,25,36347,2,0,B|153:45|153:-8|225:10,1,134.999995880127,2|0,1:2|1:2,0:0:0:0:
312,40,36910,2,0,L|319:117,1,67.4999979400635,10|0,0:0|1:2,0:0:0:0:
267,187,37285,6,0,P|314:149|390:161,1,134.999995880127,2|8,3:2|0:0,0:0:0:0:
459,214,37847,2,0,B|444:259|444:259|448:303|448:303|430:363,1,134.999995880127,2|0,1:2|1:2,0:0:0:0:
342,363,38410,2,0,P|286:343|223:359,1,101.249996910095,10|0,0:0|1:2,0:0:0:0:
201,355,38785,6,0,L|193:276,1,68.9999976837159,6|0,3:2|0:0,0:0:0:0:
247,213,39160,1,0,3:2:0:0:
160,202,39347,2,0,B|96:177|96:242|22:210,1,137.999995367432,2|2,0:0|0:0,0:0:0:0:
48,127,39910,1,2,3:2:0:0:
48,127,40097,1,2,0:0:0:0:
99,53,40285,2,0,P|158:43|236:69,1,137.999995367432,2|0,3:2|3:2,0:0:0:0:
321,48,40847,1,2,0:0:0:0:
321,48,41035,6,0,P|327:84|327:128,1,68.9999976837159,0|0,3:2|0:0,0:0:0:0:
298,203,41410,1,2,3:2:0:0:
321,289,41597,1,2,0:0:0:0:
383,229,41785,2,0,P|447:201|524:222,1,137.999995367432,2|0,3:2|3:2,0:0:0:0:
501,303,42347,2,0,L|494:376,1,68.9999976837159,2|0,0:0|3:2,0:0:0:0:
408,371,42722,1,0,0:0:0:0:
408,371,42910,1,2,3:2:0:0:
230,344,43285,6,0,B|221:285|221:285|238:253|238:253|229:193,1,137.999995367432,2|0,3:2|3:2,0:0:0:0:
253,124,43847,2,0,L|182:119,1,68.9999976837159,2|0,0:0|3:2,0:0:0:0:
130,191,44222,1,0,0:0:0:0:
130,191,44410,2,0,L|59:196,1,68.9999976837159,2|0,3:2|0:0,0:0:0:0:
1,128,44785,6,0,P|10:93|11:37,1,68.9999976837159,2|0,3:2|0:0,0:0:0:0:
81,2,45160,1,0,3:2:0:0:
130,76,45347,2,0,B|224:65|224:65|269:107,1,137.999995367432,0|2,0:0|0:0,0:0:0:0:
341,120,45910,1,2,3:2:0:0:
341,120,46097,1,2,0:0:0:0:
268,178,46285,6,0,B|242:245|307:245|277:312,1,137.999995367432,2|0,3:2|3:2,0:0:0:0:
331,381,46847,2,0,B|397:364|397:364|417:371|417:371|493:356,1,137.999995367432,2|0,0:0|0:0,0:0:0:0:
496,277,47410,1,2,3:2:0:0:
407,243,47597,1,2,0:0:0:0:
476,185,47785,6,0,L|488:110,1,68.9999976837159,2|0,3:2|0:0,0:0:0:0:
482,32,48160,1,0,3:2:0:0:
482,32,48347,2,0,P|436:9|340:51,1,137.999995367432,2|0,0:0|0:0,0:0:0:0:
320,114,48910,1,2,3:2:0:0:
154,44,49285,6,0,B|141:90|141:90|152:136|152:136|133:181,1,137.999995367432,2|0,3:2|0:0,0:0:0:0:
73,239,49847,2,0,L|80:316,1,68.9999976837159,2|0,0:0|0:0,0:0:0:0:
166,357,50222,1,0,3:2:0:0:
166,357,50316,1,0,3:2:0:0:
166,357,50410,2,0,L|226:368,3,34.4999988418579,0|0|0|0,3:2|3:2|3:2|3:2,0:0:0:0:
244,355,50785,6,0,L|253:283,1,68.9999976837159,6|0,3:2|0:0,0:0:0:0:
301,210,51160,1,8,0:0:0:0:
349,284,51347,2,0,B|424:247|424:315|500:288,1,137.999995367432,0|2,0:0|0:0,0:0:0:0:
478,207,51910,1,10,0:0:0:0:
478,207,52097,1,2,0:0:0:0:
459,119,52285,6,0,P|378:140|327:115,1,137.999995367432,2|8,3:2|0:0,0:0:0:0:
253,85,52847,1,2,0:0:0:0:
253,85,53035,2,0,L|247:162,1,68.9999976837159,0|0,3:2|0:0,0:0:0:0:
161,179,53410,1,10,0:0:0:0:
231,242,53597,1,2,0:0:0:0:
148,278,53785,2,0,P|79:263|-3:283,1,137.999995367432,0|8,3:2|0:0,0:0:0:0:
15,185,54347,2,0,B|35:127|35:127|21:47,1,137.999995367432
112,30,54910,1,10,0:0:0:0:
112,30,55097,1,2,0:0:0:0:
186,83,55285,6,0,P|253:59|317:70,1,137.999995367432,2|8,3:2|0:0,0:0:0:0:
396,111,55847,2,0,L|406:181,1,68.9999976837159,2|0,0:0|3:2,0:0:0:0:
338,238,56222,1,0,0:0:0:0:
338,238,56410,2,0,L|328:308,1,68.9999976837159,10|0,0:0|0:0,0:0:0:0:
255,359,56785,6,0,P|213:351|169:359,1,68.9999976837159,2|0,3:2|0:0,0:0:0:0:
101,325,57160,1,8,0:0:0:0:
171,270,57347,2,0,B|185:212|185:212|176:175|176:175|189:120,1,137.999995367432,0|2,0:0|0:0,0:0:0:0:
150,58,57910,1,10,0:0:0:0:
150,58,58097,1,2,0:0:0:0:
83,121,58285,2,0,L|11:113,1,68.9999976837159,2|0,3:2|0:0,0:0:0:0:
28,202,58660,1,8,0:0:0:0:
117,200,58847,6,0,B|199:201|162:137|258:138,1,137.999995367432,2|0,0:0|0:0,0:0:0:0:
310,89,59410,1,10,0:0:0:0:
373,151,59597,1,2,0:0:0:0:
439,90,59785,2,0,P|463:138|425:226,1,137.999995367432,0|8,3:2|0:0,0:0:0:0:
409,299,60347,2,0,P|347:285|256:316,1,137.999995367432
202,354,60910,1,10,0:0:0:0:
125,307,61097,1,2,0:0:0:0:
202,261,61285,6,0,P|211:221|207:186,1,68.9999976837159,0|0,3:2|0:0,0:0:0:0:
135,140,61660,2,0,P|126:100|130:65,1,68.9999976837159,8|0,0:0|0:0,0:0:0:0:
206,27,62035,2,0,B|256:10|256:10|271:17|271:17|320:4,2,103.499996525574,0|0|0,3:2|3:2|3:2,0:0:0:0:
245,93,62785,5,6,3:2:0:0:
332,94,62972,1,2,0:0:0:0:
332,94,63160,2,0,L|347:165,1,67.4999979400635,10|0,1:2|3:2,0:0:0:0:
431,178,63535,2,0,B|421:238|421:238|424:251|424:251|408:333,1,134.999995880127,2|10,3:2|1:2,0:0:0:0:
323,317,64097,2,0,P|292:309|234:319,1,67.4999979400635,0|0,1:2|3:2,0:0:0:0:
189,367,64472,5,2,3:2:0:0:
155,288,64660,2,0,L|146:202,1,67.4999979400635,10|8,0:0|0:0,0:0:0:0:
193,145,65035,2,0,B|114:123|114:123|69:153,1,134.999995880127,2|10,3:2|0:0,0:0:0:0:
3,210,65597,2,0,L|9:290,1,67.4999979400635,2|0,3:2|3:2,0:0:0:0:
41,358,65972,5,10,1:2:0:0:
41,358,66066,1,8,1:2:0:0:
41,358,66160,2,0,L|112:349,1,67.4999979400635,10|0,1:2|3:2,0:0:0:0:
195,340,66535,2,0,P|191:275|178:195,1,134.999995880127,2|10,3:2|0:0,0:0:0:0:
259,171,67097,2,0,P|314:168|350:181,1,67.4999979400635,2|0,1:2|3:2,0:0:0:0:
382,237,67472,5,2,3:2:0:0:
435,167,67660,1,2,3:2:0:0:
435,167,67847,1,10,1:2:0:0:
472,246,68035,2,0,L|463:323,1,67.4999979400635,2|0,3:2|3:2,0:0:0:0:
413,382,68410,1,10,1:2:0:0:
349,321,68597,2,0,P|311:319|269:335,1,67.4999979400635,2|0,0:0|3:2,0:0:0:0:
209,374,68972,5,2,0:0:0:0:
191,287,69160,2,0,L|184:210,1,67.4999979400635,10|0,1:2|3:2,0:0:0:0:
267,189,69535,2,0,B|280:135|280:135|271:106|271:106|283:34,1,134.999995880127,2|10,3:2|1:2,0:0:0:0:
199,26,70097,2,0,P|165:29|133:20,1,67.4999979400635,2|0,1:2|3:2,0:0:0:0:
47,43,70472,5,2,3:2:0:0:
59,130,70660,2,0,L|48:207,1,67.4999979400635,10|8,0:0|0:0,0:0:0:0:
1,270,71035,2,0,P|61:237|128:259,1,134.999995880127,2|10,3:2|0:0,0:0:0:0:
156,334,71597,2,0,L|237:325,1,67.4999979400635,2|0,3:2|3:2,0:0:0:0:
278,258,71972,5,10,1:2:0:0:
278,258,72066,1,8,1:2:0:0:
278,258,72160,2,0,L|288:177,1,67.4999979400635,10|0,1:2|3:2,0:0:0:0:
252,108,72535,2,0,L|246:27,1,67.4999979400635,2|0,3:2|3:2,0:0:0:0:
332,18,72910,1,10,0:0:0:0:
372,95,73097,1,10,1:2:0:0:
453,61,73285,6,0,B|477:128|415:127|449:198,2,134.999995880127,2|0|2,3:2|3:2|0:0,0:0:0:0:
378,99,74222,1,2,3:2:0:0:
378,99,74410,2,0,B|329:115|329:115|273:104,1,95.6250018239022,8|0,3:0|0:0,0:0:0:0:
245,64,74785,6,0,P|263:137|242:234,1,165.000005035401,6|8,3:2|0:0,0:0:0:0:
179,318,75347,2,0,B|262:286|262:356|361:320,1,165.000005035401,2|2,0:0|0:0,0:0:0:0:
452,299,75910,1,10,0:0:0:0:
352,241,76097,1,2,0:0:0:0:
467,154,76285,6,0,B|488:98|488:98|469:50|469:50|491:-8,1,165.000005035401,2|8,3:2|0:0,0:0:0:0:
366,26,76847,2,0,P|324:18|278:28,1,82.5000025177003,2|0,0:0|3:2,0:0:0:0:
218,119,77222,1,2,0:0:0:0:
127,54,77410,1,10,0:0:0:0:
127,54,77597,1,2,0:0:0:0:
5,144,77785,6,0,B|-31:223|52:223|10:315,1,165.000005035401,2|8,3:2|0:0,0:0:0:0:
101,382,78347,2,0,L|190:370,1,82.5000025177003,2|0,0:0|3:2,0:0:0:0:
221,261,78722,1,2,0:0:0:0:
327,318,78910,1,10,0:0:0:0:
327,318,79097,1,2,0:0:0:0:
398,191,79285,6,0,P|347:143|241:166,1,165.000005035401,2|8,3:2|0:0,0:0:0:0:
159,94,79847,2,0,L|168:-9,1,82.5000025177003,2|0,0:0|3:2,0:0:0:0:
276,47,80222,1,2,0:0:0:0:
226,151,80410,1,10,0:0:0:0:
341,144,80597,1,2,0:0:0:0:
287,274,80785,6,0,B|215:286|215:286|177:266|177:266|117:276,1,165.000005035401,2|8,3:2|0:0,0:0:0:0:
37,345,81347,2,0,P|15:296|24:244,1,82.5000025177003,2|0,0:0|3:2,0:0:0:0:
118,168,81722,1,2,0:0:0:0:
128,274,81910,1,10,0:0:0:0:
128,274,82097,1,2,0:0:0:0:
257,362,82285,6,0,B|340:400|339:318|427:354,1,165.000005035401,2|8,3:2|0:0,0:0:0:0:
495,268,82847,2,0,L|517:159,1,82.5000025177003,2|0,0:0|3:2,0:0:0:0:
478,76,83222,1,2,0:0:0:0:
397,159,83410,1,10,0:0:0:0:
383,44,83597,1,2,0:0:0:0:
268,114,83785,6,0,B|164:90|164:90|106:138,1,165.000005035401,2|8,3:2|0:0,0:0:0:0:
4,122,84347,2,0,P|18:169|16:218,1,82.5000025177003,2|0,0:0|3:2,0:0:0:0:
37,316,84722,1,2,0:0:0:0:
133,250,84910,1,10,0:0:0:0:
133,250,85097,1,2,0:0:0:0:
191,360,85285,6,0,B|255:370|255:370|290:347|290:347|363:359,1,165.000005035401,2|0,3:2|0:0,0:0:0:0:
335,240,85847,2,0,L|347:181,2,41.2500012588501,2|2|2,0:0|0:0|0:0,0:0:0:0:
194,227,86222,1,0,3:2:0:0:
194,227,86316,1,0,3:2:0:0:
194,227,86410,2,0,L|207:280,1,41.2500012588501,0|0,3:2|3:2,0:0:0:0:
251,299,86597,2,0,L|264:352,1,41.2500012588501,0|0,3:2|3:2,0:0:0:0:
311,371,86785,6,0,P|371:350|487:388,1,165.000005035401,6|8,3:2|0:0,0:0:0:0:
492,245,87347,2,0,B|503:177|503:177|490:149|490:149|501:82,1,165.000005035401,2|2,0:0|0:0,0:0:0:0:
410,10,87910,1,10,0:0:0:0:
372,118,88097,1,2,0:0:0:0:
263,39,88285,6,0,B|185:17|185:98|100:66,1,165.000005035401,2|8,3:2|0:0,0:0:0:0:
13,134,88847,2,0,P|24:191|17:231,1,82.5000025177003,2|0,0:0|3:2,0:0:0:0:
131,178,89222,1,2,0:0:0:0:
97,288,89410,1,10,0:0:0:0:
202,242,89597,1,2,0:0:0:0:
243,371,89785,6,0,P|294:334|406:344,1,165.000005035401,2|8,3:2|0:0,0:0:0:0:
498,375,90347,2,0,L|513:291,1,82.5000025177003,2|0,0:0|3:2,0:0:0:0:
427,214,90722,1,2,0:0:0:0:
508,131,90910,2,0,L|500:48,1,82.5000025177003,10|2,0:0|0:0,0:0:0:0:
354,33,91285,6,0,B|294:58|246:19|246:19|192:51,1,165.000005035401,2|8,3:2|0:0,0:0:0:0:
91,76,91847,2,0,L|104:165,1,82.5000025177003,2|0,0:0|3:2,0:0:0:0:
26,245,92222,1,2,0:0:0:0:
144,265,92410,1,10,0:0:0:0:
144,265,92597,1,2,0:0:0:0:
86,384,92785,6,0,B|172:346|172:423|270:365,1,165.000005035401,2|8,3:2|0:0,0:0:0:0:
359,384,93347,2,0,L|374:278,1,82.5000025177003,2|0,0:0|3:2,0:0:0:0:
396,189,93722,1,2,0:0:0:0:
482,265,93910,1,10,0:0:0:0:
494,150,94097,1,2,0:0:0:0:
363,202,94285,6,0,B|302:206|302:206|272:247|272:247|206:254,1,165.000005035401,2|8,3:2|0:0,0:0:0:0:
197,138,94847,2,0,L|219:49,1,82.5000025177003,2|0,0:0|3:2,0:0:0:0:
100,52,95222,1,2,0:0:0:0:
114,171,95410,1,10,0:0:0:0:
114,171,95597,1,2,0:0:0:0:
0,252,95785,6,0,B|101:251|53:322|182:321,1,165.000005035401,2|8,3:2|0:0,0:0:0:0:
226,216,96347,2,0,B|314:261|275:381,1,165.000005035401,2|2,0:0|0:0,0:0:0:0:
377,289,96910,1,10,0:0:0:0:
462,365,97097,1,2,0:0:0:0:
500,255,97285,2,0,B|508:188|508:188|480:159|480:159|481:99,1,165.000005035401,2|0,3:2|0:0,0:0:0:0:
385,36,97847,2,0,L|392:108,2,41.2500012588501,2|2|2,0:0|0:0|0:0,0:0:0:0:
297,111,98222,1,0,0:0:0:0:
221,23,98410,2,0,B|170:21|170:21|153:34|153:34|83:26,1,123.75000377655
67,34,98785,6,0,L|59:113,1,68.9999976837159,6|0,3:2|0:0,0:0:0:0:
52,192,99160,1,0,3:2:0:0:
140,175,99347,2,0,B|207:145|207:210|271:185,1,137.999995367432,2|2,0:0|0:0,0:0:0:0:
360,217,99910,1,2,3:2:0:0:
360,217,100097,1,2,0:0:0:0:
304,289,100285,2,0,P|357:257|436:285,1,137.999995367432,2|0,3:2|3:2,0:0:0:0:
461,365,100847,1,2,0:0:0:0:
461,365,101035,6,0,L|378:351,1,68.9999976837159,0|0,3:2|0:0,0:0:0:0:
307,380,101410,1,2,3:2:0:0:
228,336,101597,1,2,0:0:0:0:
151,383,101785,2,0,B|98:367|98:367|61:373|61:373|1:361,1,137.999995367432,2|0,3:2|3:2,0:0:0:0:
51,277,102347,2,0,L|44:204,1,68.9999976837159,2|0,0:0|3:2,0:0:0:0:
34,123,102722,1,0,0:0:0:0:
34,123,102910,1,2,3:2:0:0:
199,54,103285,6,0,B|190:113|190:113|207:145|207:145|198:205,1,137.999995367432,2|0,3:2|3:2,0:0:0:0:
173,271,103847,2,0,L|244:276,1,68.9999976837159,2|0,0:0|3:2,0:0:0:0:
312,220,104222,1,0,0:0:0:0:
312,220,104410,2,0,L|317:149,1,68.9999976837159,2|0,3:2|0:0,0:0:0:0:
405,136,104785,6,0,L|415:227,1,68.9999976837159,2|0,3:2|0:0,0:0:0:0:
462,279,105160,1,0,3:2:0:0:
403,346,105347,2,0,B|320:330|320:330|272:364,1,137.999995367432,2|2,0:0|0:0,0:0:0:0:
234,286,105910,1,2,3:2:0:0:
234,286,106097,1,2,0:0:0:0:
196,204,106285,6,0,B|129:178|129:243|62:213,1,137.999995367432,2|0,3:2|3:2,0:0:0:0:
7,145,106847,2,0,P|48:89|130:89,1,137.999995367432,2|0,0:0|0:0,0:0:0:0:
183,25,107410,1,2,3:2:0:0:
197,113,107597,1,2,0:0:0:0:
274,68,107785,6,0,L|286:143,1,68.9999976837159,2|0,3:2|0:0,0:0:0:0:
350,205,108160,1,0,3:2:0:0:
350,205,108347,2,0,P|304:228|208:186,1,137.999995367432,2|0,0:0|0:0,0:0:0:0:
165,273,108910,1,2,3:2:0:0:
17,375,109285,6,0,B|4:329|4:329|15:283|15:283|-4:238,1,137.999995367432,2|0,3:2|0:0,0:0:0:0:
42,165,109847,2,0,L|49:88,1,68.9999976837159,2|0,0:0|0:0,0:0:0:0:
110,32,110222,1,0,3:2:0:0:
110,32,110316,1,0,3:2:0:0:
110,32,110410,2,0,L|170:21,3,34.4999988418579,0|0|0|0,3:2|3:2|3:2|3:2,0:0:0:0:
188,22,110785,6,0,L|197:94,1,68.9999976837159,6|0,3:2|0:0,0:0:0:0:
271,140,111160,1,8,0:0:0:0:
349,100,111347,2,0,B|392:120|436:88|436:88|501:110,1,137.999995367432,2|2,0:0|0:0,0:0:0:0:
468,195,111910,1,10,0:0:0:0:
468,195,112097,1,2,0:0:0:0:
464,284,112285,6,0,P|383:263|332:288,1,137.999995367432,2|8,3:2|0:0,0:0:0:0:
270,344,112847,1,2,0:0:0:0:
270,344,113035,2,0,L|181:327,1,68.9999976837159,0|0,3:2|0:0,0:0:0:0:
121,291,113410,1,10,0:0:0:0:
201,252,113597,1,2,0:0:0:0:
131,198,113785,2,0,B|76:205|76:205|41:185|41:185|-20:193,1,137.999995367432,0|8,3:2|0:0,0:0:0:0:
24,106,114347,2,0,B|26:60|62:46|62:46|91:70|136:55,1,137.999995367432
206,26,114910,1,10,0:0:0:0:
206,26,115097,1,2,0:0:0:0:
202,115,115285,6,0,P|269:139|333:128,1,137.999995367432,2|8,3:2|0:0,0:0:0:0:
416,93,115847,2,0,L|426:163,1,68.9999976837159,2|0,0:0|3:2,0:0:0:0:
509,206,116222,1,0,0:0:0:0:
509,206,116410,2,0,L|499:276,1,68.9999976837159,10|0,0:0|0:0,0:0:0:0:
454,352,116785,6,0,P|412:360|368:352,1,68.9999976837159,2|0,3:2|0:0,0:0:0:0:
298,376,117160,1,8,0:0:0:0:
319,289,117347,2,0,B|309:249|309:249|318:212|318:212|304:154,1,137.999995367432,2|2,0:0|0:0,0:0:0:0:
235,104,117910,1,10,0:0:0:0:
235,104,118097,1,2,0:0:0:0:
149,136,118285,2,0,L|77:144,1,68.9999976837159,2|0,3:2|0:0,0:0:0:0:
12,202,118660,1,8,0:0:0:0:
63,280,118847,6,0,P|162:275|200:299,1,137.999995367432,2|0,0:0|0:0,0:0:0:0:
279,268,119410,1,10,0:0:0:0:
258,355,119597,1,2,0:0:0:0:
345,335,119785,2,0,B|415:298|415:369|487:342,1,137.999995367432,0|8,3:2|0:0,0:0:0:0:
460,257,120347,2,0,P|426:201|414:126,1,137.999995367432
407,40,120910,1,10,0:0:0:0:
338,97,121097,1,2,0:0:0:0:
302,14,121285,6,0,P|262:23|227:19,1,68.9999976837159,0|0,3:2|0:0,0:0:0:0:
189,98,121660,2,0,P|154:96|121:104,1,68.9999976837159,8|0,0:0|0:0,0:0:0:0:
32,115,122035,2,0,B|44:80|44:80|39:60|39:60|51:16,2,103.499996525574,0|0|0,3:2|3:2|3:2,0:0:0:0:
78,183,122785,5,6,3:2:0:0:
168,179,122972,1,2,0:0:0:0:
168,179,123160,2,0,L|183:250,1,67.4999979400635,10|0,1:2|3:2,0:0:0:0:
206,329,123535,2,0,L|272:342,1,67.4999979400635,2|0,3:2|3:2,0:0:0:0:
343,291,123910,1,10,1:2:0:0:
427,312,124097,2,0,P|429:278|421:245,1,67.4999979400635,0|0,1:2|3:2,0:0:0:0:
391,163,124472,5,2,3:2:0:0:
478,168,124660,2,0,L|485:69,1,67.4999979400635,10|8,0:0|0:0,0:0:0:0:
404,61,125035,2,0,B|357:71|357:71|320:48|320:48|256:73,1,134.999995880127,2|10,3:2|0:0,0:0:0:0:
190,23,125597,2,0,L|196:91,1,67.4999979400635,2|0,3:2|3:2,0:0:0:0:
250,172,125972,5,10,1:2:0:0:
250,172,126066,1,8,1:2:0:0:
250,172,126160,2,0,L|179:181,1,67.4999979400635,10|0,1:2|3:2,0:0:0:0:
99,153,126535,2,0,L|89:228,1,67.4999979400635,2|0,3:2|3:2,0:0:0:0:
147,286,126910,1,10,0:0:0:0:
183,365,127097,2,0,P|149:369|116:365,1,67.4999979400635,2|0,1:2|3:2,0:0:0:0:
49,308,127472,5,2,3:2:0:0:
9,227,127660,1,2,3:2:0:0:
9,227,127847,1,10,1:2:0:0:
78,172,128035,2,0,L|155:181,1,67.4999979400635,2|0,3:2|3:2,0:0:0:0:
218,228,128410,1,10,1:2:0:0:
233,141,128597,2,0,P|271:143|313:127,1,67.4999979400635,2|0,0:0|3:2,0:0:0:0:
357,69,128972,5,2,0:0:0:0:
414,136,129160,2,0,L|421:213,1,67.4999979400635,10|0,1:2|3:2,0:0:0:0:
338,235,129535,2,0,L|325:326,1,67.4999979400635,2|0,3:2|3:2,0:0:0:0:
279,374,129910,1,10,1:2:0:0:
235,298,130097,2,0,P|201:295|169:304,1,67.4999979400635,2|0,1:2|3:2,0:0:0:0:
97,355,130472,5,2,3:2:0:0:
51,279,130660,2,0,L|62:202,1,67.4999979400635,10|8,0:0|0:0,0:0:0:0:
128,156,131035,2,0,B|63:180|63:180|-6:142,1,134.999995880127,2|10,3:2|0:0,0:0:0:0:
33,65,131597,2,0,L|114:56,1,67.4999979400635,2|0,3:2|3:2,0:0:0:0:
186,26,131972,5,10,1:2:0:0:
186,26,132066,1,8,1:2:0:0:
186,26,132160,2,0,L|196:107,1,67.4999979400635,10|0,1:2|3:2,0:0:0:0:
278,116,132535,2,0,L|272:197,1,67.4999979400635,2|0,3:2|3:2,0:0:0:0:
196,226,132910,1,10,0:0:0:0:
265,279,133097,1,10,1:2:0:0:
245,364,133285,6,0,B|308:394|307:332|374:356,2,134.999995880127,2|0|2,3:2|3:2|0:0,0:0:0:0:
184,315,134222,1,0,3:2:0:0:
184,315,134410,2,0,B|132:302|79:320,1,101.249996910095,8|0,3:0|0:0,0:0:0:0:
44,336,134785,5,4,3:2:0:0:
338,82,146785,6,0,P|392:93|456:65,1,120,6|0,3:2|0:0,0:0:0:0:
494,141,147347,2,0,L|502:217,1,60,2|0,0:0|0:0,0:0:0:0:
495,285,147722,1,2,0:0:0:0:
495,285,147910,2,0,L|428:297,1,60,2|2,0:0|0:0,0:0:0:0:
381,360,148285,6,0,P|406:314|384:236,1,120,2|0,0:0|0:0,0:0:0:0:
342,183,148847,2,0,P|282:189|210:195,1,120,2|2,0:0|0:0,0:0:0:0:
139,228,149410,1,2,0:0:0:0:
139,228,149597,1,2,0:0:0:0:
65,187,149785,6,0,P|52:250|47:317,1,120,2|0,0:0|0:0,0:0:0:0:
96,373,150347,2,0,P|157:341|216:357,1,120,2|2,0:0|0:0,0:0:0:0:
292,367,150910,1,2,0:0:0:0:
292,367,151097,1,2,0:0:0:0:
367,329,151285,6,0,P|359:281|357:188,1,120,2|0,0:0|0:0,0:0:0:0:
434,179,151847,2,0,P|442:131|444:38,1,120,2|2,0:0|0:0,0:0:0:0:
380,5,152410,2,0,P|349:16|309:15,1,60,2|2,0:0|0:0,0:0:0:0:
239,30,152785,6,0,B|236:63|259:86|259:86|233:160,1,120,2|0,0:0|0:0,0:0:0:0:
195,212,153347,2,0,B|168:205|148:188|148:188|121:221|72:227,1,120,2|2,0:0|0:0,0:0:0:0:
27,292,153910,2,0,L|36:361,1,60,2|2,0:0|0:0,0:0:0:0:
118,362,154285,6,0,B|183:328|183:387|246:355,1,120,2|0,0:0|0:0,0:0:0:0:
315,341,154847,2,0,P|300:284|300:195,1,120,2|2,0:0|0:0,0:0:0:0:
305,142,155410,1,2,0:0:0:0:
305,142,155597,1,2,0:0:0:0:
378,185,155785,6,0,P|436:196|494:182,1,120,2|0,1:2|1:2,0:0:0:0:
496,98,156347,2,0,P|438:84|379:96,1,120,2|2,1:2|1:2,0:0:0:0:
312,45,156910,1,2,1:2:0:0:
312,45,157097,1,2,1:2:0:0:
235,79,157285,6,0,B|197:56|197:56|150:86|159:143,1,120,2|0,3:2|1:2,0:0:0:0:
201,189,157847,1,2,1:2:0:0:
201,189,157941,1,2,1:2:0:0:
201,189,158035,2,0,L|208:243,3,30,2|0|0|2,1:2|1:2|1:2|1:2,0:0:0:0:
169,241,158410,2,0,L|162:295,3,30,0|0|2|0,1:2|1:2|1:2|1:2,0:0:0:0:
158,328,158785,6,0,P|232:299|327:337,1,165.000005035401,6|8,3:2|0:0,0:0:0:0:
412,377,159347,2,0,B|439:325|439:325|421:271|421:271|445:189,1,165.000005035401,2|2,0:0|0:0,0:0:0:0:
511,135,159910,1,10,0:0:0:0:
396,121,160097,1,2,0:0:0:0:
482,9,160285,6,0,P|426:33|328:-5,1,165.000005035401,2|8,3:2|0:0,0:0:0:0:
242,71,160847,2,0,L|228:172,1,82.5000025177003,2|0,0:0|3:2,0:0:0:0:
153,239,161222,1,2,0:0:0:0:
146,127,161410,1,10,0:0:0:0:
146,127,161597,1,2,0:0:0:0:
17,64,161785,6,0,B|47:38|59:7|59:7|120:-5|157:72,1,165.000005035401,2|8,3:2|0:0,0:0:0:0:
240,89,162347,2,0,P|250:152|239:181,1,82.5000025177003,2|0,0:0|3:2,0:0:0:0:
147,231,162722,1,2,0:0:0:0:
242,305,162910,1,10,0:0:0:0:
242,305,163097,1,2,0:0:0:0:
353,212,163285,6,0,B|344:260|344:260|365:315|365:315|338:389,1,165.000005035401,2|8,3:2|0:0,0:0:0:0:
456,336,163847,2,0,L|469:234,1,82.5000025177003,2|0,0:0|3:2,0:0:0:0:
406,155,164222,1,2,0:0:0:0:
512,108,164410,1,10,0:0:0:0:
512,108,164597,1,2,0:0:0:0:
382,38,164785,6,0,B|306:11|306:101|216:66,1,165.000005035401,2|8,3:2|0:0,0:0:0:0:
113,82,165347,2,0,P|134:144|132:186,1,82.5000025177003,2|0,0:0|3:2,0:0:0:0:
99,269,165722,1,2,0:0:0:0:
213,239,165910,1,10,0:0:0:0:
213,239,166097,1,2,0:0:0:0:
172,384,166285,6,0,B|221:370|221:370|278:383|278:383|327:361,1,165.000005035401,2|8,3:2|0:0,0:0:0:0:
425,296,166847,2,0,L|405:395,1,82.5000025177003,2|0,0:0|3:2,0:0:0:0:
507,314,167222,1,2,0:0:0:0:
471,208,167410,1,10,0:0:0:0:
471,208,167597,1,2,0:0:0:0:
512,78,167785,6,0,P|436:102|348:65,1,165.000005035401,2|8,3:2|0:0,0:0:0:0:
265,4,168347,2,0,L|252:87,1,82.5000025177003,2|0,0:0|3:2,0:0:0:0:
234,216,168722,1,2,0:0:0:0:
149,137,168910,1,10,0:0:0:0:
149,137,169097,1,2,0:0:0:0:
42,230,169285,6,0,B|78:258|123:247|123:247|114:287|141:324,1,165.000005035401,2|0,3:2|0:0,0:0:0:0:
247,376,169847,2,0,L|194:387,2,41.2500012588501,2|2|2,0:0|0:0|0:0,0:0:0:0:
281,270,170222,1,0,3:2:0:0:
281,270,170316,1,0,3:2:0:0:
281,270,170410,2,0,L|296:212,1,41.2500012588501,0|0,3:2|3:2,0:0:0:0:
339,197,170597,2,0,L|354:139,1,41.2500012588501,0|0,3:2|3:2,0:0:0:0:
390,115,170785,6,0,P|310:84|220:118,1,165.000005035401,6|8,3:2|0:0,0:0:0:0:
121,115,171347,2,0,B|89:198|159:198|123:297,1,165.000005035401,2|2,0:0|0:0,0:0:0:0:
242,249,171910,1,10,0:0:0:0:
189,352,172097,1,2,0:0:0:0:
326,348,172285,6,0,B|382:327|382:327|430:346|430:346|488:324,1,165.000005035401,2|8,3:2|0:0,0:0:0:0:
500,210,172847,2,0,P|500:167|482:123,1,82.5000025177003,2|0,0:0|3:2,0:0:0:0:
385,74,173222,1,2,0:0:0:0:
422,183,173410,1,10,0:0:0:0:
309,158,173597,1,2,0:0:0:0:
350,298,173785,6,0,B|271:334|271:251|179:293,1,165.000005035401,2|8,3:2|0:0,0:0:0:0:
77,300,174347,2,0,L|65:211,1,82.5000025177003,2|0,0:0|3:2,0:0:0:0:
138,128,174722,1,2,0:0:0:0:
25,137,174910,1,10,0:0:0:0:
25,137,175097,1,2,0:0:0:0:
86,14,175285,6,0,B|146:49|200:16|200:16|246:46,1,165.000005035401,2|8,3:2|0:0,0:0:0:0:
326,91,175847,2,0,L|317:194,1,82.5000025177003,2|0,0:0|3:2,0:0:0:0:
225,246,176222,1,2,0:0:0:0:
308,333,176410,1,10,0:0:0:0:
308,333,176597,1,2,0:0:0:0:
158,364,176785,6,0,B|86:376|86:376|48:356|48:356|-12:366,1,165.000005035401,2|8,3:2|0:0,0:0:0:0:
21,251,177347,2,0,P|43:202|34:150,1,82.5000025177003,2|0,0:0|3:2,0:0:0:0:
19,60,177722,1,2,0:0:0:0:
131,102,177910,1,10,0:0:0:0:
131,102,178097,1,2,0:0:0:0:
140,250,178285,6,0,B|216:230|216:307|321:275,1,165.000005035401,2|8,3:2|0:0,0:0:0:0:
402,231,178847,2,0,L|380:340,1,82.5000025177003,2|0,0:0|3:2,0:0:0:0:
289,376,179222,1,2,0:0:0:0:
196,315,179410,1,10,0:0:0:0:
196,315,179597,1,2,0:0:0:0:
76,380,179785,6,0,B|52:276|52:276|100:218,1,165.000005035401,2|8,3:2|0:0,0:0:0:0:
165,145,180347,2,0,P|206:146|245:159,1,82.5000025177003,2|0,0:0|3:2,0:0:0:0:
324,74,180722,1,2,0:0:0:0:
391,167,180910,2,0,P|419:137|437:100,1,82.5000025177003,10|2,0:0|0:0,0:0:0:0:
507,229,181285,6,0,B|483:283|483:283|487:326|487:326|457:399,1,165.000005035401,2|8,3:2|0:0,0:0:0:0:
375,308,181847,1,2,0:0:0:0:
268,262,182035,2,0,L|285:384,2,123.75000377655,2|0|0,3:2|3:2|3:2,0:0:0:0:
304,168,182785,6,0,P|267:151|218:153,1,68.9999976837159,6|0,3:2|0:0,0:0:0:0:
152,125,183160,1,8,0:0:0:0:
191,46,183347,1,2,0:0:0:0:
13,22,183722,1,0,0:0:0:0:
13,22,183910,2,0,L|23:106,1,68.9999976837159,10|0,0:0|0:0,0:0:0:0:
12,180,184285,6,0,P|1:220|16:270,1,68.9999976837159,2|0,3:2|0:0,0:0:0:0:
90,275,184660,1,8,0:0:0:0:
61,359,184847,1,2,0:0:0:0:
244,359,185222,1,0,0:0:0:0:
244,359,185410,2,0,L|335:350,1,68.9999976837159,10|0,0:0|0:0,0:0:0:0:
390,306,185785,6,0,P|349:254|373:175,1,137.999995367432,2|8,3:2|0:0,0:0:0:0:
449,166,186347,2,0,B|413:97|475:97|443:11,1,137.999995367432,2|0,0:0|0:0,0:0:0:0:
361,14,186910,2,0,P|301:4|265:8,1,68.9999976837159,10|0,0:0|0:0,0:0:0:0:
214,48,187285,2,0,L|219:123,1,68.9999976837159,2|0,3:2|0:0,0:0:0:0:
188,200,187660,1,8,0:0:0:0:
263,247,187847,2,0,P|231:286|137:278,1,137.999995367432,2|0,0:0|0:0,0:0:0:0:
88,209,188410,2,0,P|37:198|11:201,1,68.9999976837159,10|0,0:0|0:0,0:0:0:0:
15,109,188785,6,0,L|24:21,1,68.9999976837159,2|0,3:2|0:0,0:0:0:0:
106,8,189160,1,8,0:0:0:0:
180,64,189347,1,2,0:0:0:0:
355,26,189722,1,0,0:0:0:0:
355,26,189910,2,0,P|365:57|371:103,1,68.9999976837159,10|0,0:0|0:0,0:0:0:0:
355,181,190285,6,0,L|266:175,1,68.9999976837159,2|0,3:2|0:0,0:0:0:0:
202,143,190660,1,8,0:0:0:0:
215,231,190847,1,2,0:0:0:0:
83,353,191222,1,0,0:0:0:0:
83,353,191410,2,0,L|177:367,1,68.9999976837159,10|0,0:0|0:0,0:0:0:0:
240,382,191785,6,0,B|259:352|259:352|255:307,1,68.9999976837159,2|0,3:2|0:0,0:0:0:0:
339,298,192160,1,8,0:0:0:0:
281,229,192347,2,0,B|198:214|198:214|154:246,1,137.999995367432,2|0,0:0|0:0,0:0:0:0:
70,214,192910,2,0,P|25:214|-24:235,1,68.9999976837159,10|0,0:0|0:0,0:0:0:0:
36,303,193285,6,0,B|111:275|111:355|192:318,1,137.999995367432,2|0,3:2|0:0,0:0:0:0:
244,282,193847,2,0,L|263:194,1,68.9999976837159,2|0,0:0|0:0,0:0:0:0:
193,157,194222,1,0,3:2:0:0:
193,157,194316,1,0,3:2:0:0:
193,157,194410,2,0,L|182:98,3,34.4999988418579,2|0|0|0,3:2|3:2|3:2|3:2,0:0:0:0:
172,80,194785,5,6,3:2:0:0:
