osu file format v14

[General]
AudioFilename: audio.mp3
AudioLeadIn: 1500
PreviewTime: 56945
Countdown: 0
SampleSet: Soft
StackLeniency: 0.7
Mode: 0
LetterboxInBreaks: 0
WidescreenStoryboard: 1

[Editor]
Bookmarks: 947,183276,189510,211322
DistanceSpacing: 0.9
BeatDivisor: 4
GridSize: 32
TimelineZoom: 1.9

[Metadata]
Title:Sono Kami no Dilemma ni
TitleUnicode:その神のジレンマに
Artist:senya
ArtistUnicode:senya
Creator:Satellite
Version:ponpokorin's Lunatic
Source:東方風神録 ~ Mountain of Faith.
Tags:owc2022ro16dt2 owc 2022 ro16 dt2 pop touhou 10 th10 MoF 厄神様の通り道 ~ Dark Road 鍵山雛 Hina Kagiyama 幽閉サテライト Yuuhei HiZuMi 神奈森ユウ ikuo かませ虎 kamase tora video game japanese ZUN Team Shanghai Alice 東方project dagger-gazel ponpokorin pyrowar56 __Ag
BeatmapID:4536915
BeatmapSetID:1871922

[Difficulty]
HPDrainRate:6
CircleSize:4
OverallDifficulty:7
ApproachRate:8
SliderMultiplier:1.7
SliderTickRate:1

[Events]
//Background and Video events
0,0,"BG.jpg",0,0
//Break Periods
2,183276,188760
//Storyboard Layer 0 (Background)
//Storyboard Layer 1 (Fail)
//Storyboard Layer 2 (Pass)
//Storyboard Layer 3 (Foreground)
//Storyboard Layer 4 (Overlay)
//Storyboard Sound Samples

[TimingPoints]
947,487.80487804878,4,2,1,50,1,0
947,-142.857142857143,4,2,1,50,0,0
5614,389.61038961039,4,2,1,60,1,0
5614,-111.111111111111,4,2,1,60,0,0
7464,-111.111111111111,4,2,1,5,0,0
7562,-111.111111111111,4,2,1,60,0,0
8633,-111.111111111111,4,2,1,5,0,0
8730,-111.111111111111,4,2,1,60,0,0
10581,-111.111111111111,4,2,1,5,0,0
10678,-111.111111111111,4,2,1,60,0,0
11847,-100,4,2,1,70,0,1
12334,-100,4,2,1,5,0,1
12432,-100,4,2,1,70,0,1
13698,-100,4,2,1,5,0,1
13795,-100,4,2,1,70,0,1
14088,-100,4,2,1,5,0,1
14185,-100,4,2,1,70,0,1
14964,-100,4,2,1,50,0,0
17691,-66.6666666666667,4,2,1,50,0,0
18081,-100,4,2,1,70,0,0
21490,-100,4,2,1,5,0,0
21588,-100,4,2,1,70,0,0
26165,-100,4,2,1,5,0,0
26263,-100,4,2,1,70,0,0
26652,-100,4,2,1,70,0,0
27237,-100,4,2,1,50,0,0
27432,-100,4,2,1,70,0,0
30549,-111.111111111111,4,2,1,50,0,0
31620,-111.111111111111,4,2,1,5,0,0
31717,-111.111111111111,4,2,1,50,0,0
36782,-100,4,2,1,60,0,0
39510,-100,4,2,1,60,0,0
40191,-100,4,2,1,5,0,0
40289,-100,4,2,1,60,0,0
43016,-100,4,2,1,70,0,0
47204,-100,4,2,1,5,0,0
47302,-100,4,2,1,70,0,0
55484,-100,4,2,1,50,0,0
57042,-100,4,2,1,80,0,1
57432,-100,4,2,1,80,0,0
69510,-100,4,2,1,80,0,1
69899,-100,4,2,1,80,0,0
82756,-142.857142857143,4,2,1,80,0,0
83341,-142.857142857143,4,2,1,50,0,0
85094,-100,4,2,1,70,0,0
93178,-100,4,2,1,5,0,0
93276,-100,4,2,1,70,0,0
93665,-100,4,2,1,70,0,0
97562,-111.111111111111,4,2,1,50,0,0
98633,-111.111111111111,4,2,1,5,0,0
98730,-111.111111111111,4,2,1,50,0,0
100191,-111.111111111111,4,2,1,5,0,0
100289,-111.111111111111,4,2,1,50,0,0
103795,-142.857142857143,4,2,1,50,0,0
109250,-100,4,2,1,70,0,0
109639,-100,4,2,1,80,0,0
110029,-100,4,2,1,50,0,0
110419,-100,4,2,1,70,0,0
111101,-100,4,2,1,5,0,0
111198,-100,4,2,1,70,0,0
122497,-100,4,2,1,50,0,0
124055,-100,4,2,1,80,0,1
124347,-100,4,2,1,5,0,1
124445,-100,4,2,1,80,0,0
125906,-100,4,2,1,5,0,0
126003,-100,4,2,1,80,0,0
136523,-100,4,2,1,80,0,1
136912,-100,4,2,1,80,0,0
150354,-100,4,2,1,50,0,0
152107,-100,4,2,1,80,0,1
159412,-100,4,2,1,5,0,1
159510,-100,4,2,1,80,0,1
161750,-100,4,2,1,5,0,1
161847,-100,4,2,1,80,0,1
162529,-100,4,2,1,5,0,1
162626,-100,4,2,1,80,0,1
163990,-100,4,2,1,80,0,0
164575,-100,4,2,1,80,0,1
166425,-100,4,2,1,5,0,1
166523,-100,4,2,1,80,0,1
169542,-100,4,2,1,5,0,1
169639,-100,4,2,1,80,0,1
170029,-100,4,2,1,70,0,0
170419,-100,4,2,1,90,0,1
170614,-100,4,2,1,70,0,0
170808,-100,4,2,1,80,0,1
173536,-100,4,2,1,80,0,1
173925,-100,4,2,1,70,0,0
174704,-100,4,2,1,80,0,0
175776,-100,4,2,1,5,0,0
175873,-100,4,2,1,80,0,0
177042,-100,4,2,1,80,0,1
180159,-100,4,2,1,60,0,0
189510,-142.857142857143,4,2,1,50,0,0
192626,-111.111111111111,4,2,1,70,0,0
194185,-100,4,2,1,80,0,1
194964,-100,4,2,1,50,0,0
195354,-100,4,2,1,60,0,0
195743,-100,4,2,1,80,0,1
198763,-100,4,2,1,5,0,1
198860,-100,4,2,1,80,0,1
209575,-100,4,2,1,50,0,0
211322,487.80487804878,4,2,1,50,1,0
213251,487.80487804878,4,2,1,50,1,0
215192,487.80487804878,4,2,1,50,1,0
217145,465.116279069767,4,2,1,50,1,0
218100,480,4,2,1,50,1,0
218580,465.116279069767,4,2,1,50,1,0
219075,483.870967741935,4,2,1,50,1,0
222931,540.54054054054,4,2,1,50,1,0
224016,550.45871559633,4,2,1,50,1,0
225111,666.666666666666,4,2,1,50,1,0

[Colours]
Combo1 : 137,50,52
Combo2 : 71,163,113
Combo3 : 104,169,92
Combo4 : 177,67,70

[HitObjects]
48,90,947,6,0,L|58:16,2,59.4999981842042,2|2|0,0:0|0:0|0:0,0:0:0:0:
115,179,1678,1,2,0:0:0:0:
115,179,1922,2,0,L|124:260,2,59.4999981842042,2|2|0,0:0|0:0|0:0,0:0:0:0:
168,93,2654,1,2,0:0:0:0:
168,93,2898,5,2,0:0:0:0:
270,148,3142,1,2,0:0:0:0:
248,283,3386,1,2,0:0:0:0:
121,325,3629,1,2,0:0:0:0:
33,239,3873,1,2,0:0:0:0:
21,222,5614,6,0,B|80:183|106:259|182:212,1,152.999995330811,2|2,0:0|0:0,0:0:0:0:
255,152,6198,1,2,0:0:0:0:
255,152,6295,1,0,0:0:0:0:
255,152,6393,2,0,L|165:131,1,76.4999976654054,2|0,0:0|0:0,0:0:0:0:
54,71,6782,2,0,L|144:61,1,76.4999976654054,2|0,0:0|0:0,0:0:0:0:
312,47,7172,6,0,P|337:83|343:175,1,114.749996498108,2|0,0:0|0:0,0:0:0:0:
415,215,7562,2,0,L|432:113,1,76.4999976654054,2|0,0:0|0:0,0:0:0:0:
315,241,7951,2,0,P|319:279|325:316,1,76.4999976654054,2|0,0:0|0:0,0:0:0:0:
427,139,8341,1,2,0:0:0:0:
342,57,8536,1,0,0:0:0:0:
204,137,8730,6,0,L|302:125,1,76.4999976654054,2|0,0:0|0:0,0:0:0:0:
132,221,9120,2,0,P|86:209|36:188,1,76.4999976654054,2|0,0:0|0:0,0:0:0:0:
240,234,9510,2,0,L|257:333,1,76.4999976654054,2|2,0:0|0:0,0:0:0:0:
256,333,9802,1,0,0:0:0:0:
259,356,9899,1,2,0:0:0:0:
184,184,10094,1,0,0:0:0:0:
53,294,10289,6,0,B|38:239|65:193|65:193|33:122,1,152.999995330811,2|2,0:0|0:0,0:0:0:0:
94,51,10873,1,2,0:0:0:0:
94,51,10971,1,0,0:0:0:0:
94,51,11068,2,0,L|11:40,1,76.4999976654054,2|2,0:0|0:0,0:0:0:0:
129,133,11458,2,0,L|218:117,1,76.4999976654054,2|0,0:0|0:0,0:0:0:0:
380,24,11847,6,0,B|327:18|269:64|269:64|310:104|290:173,1,212.5,4|0,0:0|0:0,0:0:0:0:
234,206,12432,2,0,L|156:197,1,42.5,0|0,1:0|0:0,0:0:0:0:
320,269,12626,2,0,L|327:387,1,85,4|2,0:0|0:0,0:0:0:0:
206,288,13016,1,0,0:0:0:0:
318,168,13211,1,2,0:0:0:0:
407,276,13406,6,0,P|478:257|496:182,1,127.5,4|0,0:0|0:0,0:0:0:0:
501,107,13795,2,0,L|388:175,1,127.5,4|0,0:0|0:0,0:0:0:0:
320,219,14185,2,0,B|229:197|229:197|168:226|168:226|68:196,1,255,4|0,0:0|0:0,0:0:0:0:
78,199,14964,5,4,0:0:0:0:
243,282,15159,1,0,0:0:0:0:
181,131,15354,1,0,0:0:0:0:
128,347,15549,1,2,0:0:0:0:
350,299,15743,1,4,0:0:0:0:
256,192,16328,12,0,17497,0:0:0:0:
336,71,17691,6,0,L|468:57,1,127.500004863739,2|0,0:0|0:0,0:0:0:0:
403,164,18081,6,0,P|398:208|394:269,1,85,6|0,0:0|0:0,0:0:0:0:
280,364,18471,2,0,P|276:321|272:279,1,85,8|2,0:0|0:0,0:0:0:0:
250,257,18763,1,2,0:0:0:0:
250,257,18860,2,0,L|127:242,1,85,0|2,0:0|0:0,0:0:0:0:
113,162,19250,1,8,0:0:0:0:
43,306,19445,1,0,0:0:0:0:
20,203,19639,5,2,0:0:0:0:
160,351,19834,1,0,0:0:0:0:
217,208,20029,2,0,P|228:147|203:96,1,85,8|0,0:0|0:0,0:0:0:0:
185,103,20321,1,0,0:0:0:0:
185,103,20419,2,0,L|87:86,1,85,0|0,1:0|1:0,0:0:0:0:
304,45,20808,2,0,L|406:27,1,85,8|0,0:0|0:0,0:0:0:0:
485,149,21198,6,0,P|437:196|363:192,1,127.5,0|0,1:0|0:0,0:0:0:0:
343,172,21588,2,0,L|261:116,1,85,8|0,0:0|1:0,0:0:0:0:
382,277,21977,2,0,L|394:388,1,85,0|0,1:0|1:0,0:0:0:0:
391,361,22269,1,0,0:0:0:0:
391,361,22367,1,8,0:0:0:0:
468,198,22562,1,0,0:0:0:0:
295,260,22756,6,0,B|233:248|233:248|189:260|189:260|122:248,1,170,4|8,0:0|0:0,0:0:0:0:
76,170,23341,1,0,1:0:0:0:
76,170,23438,1,0,0:0:0:0:
76,170,23536,2,0,L|59:107,1,42.5,8|0,0:0|0:0,0:0:0:0:
68,322,23730,2,0,L|50:373,1,42.5,0|0,1:0|0:0,0:0:0:0:
10,234,23925,5,8,0:0:0:0:
168,355,24120,1,0,0:0:0:0:
266,214,24315,1,6,0:0:0:0:
266,214,24412,1,0,0:0:0:0:
266,214,24510,2,0,L|155:241,1,85,0|8,0:0|0:0,0:0:0:0:
359,278,24899,1,2,0:0:0:0:
440,117,25094,2,0,P|432:158|425:200,1,85,0|0,1:0|0:0,0:0:0:0:
373,361,25484,2,0,P|367:319|358:278,1,85,8|0,0:0|0:0,0:0:0:0:
286,121,25873,6,0,L|266:252,1,127.5,4|0,0:0|0:0,0:0:0:0:
335,313,26263,2,0,L|347:228,1,85,4|0,0:0|0:0,0:0:0:0:
189,182,26652,2,0,P|145:227|169:333,1,170,4|8,0:0|0:0,0:0:0:0:
272,128,27237,5,2,0:0:0:0:
272,128,27334,1,2,0:0:0:0:
272,128,27432,1,4,0:0:0:0:
376,201,27626,1,0,0:0:0:0:
288,40,27821,1,8,0:0:0:0:
209,177,28016,1,0,0:0:0:0:
85,80,28211,2,0,P|151:67|235:54,2,127.5,4|4|4,0:0|0:0|0:0,0:0:0:0:
36,162,28990,6,0,L|19:265,1,85,4|0,0:0|0:0,0:0:0:0:
197,376,29380,2,0,L|210:292,1,85,8|0,0:0|0:0,0:0:0:0:
229,252,29672,1,0,0:0:0:0:
229,252,29769,2,0,P|258:245|302:240,1,42.5,4|0,0:0|0:0,0:0:0:0:
343,191,29964,2,0,P|368:201|396:205,1,42.5,0|0,1:0|0:0,0:0:0:0:
473,186,30159,5,8,0:0:0:0:
491,158,30256,1,0,0:0:0:0:
494,124,30354,1,0,1:0:0:0:
484,92,30451,1,0,0:0:0:0:
457,69,30549,6,0,P|421:55|351:54,1,76.4999976654053,6|2,0:0|0:0,0:0:0:0:
296,182,30938,2,0,L|310:84,1,76.4999976654053,0|2,1:0|0:0,0:0:0:0:
391,180,31328,2,0,P|406:246|413:322,1,114.749996498108
478,361,31717,2,0,L|492:264,1,76.4999976654053,0|2,1:0|0:0,0:0:0:0:
322,231,32107,5,0,1:0:0:0:
362,111,32302,1,2,0:0:0:0:
431,206,32497,1,0,0:0:0:0:
289,153,32691,1,2,0:0:0:0:
237,322,32886,2,0,L|225:223,1,76.4999976654053,2|0,0:0|0:0,0:0:0:0:
225,219,33178,1,2,0:0:0:0:
221,194,33276,1,0,0:0:0:0:
128,290,33471,1,2,0:0:0:0:
0,185,33665,6,0,L|91:168,1,76.4999976654053,0|2,1:0|0:0,0:0:0:0:
141,85,34055,2,0,L|226:93,1,76.4999976654053,0|2,1:0|0:0,0:0:0:0:
302,152,34445,2,0,P|369:130|428:54,1,152.999995330811,0|0,0:0|1:0,0:0:0:0:
440,49,35224,5,0,1:0:0:0:
468,211,35419,1,2,0:0:0:0:
499,110,35614,1,0,0:0:0:0:
377,193,35808,1,2,0:0:0:0:
360,62,36003,1,0,1:0:0:0:
468,211,36198,1,2,0:0:0:0:
468,211,36295,1,0,0:0:0:0:
468,211,36393,2,0,L|459:315,1,76.4999976654053,0|0,1:0|0:0,0:0:0:0:
413,118,36782,5,4,0:0:0:0:
341,210,36977,1,0,0:0:0:0:
341,210,37075,1,0,0:0:0:0:
341,210,37172,1,8,0:0:0:0:
261,148,37367,1,2,0:0:0:0:
147,275,37562,2,0,L|242:254,1,85,0|0,1:0|1:0,0:0:0:0:
145,167,37951,2,0,L|47:155,1,85,0|0,1:0|1:0,0:0:0:0:
118,342,38341,6,0,P|114:296|105:242,1,85,0|0,1:0|0:0,0:0:0:0:
43,127,38730,1,8,0:0:0:0:
1,239,38925,1,2,0:0:0:0:
134,73,39120,1,0,1:0:0:0:
182,192,39315,1,0,0:0:0:0:
182,192,39412,1,0,0:0:0:0:
182,192,39510,1,8,0:0:0:0:
43,127,39704,1,0,0:0:0:0:
160,279,39899,6,0,P|213:273|276:198,1,127.5,0|0,1:0|0:0,0:0:0:0:
342,188,40289,2,0,L|338:286,1,85,8|2,0:0|0:0,0:0:0:0:
422,86,40678,2,0,L|427:187,1,85,0|0,1:0|0:0,0:0:0:0:
426,170,40971,1,0,0:0:0:0:
426,170,41068,1,8,0:0:0:0:
329,32,41263,1,2,0:0:0:0:
272,138,41458,5,4,0:0:0:0:
175,57,41652,1,2,0:0:0:0:
175,57,41750,1,0,0:0:0:0:
175,57,41847,1,8,0:0:0:0:
116,219,42042,1,2,0:0:0:0:
38,85,42237,1,6,1:2:0:0:
38,85,42334,1,0,0:0:0:0:
38,85,42432,2,0,L|29:152,1,42.5,0|0,1:0|0:0,0:0:0:0:
53,214,42626,5,2,0:0:0:0:
90,206,42724,1,0,0:0:0:0:
127,198,42821,1,2,0:0:0:0:
164,191,42919,1,0,0:0:0:0:
201,184,43016,6,0,P|249:227|250:352,1,170,4|8,0:0|0:0,0:0:0:0:
301,157,43601,1,2,0:0:0:0:
143,256,43795,2,0,L|36:243,1,85,2|0,0:0|0:0,0:0:0:0:
58,245,44088,1,2,0:0:0:0:
58,245,44185,1,8,0:0:0:0:
193,172,44380,1,2,0:0:0:0:
282,351,44575,6,0,P|300:289|291:243,1,85,4|0,0:0|0:0,0:0:0:0:
353,105,44964,2,0,L|368:203,1,85,8|2,0:0|0:0,0:0:0:0:
370,214,45256,1,0,0:0:0:0:
375,240,45354,1,0,1:0:0:0:
284,157,45549,1,2,0:0:0:0:
241,321,45743,1,8,0:0:0:0:
375,240,45938,1,0,0:0:0:0:
342,64,46133,6,0,L|434:59,1,85,4|0,0:0|0:0,0:0:0:0:
217,127,46523,2,0,L|308:135,1,85,8|2,0:0|0:0,0:0:0:0:
177,40,46912,2,0,P|135:63|112:149,1,127.5,0|0,1:0|0:0,0:0:0:0:
44,203,47302,2,0,P|37:161|24:103,1,85,8|0,0:0|0:0,0:0:0:0:
113,271,47691,5,4,0:0:0:0:
178,76,47886,1,2,0:0:0:0:
178,76,47984,1,0,0:0:0:0:
178,76,48081,2,0,L|191:181,1,85,8|2,0:0|0:0,0:0:0:0:
255,252,48471,1,0,1:0:0:0:
354,210,48665,1,0,1:0:0:0:
442,277,48860,1,8,0:0:0:0:
471,256,48958,1,0,0:0:0:0:
484,222,49055,1,0,1:0:0:0:
486,187,49152,1,0,0:0:0:0:
470,154,49250,6,0,P|389:139|281:124,1,170,4|8,0:0|0:0,0:0:0:0:
240,62,49834,1,2,0:0:0:0:
182,249,50029,2,0,P|160:190|170:134,1,85,0|2,1:0|0:0,0:0:0:0:
160,168,50321,1,0,0:0:0:0:
160,168,50419,1,8,0:0:0:0:
83,226,50614,1,2,0:0:0:0:
24,79,50808,6,0,P|69:72|128:66,1,85,4|0,0:0|0:0,0:0:0:0:
254,161,51198,2,0,P|268:121|264:53,1,85,8|2,0:0|0:0,0:0:0:0:
153,209,51588,2,0,L|141:302,1,85,0|0,1:0|0:0,0:0:0:0:
140,318,51880,1,0,0:0:0:0:
138,345,51977,1,8,0:0:0:0:
243,167,52172,1,2,0:0:0:0:
357,267,52367,5,0,1:0:0:0:
243,167,52562,1,0,1:0:0:0:
289,355,52756,1,0,1:0:0:0:
315,190,52951,1,0,1:0:0:0:
179,275,53146,1,0,1:0:0:0:
112,117,53341,1,0,1:0:0:0:
112,117,53438,1,0,0:0:0:0:
112,117,53536,2,0,L|104:63,1,42.5,2|2,1:2|0:0,0:0:0:0:
31,156,53730,2,0,L|24:198,1,42.5,2|2,1:2|0:0,0:0:0:0:
73,270,53925,5,4,1:2:0:0:
109,282,54023,1,0,0:0:0:0:
146,274,54120,1,0,1:0:0:0:
172,246,54217,1,0,0:0:0:0:
181,209,54315,1,0,1:0:0:0:
170,173,54412,1,0,0:0:0:0:
155,138,54510,1,0,1:0:0:0:
165,101,54607,1,0,0:0:0:0:
191,72,54704,6,0,L|244:52,1,42.5,0|0,1:0|3:0,0:0:0:0:
256,151,54899,2,0,L|297:164,1,42.5,0|0,1:0|3:0,0:0:0:0:
341,51,55094,2,0,P|353:30|368:10,1,42.5,2|2,1:2|0:0,0:0:0:0:
413,163,55289,2,0,P|419:187|429:233,1,42.5,2|0,1:2|0:0,0:0:0:0:
485,97,55484,5,2,1:2:0:0:
485,97,57042,6,0,B|425:29|370:120|314:31,1,170,4|8,0:0|0:0,0:0:0:0:
437,161,57626,1,2,0:0:0:0:
274,111,57821,2,0,L|263:225,1,85,0|0,1:0|0:0,0:0:0:0:
265,195,58114,1,2,0:0:0:0:
265,195,58211,1,8,0:0:0:0:
348,41,58406,1,2,0:0:0:0:
364,242,58601,5,4,0:0:0:0:
268,87,58795,1,0,0:0:0:0:
268,87,58893,1,0,0:0:0:0:
268,87,58990,2,0,L|154:78,1,85,8|2,0:0|0:0,0:0:0:0:
360,37,59380,1,0,1:0:0:0:
222,0,59575,1,0,0:0:0:0:
243,206,59769,1,8,0:0:0:0:
269,106,59964,1,0,0:0:0:0:
152,237,60159,6,0,L|162:152,1,85,4|2,0:0|0:0,0:0:0:0:
259,258,60549,2,0,L|269:342,1,85,8|2,0:0|0:0,0:0:0:0:
72,368,60938,2,0,P|50:315|84:227,1,127.5,4|2,0:0|0:0,0:0:0:0:
134,192,61328,2,0,L|52:166,1,85,8|2,0:0|0:0,0:0:0:0:
234,219,61717,6,0,B|297:206|297:206|345:221|345:221|413:206,1,170,4|8,0:0|0:0,0:0:0:0:
441,34,62302,1,2,0:0:0:0:
441,34,62399,1,0,0:0:0:0:
441,34,62497,2,0,L|428:89,1,42.5,2|0,0:0|0:0,0:0:0:0:
499,180,62691,2,0,L|453:150,1,42.5
327,136,62886,2,0,L|395:125,1,42.5,8|0,0:0|0:0,0:0:0:0:
292,54,63081,2,0,L|226:38,1,42.5,2|0,0:0|0:0,0:0:0:0:
181,130,63276,6,0,P|130:125|77:24,2,170,4|4|0,0:0|0:0|1:0,0:0:0:0:
264,206,64250,1,2,0:0:0:0:
264,206,64347,1,0,0:0:0:0:
264,206,64445,2,0,L|277:319,1,85,8|2,0:0|0:0,0:0:0:0:
358,88,64834,6,0,P|353:151|346:186,1,85,4|0,0:0|0:0,0:0:0:0:
193,93,65224,2,0,P|184:51|180:9,1,85,8|0,0:0|0:0,0:0:0:0:
181,8,65516,1,0,0:0:0:0:
181,8,65614,1,2,0:0:0:0:
59,74,65808,1,2,0:0:0:0:
78,104,65906,1,0,0:0:0:0:
85,137,66003,2,0,L|75:211,1,42.5,10|0,0:0|0:0,0:0:0:0:
21,245,66198,2,0,L|32:307,1,42.5,2|0,0:0|0:0,0:0:0:0:
99,348,66393,6,0,P|191:322|267:311,1,170,4|8,0:0|0:0,0:0:0:0:
332,197,66977,1,2,0:0:0:0:
415,361,67172,2,0,L|427:262,1,85,0|2,1:0|0:0,0:0:0:0:
428,251,67464,1,0,0:0:0:0:
433,226,67562,1,8,0:0:0:0:
308,288,67756,1,2,0:0:0:0:
264,83,67951,6,0,L|248:230,2,127.5,4|4|4,0:0|0:0|0:0,0:0:0:0:
183,163,68730,2,0,L|173:227,1,42.5,0|0,1:0|0:0,0:0:0:0:
333,138,68925,2,0,L|342:78,1,42.5,0|0,1:0|0:0,0:0:0:0:
250,44,69120,1,2,1:2:0:0:
217,25,69217,1,0,0:0:0:0:
177,21,69315,1,2,0:0:0:0:
140,33,69412,1,0,0:0:0:0:
111,58,69510,6,0,P|80:97|84:208,1,127.5,4|2,0:0|0:0,0:0:0:0:
155,225,69899,2,0,L|142:135,1,85,8|2,0:0|0:0,0:0:0:0:
64,270,70289,2,0,P|54:321|47:373,1,85,4|2,0:0|0:0,0:0:0:0:
49,353,70581,1,0,0:0:0:0:
49,353,70678,1,8,0:0:0:0:
155,225,70873,1,2,0:0:0:0:
234,285,71068,5,4,0:0:0:0:
173,111,71263,1,0,0:0:0:0:
173,111,71360,1,0,0:0:0:0:
173,111,71458,1,8,0:0:0:0:
58,230,71652,1,2,0:0:0:0:
260,159,71847,2,0,L|356:154,1,85,0|0,1:0|1:0,0:0:0:0:
191,215,72237,2,0,L|94:203,1,85,8|0,0:0|0:0,0:0:0:0:
262,315,72626,5,4,0:0:0:0:
470,263,72821,1,2,0:0:0:0:
322,200,73016,1,8,0:0:0:0:
451,159,73211,1,2,0:0:0:0:
451,159,73308,1,0,0:0:0:0:
451,159,73406,2,0,P|466:110|454:59,1,85,4|0,0:0|0:0,0:0:0:0:
449,52,73698,1,2,0:0:0:0:
432,33,73795,1,8,0:0:0:0:
339,161,73990,1,2,0:0:0:0:
266,34,74185,6,0,L|245:223,1,170,4|8,0:0|0:0,0:0:0:0:
295,279,74769,1,2,0:0:0:0:
313,304,74867,1,0,0:0:0:0:
338,319,74964,2,0,L|387:315,1,42.5,2|0,0:0|0:0,0:0:0:0:
231,353,75159,2,0,L|290:364,1,42.5
170,273,75354,2,0,L|232:261,1,42.5,8|0,0:0|0:0,0:0:0:0:
76,331,75549,2,0,L|144:342,1,42.5,2|0,0:0|0:0,0:0:0:0:
24,251,75743,6,0,P|53:202|184:214,1,170,4|4,0:0|0:0,0:0:0:0:
24,251,76328,1,0,0:0:0:0:
11,136,76523,2,0,L|24:48,1,85,0|2,1:0|0:0,0:0:0:0:
24,52,76815,1,0,0:0:0:0:
24,52,76912,1,8,0:0:0:0:
114,192,77107,1,2,0:0:0:0:
208,78,77302,6,0,L|103:93,1,85,4|0,0:0|0:0,0:0:0:0:
262,164,77691,2,0,L|270:274,1,85,4|0,0:0|0:0,0:0:0:0:
317,94,78081,2,0,L|456:72,1,127.5,4|0,0:0|3:0,0:0:0:0:
474,96,78471,1,8,0:0:0:0:
339,183,78665,1,2,0:0:0:0:
339,183,78763,1,2,0:0:0:0:
339,183,78860,6,0,P|283:183|239:80,1,170,4|8,0:0|0:0,0:0:0:0:
336,274,79445,1,2,0:0:0:0:
433,117,79639,2,0,P|441:178|444:225,1,85,2|0,0:0|0:0,0:0:0:0:
445,227,79932,1,0,0:0:0:0:
448,253,80029,1,8,0:0:0:0:
353,139,80224,1,2,0:0:0:0:
304,301,80419,5,0,1:0:0:0:
431,241,80614,1,0,0:0:0:0:
286,194,80808,1,2,1:0:0:0:
236,367,81003,1,0,0:0:0:0:
196,240,81198,1,4,0:0:0:0:
196,240,81295,1,0,0:0:0:0:
196,240,81393,2,0,L|139:249,1,42.5,0|0,1:0|0:0,0:0:0:0:
85,195,81588,5,0,1:0:0:0:
77,157,81685,1,0,0:0:0:0:
70,119,81782,1,0,1:0:0:0:
62,81,81880,1,0,0:0:0:0:
54,44,81977,6,0,B|121:31|121:31|157:48|157:48|242:37,1,170,6|6,0:0|0:0,0:0:0:0:
238,28,82756,5,4,0:0:0:0:
28,206,83049,1,4,0:0:0:0:
337,294,83341,1,4,0:0:0:0:
256,192,83438,12,4,84704,0:0:0:0:
445,101,85094,6,0,P|391:34|294:37,1,170,4|8,0:0|0:0,0:0:0:0:
240,162,85678,1,0,0:0:0:0:
240,162,85776,1,0,0:0:0:0:
240,162,85873,2,0,L|339:142,1,85,0|0,1:0|1:0,0:0:0:0:
218,75,86263,1,8,0:0:0:0:
137,250,86458,1,0,1:0:0:0:
137,250,86555,1,0,0:0:0:0:
137,250,86652,5,4,0:0:0:0:
125,131,86847,1,0,0:0:0:0:
210,305,87042,1,8,0:0:0:0:
269,196,87237,1,2,0:0:0:0:
127,285,87432,2,0,P|120:326|114:388,1,85,4|0,0:0|1:0,0:0:0:0:
38,242,87821,2,0,L|31:145,1,85,0|0,1:0|1:0,0:0:0:0:
123,92,88211,5,0,1:0:0:0:
155,79,88308,1,0,0:0:0:0:
190,82,88406,1,0,0:0:0:0:
223,82,88503,1,0,0:0:0:0:
253,65,88601,1,8,0:0:0:0:
352,40,88795,1,2,0:0:0:0:
429,100,88990,2,0,P|443:60|427:15,1,85,0|0,1:0|0:0,0:0:0:0:
368,216,89380,2,0,L|464:226,1,85,8|0,0:0|0:0,0:0:0:0:
299,105,89769,6,0,P|273:153|275:275,1,170,0|8,1:0|0:0,0:0:0:0:
215,341,90354,1,2,0:0:0:0:
189,358,90451,1,0,0:0:0:0:
156,363,90549,2,0,L|84:350,1,42.5,0|0,1:0|0:0,0:0:0:0:
201,285,90743,2,0,L|273:267,1,42.5,0|0,1:0|0:0,0:0:0:0:
335,339,90938,2,0,L|346:288,1,42.5,8|0,0:0|0:0,0:0:0:0:
419,227,91133,2,0,L|434:292,1,42.5,2|0,0:0|0:0,0:0:0:0:
335,200,91328,6,0,L|242:187,1,85,4|2,0:0|0:0,0:0:0:0:
140,73,91717,2,0,P|123:116|135:172,1,85,8|2,0:0|0:0,0:0:0:0:
153,176,92010,1,0,0:0:0:0:
153,176,92107,2,0,L|160:272,1,85,0|2,1:0|0:0,0:0:0:0:
266,122,92497,1,8,0:0:0:0:
181,34,92691,1,2,0:0:0:0:
14,143,92886,6,0,B|99:165|99:165|173:138,1,127.5,4|0,0:0|0:0,0:0:0:0:
165,117,93276,2,0,L|183:19,1,85,4|0,0:0|0:0,0:0:0:0:
320,160,93665,2,0,P|285:213|178:214,1,170,4|4,0:0|0:0,0:0:0:0:
288,63,94250,1,2,0:0:0:0:
288,63,94347,1,0,0:0:0:0:
288,63,94445,6,0,L|390:80,1,85,4|0,0:0|0:0,0:0:0:0:
480,164,94834,1,8,0:0:0:0:
465,36,95029,1,0,0:0:0:0:
384,190,95224,2,0,P|376:265|370:352,2,127.5,6|4|4,0:0|0:0|0:0,0:0:0:0:
366,61,96003,5,4,0:0:0:0:
272,211,96198,1,0,3:0:0:0:
467,171,96393,1,0,1:2:0:0:
339,144,96588,1,2,3:2:0:0:
402,247,96782,1,2,1:2:0:0:
402,247,96880,1,0,0:0:0:0:
402,247,96977,2,0,L|412:321,1,42.5,2|2,3:2|0:0,0:0:0:0:
332,356,97172,5,0,1:2:0:0:
296,368,97269,1,2,0:0:0:0:
260,354,97367,1,2,3:2:0:0:
242,318,97464,1,2,0:0:0:0:
239,279,97562,6,0,L|234:190,1,76.4999976654053,4|0,0:0|0:0,0:0:0:0:
322,239,97951,2,0,L|330:160,1,76.4999976654053,2|0,0:0|0:0,0:0:0:0:
422,203,98341,2,0,L|450:59,1,114.749996498108,2|0,0:0|0:0,0:0:0:0:
427,57,98730,2,0,P|388:45|348:29,1,76.4999976654053,2|0,0:0|0:0,0:0:0:0:
264,140,99120,5,2,0:0:0:0:
351,122,99315,1,0,0:0:0:0:
279,56,99510,5,2,0:0:0:0:
197,41,99704,1,0,0:0:0:0:
124,91,99899,6,0,P|111:127|101:213,1,114.749996498108,2|0,0:0|0:0,0:0:0:0:
31,262,100289,2,0,L|16:164,1,76.4999976654053,2|0,0:0|0:0,0:0:0:0:
119,301,100678,6,0,L|200:283,1,76.4999976654053,2|0,0:0|0:0,0:0:0:0:
286,210,101068,2,0,L|209:196,1,76.4999976654053,2|0,0:0|0:0,0:0:0:0:
304,302,101458,5,2,0:0:0:0:
390,254,101652,1,0,0:0:0:0:
312,127,101847,5,2,0:0:0:0:
286,210,102042,1,0,0:0:0:0:
412,162,102237,5,2,0:0:0:0:
312,127,102432,1,0,0:0:0:0:
390,254,102626,6,0,P|395:295|399:354,1,76.4999976654053,2|0,0:0|0:0,0:0:0:0:
451,194,103016,2,0,L|457:90,1,76.4999976654053,2|2,0:0|0:0,0:0:0:0:
455,117,103308,1,2,0:0:0:0:
455,117,103406,1,2,0:0:0:0:
408,42,103601,1,2,0:0:0:0:
333,118,103795,6,0,P|275:108|195:101,1,118.999996368408,6|0,1:2|0:0,0:0:0:0:
142,39,104380,1,0,1:0:0:0:
37,156,104575,2,0,P|74:218|178:197,1,178.499994552612,2|0,1:3|0:0,0:0:0:0:
169,206,105354,6,0,L|162:286,1,59.4999981842042,2|0,0:0|0:0,0:0:0:0:
250,258,105743,2,0,L|258:342,1,59.4999981842042,2|0,0:0|0:0,0:0:0:0:
340,180,106133,2,0,L|334:277,1,89.2499972763062,2|2,1:3|0:0,0:0:0:0:
351,301,106523,2,0,L|425:289,1,59.4999981842042,0|0,0:0|1:0,0:0:0:0:
472,223,106912,6,0,P|480:178|482:109,2,89.2499972763062,2|0|0,0:0|0:0|0:0,0:0:0:0:
365,355,107691,2,0,B|308:367|308:367|285:329|285:329|245:343|191:330,1,178.499994552612,2|2,1:3|0:0,0:0:0:0:
210,333,108471,5,2,3:0:0:0:
138,193,108665,1,0,1:0:0:0:
94,324,108860,1,0,0:0:0:0:
217,161,109055,1,8,0:0:0:0:
25,199,109250,6,0,L|17:255,2,42.5,0|0|8,1:0|0:0|0:0,0:0:0:0:
70,74,109639,2,0,L|66:14,2,42.5,8|0|8,0:0|0:0|0:0,0:0:0:0:
88,109,110419,6,0,L|187:92,1,85,4|0,0:0|0:0,0:0:0:0:
300,22,110808,2,0,P|334:61|331:152,1,127.5,0|0,1:0|0:0,0:0:0:0:
274,195,111198,2,0,L|258:96,1,85,8|2,0:0|0:0,0:0:0:0:
158,194,111588,6,0,B|139:250|139:250|158:293|158:293|130:369,1,170,0|8,1:0|0:0,0:0:0:0:
237,229,112172,1,2,0:0:0:0:
237,229,112269,1,0,0:0:0:0:
237,229,112367,2,0,L|336:214,1,85,0|0,1:0|0:0,0:0:0:0:
170,156,112756,2,0,P|130:146|79:142,1,85,8|0,0:0|0:0,0:0:0:0:
268,72,113146,6,0,P|325:72|392:167,2,170,0|8|0,1:0|0:0|1:0,0:0:0:0:
171,156,114120,1,2,0:0:0:0:
171,156,114217,1,0,0:0:0:0:
171,156,114315,1,8,0:0:0:0:
163,39,114510,1,0,0:0:0:0:
289,91,114704,5,4,0:0:0:0:
145,189,114899,1,0,0:0:0:0:
145,189,114997,1,2,0:0:0:0:
145,189,115094,1,8,0:0:0:0:
147,5,115289,1,2,0:0:0:0:
241,156,115484,2,0,P|243:195|248:268,1,85,0|0,1:0|1:0,0:0:0:0:
342,315,115873,2,0,P|344:272|347:230,1,85,8|0,0:0|1:0,0:0:0:0:
231,353,116263,6,0,B|183:318|128:332|128:332|100:298|117:252,1,170,4|8,0:0|0:0,0:0:0:0:
171,169,116847,1,2,0:0:0:0:
38,226,117042,2,0,P|25:280|30:326,1,85,0|2,1:0|0:0,0:0:0:0:
26,309,117334,1,0,0:0:0:0:
26,309,117432,1,8,0:0:0:0:
88,129,117626,1,2,0:0:0:0:
223,241,117821,6,0,L|130:259,1,85,4|0,0:0|0:0,0:0:0:0:
268,163,118211,1,8,0:0:0:0:
333,314,118406,1,2,0:0:0:0:
353,184,118601,1,4,0:0:0:0:
247,344,118795,1,2,0:0:0:0:
247,344,118893,1,0,0:0:0:0:
247,344,118990,1,8,0:0:0:0:
429,248,119185,1,2,0:0:0:0:
390,63,119380,6,0,L|374:157,1,85,4|0,0:0|0:0,0:0:0:0:
271,262,119769,2,0,P|245:218|252:160,1,85,8|0,0:0|0:0,0:0:0:0:
403,252,120159,1,0,1:0:0:0:
266,357,120354,1,0,1:0:0:0:
266,357,120451,1,0,0:0:0:0:
266,357,120549,2,0,L|204:341,1,42.5,2|2,1:2|0:0,0:0:0:0:
159,287,120743,2,0,L|100:301,1,42.5,2|2,1:2|0:0,0:0:0:0:
37,253,120938,5,4,1:2:0:0:
13,223,121036,1,0,0:0:0:0:
2,187,121133,1,0,1:0:0:0:
16,151,121230,1,0,0:0:0:0:
45,126,121328,1,0,1:0:0:0:
83,121,121425,1,0,0:0:0:0:
118,139,121523,1,0,1:0:0:0:
156,144,121620,1,0,0:0:0:0:
192,131,121717,6,0,L|235:98,1,42.5,0|0,1:0|0:0,0:0:0:0:
277,171,121912,2,0,L|281:214,1,42.5,0|0,1:0|0:0,0:0:0:0:
367,190,122107,2,0,L|402:215,1,42.5,2|2,1:2|0:0,0:0:0:0:
440,135,122302,2,0,L|482:125,1,42.5,2|2,1:2|0:0,0:0:0:0:
358,95,122497,5,6,0:0:0:0:
358,95,124055,6,0,P|352:168|358:248,1,127.5,4|0,0:0|0:0,0:0:0:0:
291,295,124445,2,0,L|272:187,1,85,8|2,0:0|0:0,0:0:0:0:
223,122,124834,1,0,1:0:0:0:
160,235,125029,1,0,0:0:0:0:
160,235,125126,1,2,0:0:0:0:
160,235,125224,1,8,0:0:0:0:
106,74,125419,1,2,0:0:0:0:
289,229,125614,6,0,P|349:228|407:177,1,127.5,0|0,1:0|0:0,0:0:0:0:
440,160,126003,2,0,L|448:256,1,85,8|2,0:0|0:0,0:0:0:0:
326,131,126393,2,0,P|331:86|342:39,1,85,0|0,1:0|0:0,0:0:0:0:
512,115,126782,1,8,0:0:0:0:
426,30,126977,1,0,0:0:0:0:
352,203,127172,5,4,0:0:0:0:
426,30,127367,1,2,0:0:0:0:
301,137,127562,1,8,0:0:0:0:
457,95,127756,1,2,0:0:0:0:
321,42,127951,2,0,L|220:63,1,85,0|0,1:0|0:0,0:0:0:0:
237,59,128243,1,2,0:0:0:0:
237,59,128341,1,8,0:0:0:0:
144,11,128536,1,2,0:0:0:0:
71,107,128730,6,0,P|28:173|91:267,1,170,4|8,0:0|0:0,0:0:0:0:
185,205,129315,1,2,0:0:0:0:
196,173,129412,1,0,0:0:0:0:
204,139,129510,2,0,L|190:65,1,42.5,0|0,1:0|0:0,0:0:0:0:
115,153,129704,2,0,L|111:225,1,42.5,2|0,0:0|0:0,0:0:0:0:
207,260,129899,2,0,L|259:265,1,42.5,8|0,0:0|0:0,0:0:0:0:
84,296,130094,2,0,L|24:318,1,42.5
239,364,130289,6,0,B|302:342|302:342|344:353|344:353|429:326,1,170,4|4,0:0|0:0,0:0:0:0:
477,170,130873,1,0,0:0:0:0:
477,170,130971,1,0,0:0:0:0:
477,170,131068,2,0,L|461:261,1,85,0|2,1:0|0:0,0:0:0:0:
383,163,131458,1,8,0:0:0:0:
322,309,131652,1,2,0:0:0:0:
266,127,131847,5,4,0:0:0:0:
393,240,132042,1,0,0:0:0:0:
238,205,132237,1,8,0:0:0:0:
322,48,132432,1,0,0:0:0:0:
194,127,132626,1,2,1:2:0:0:
194,127,132724,1,0,0:0:0:0:
194,127,132821,2,0,L|142:124,1,42.5,2|0,1:2|0:0,0:0:0:0:
68,163,133016,1,8,0:0:0:0:
52,198,133114,1,0,0:0:0:0:
56,236,133211,1,2,0:0:0:0:
77,269,133308,1,0,0:0:0:0:
109,290,133406,6,0,L|201:267,1,85,4|0,0:0|0:0,0:0:0:0:
359,348,133795,2,0,L|267:325,1,85,8|2,0:0|0:0,0:0:0:0:
252,147,134185,2,0,P|268:207|273:256,1,85,0|0,1:0|0:0,0:0:0:0:
271,229,134477,1,0,0:0:0:0:
271,229,134575,1,8,0:0:0:0:
174,60,134769,1,2,0:0:0:0:
68,226,134964,6,0,P|17:174|19:115,2,127.5,4|4|4,0:0|0:0|0:0,0:0:0:0:
96,105,135743,2,0,L|103:63,1,42.5,0|0,1:0|0:0,0:0:0:0:
157,209,135938,2,0,L|174:263,1,42.5,0|0,1:0|0:0,0:0:0:0:
182,113,136133,1,8,0:0:0:0:
210,88,136230,1,0,1:0:0:0:
247,79,136328,1,0,1:0:0:0:
284,87,136425,1,0,3:0:0:0:
314,109,136523,6,0,B|443:91,1,127.5,4|2,0:0|0:0,0:0:0:0:
473,115,136912,2,0,L|478:206,1,85,8|2,0:0|0:0,0:0:0:0:
359,345,137302,2,0,P|364:287|374:235,1,85,4|2,0:0|0:0,0:0:0:0:
377,236,137594,1,0,0:0:0:0:
390,212,137691,1,8,0:0:0:0:
452,309,137886,1,2,0:0:0:0:
310,191,138081,5,4,0:0:0:0:
260,322,138276,1,2,0:0:0:0:
260,322,138373,1,0,0:0:0:0:
260,322,138471,1,8,0:0:0:0:
396,178,138665,1,2,0:0:0:0:
459,320,138860,1,0,1:0:0:0:
322,222,139055,1,0,1:0:0:0:
242,380,139250,1,8,0:0:0:0:
401,247,139445,1,0,0:0:0:0:
270,149,139639,6,0,L|185:160,1,85,0|2,1:0|0:0,0:0:0:0:
349,18,140029,1,8,0:0:0:0:
413,99,140224,1,2,0:0:0:0:
275,65,140419,2,0,P|265:106|270:149,1,85,4|0,0:0|0:0,0:0:0:0:
270,149,140711,1,2,0:0:0:0:
270,149,140808,1,8,0:0:0:0:
349,18,141003,1,2,0:0:0:0:
185,82,141198,6,0,P|126:89|32:10,1,170,4|8,0:0|0:0,0:0:0:0:
184,170,141782,1,2,0:0:0:0:
184,170,141880,1,0,0:0:0:0:
184,170,141977,2,0,L|198:221,1,42.5,0|0,1:0|0:0,0:0:0:0:
263,124,142172,2,0,L|276:74,1,42.5,2|0,0:0|0:0,0:0:0:0:
152,29,142367,2,0,L|205:34,1,42.5,8|0,0:0|0:0,0:0:0:0:
110,114,142562,2,0,L|47:127,1,42.5,2|0,0:0|0:0,0:0:0:0:
184,170,142756,6,0,P|204:228|194:346,2,170,4|4|0,0:0|0:0|1:0,0:0:0:0:
292,178,143730,1,2,0:0:0:0:
292,178,143828,1,0,0:0:0:0:
292,178,143925,2,0,L|298:78,1,85,8|2,0:0|0:0,0:0:0:0:
346,253,144315,6,0,P|390:243|442:237,1,85,4|0,0:0|0:0,0:0:0:0:
274,351,144704,2,0,P|231:344|190:334,1,85,4|0,0:0|0:0,0:0:0:0:
49,217,145094,2,0,P|82:180|173:193,1,127.5,4|0,0:0|3:0,0:0:0:0:
187,204,145484,1,8,0:0:0:0:
117,288,145678,1,2,0:0:0:0:
117,288,145776,1,2,0:0:0:0:
117,288,145873,6,0,L|110:377,1,85,4|0,0:0|0:0,0:0:0:0:
187,204,146263,2,0,P|179:136|169:94,1,85,8|2,0:0|0:0,0:0:0:0:
10,222,146652,2,0,L|113:208,1,85,0|0,1:0|0:0,0:0:0:0:
94,210,146945,1,2,0:0:0:0:
94,210,147042,1,8,0:0:0:0:
194,282,147237,1,2,0:0:0:0:
208,106,147432,5,4,0:0:0:0:
130,180,147626,1,0,0:0:0:0:
311,146,147821,2,0,P|336:204|325:259,1,85,2|0,1:0|0:0,0:0:0:0:
250,332,148211,5,4,0:0:0:0:
279,316,148308,1,0,0:0:0:0:
312,319,148406,1,0,1:0:0:0:
340,336,148503,1,0,0:0:0:0:
371,344,148601,1,0,1:0:0:0:
404,343,148698,1,0,0:0:0:0:
434,333,148795,2,0,L|448:282,1,42.5,0|0,1:0|0:0,0:0:0:0:
490,225,148990,6,0,B|494:170|460:130|460:130|487:106|481:63,1,170,6|6,0:0|0:0,0:0:0:0:
460,50,149769,5,4,0:0:0:0:
165,12,150062,1,4,0:0:0:0:
332,98,150354,1,4,0:0:0:0:
256,192,150451,12,2,151912,0:0:0:0:
359,87,152107,6,0,L|418:72,2,42.5,4|0|2,0:0|0:0|0:0,0:0:0:0:
265,33,152497,1,8,0:0:0:0:
351,170,152691,2,0,P|361:102|353:68,1,85,2|0,0:0|1:0,0:0:0:0:
262,194,153081,1,0,0:0:0:0:
262,194,153178,1,0,0:0:0:0:
262,194,153276,2,0,L|239:283,1,85,8|2,0:0|0:0,0:0:0:0:
26,311,153665,5,4,0:0:0:0:
208,258,153860,1,2,0:0:0:0:
66,201,154055,1,8,0:0:0:0:
164,126,154250,1,2,0:0:0:0:
164,126,154347,2,0,P|208:124|251:159,1,85,2|0,0:0|0:0,0:0:0:0:
270,186,154639,2,0,L|281:242,2,42.5,2|0|8,0:0|0:0|0:0,0:0:0:0:
178,242,155029,1,2,0:0:0:0:
178,242,155126,1,0,0:0:0:0:
178,242,155224,6,0,L|167:346,1,85,4|2,0:0|0:0,0:0:0:0:
300,358,155614,2,0,L|353:345,1,42.5,8|0,0:0|0:0,0:0:0:0:
367,269,155808,2,0,L|423:281,1,42.5,2|0,0:0|0:0,0:0:0:0:
479,325,156003,2,0,P|500:273|489:229,1,85,4|2,0:0|0:0,0:0:0:0:
486,222,156295,1,0,0:0:0:0:
474,200,156393,1,8,0:0:0:0:
350,278,156588,1,2,0:0:0:0:
269,133,156782,6,0,L|367:116,1,85,4|2,0:0|0:0,0:0:0:0:
208,201,157172,1,8,0:0:0:0:
143,72,157367,1,2,0:0:0:0:
143,72,157464,1,0,0:0:0:0:
143,72,157562,2,0,L|131:144,1,42.5,2|0,0:0|0:0,0:0:0:0:
74,173,157756,2,0,L|88:231,1,42.5,2|0,0:0|0:0,0:0:0:0:
156,281,157951,5,8,0:0:0:0:
193,293,158049,1,0,0:0:0:0:
232,292,158146,1,2,0:0:0:0:
266,274,158243,1,0,0:0:0:0:
286,239,158341,6,0,L|305:146,1,85,4|0,0:0|0:0,0:0:0:0:
395,317,158730,2,0,L|376:211,1,85,4|0,0:0|0:0,0:0:0:0:
289,334,159120,2,0,P|234:329|191:247,1,127.5,0|0,1:0|0:0,0:0:0:0:
130,210,159510,2,0,L|248:192,1,85,8|2,0:0|0:0,0:0:0:0:
33,164,159899,5,2,1:0:0:0:
80,26,160094,1,2,0:0:0:0:
37,188,160289,2,0,L|46:253,1,42.5,2|0,1:0|0:0,0:0:0:0:
123,294,160484,2,0,L|131:189,1,85,2|2,0:0|1:0,0:0:0:0:
179,105,160873,1,2,1:0:0:0:
210,92,160971,1,0,0:0:0:0:
246,93,161068,2,0,L|299:103,1,42.5,2|0,1:0|0:0,0:0:0:0:
359,178,161263,2,0,L|305:191,1,42.5,2|0,1:0|0:0,0:0:0:0:
418,258,161458,6,0,P|452:210|432:114,1,127.5,4|0,0:0|0:0,0:0:0:0:
499,71,161847,2,0,L|415:59,1,85,8|2,0:0|1:0,0:0:0:0:
185,156,162237,2,0,P|263:142|322:135,1,127.5,4|0,0:0|0:0,0:0:0:0:
365,199,162626,2,0,L|384:310,1,85,8|2,0:0|1:0,0:0:0:0:
379,282,162919,1,0,0:0:0:0:
379,282,163016,5,4,0:0:0:0:
300,17,163308,1,4,0:0:0:0:
81,172,163601,2,0,B|87:235|87:235|72:281|72:281|85:350,1,170,4|2,0:0|1:0,0:0:0:0:
112,360,164088,5,0,0:0:0:0:
149,367,164185,1,2,1:0:0:0:
184,352,164282,1,0,0:0:0:0:
204,319,164380,1,2,1:0:0:0:
206,281,164477,1,0,0:0:0:0:
185,244,164575,6,0,L|95:232,1,85,4|0,0:0|0:0,0:0:0:0:
231,97,164964,1,8,0:0:0:0:
329,192,165159,1,2,1:0:0:0:
329,192,165256,1,0,0:0:0:0:
329,192,165354,2,0,L|419:180,1,85,4|0,0:0|0:0,0:0:0:0:
295,16,165743,1,8,0:0:0:0:
214,123,165938,1,2,1:0:0:0:
214,123,166036,1,0,0:0:0:0:
214,123,166133,6,0,P|150:130|95:76,1,127.5,4|0,0:0|0:0,0:0:0:0:
59,169,166523,2,0,P|52:208|47:266,1,85,4|2,0:0|0:0,0:0:0:0:
48,253,166815,1,0,0:0:0:0:
48,253,166912,1,4,0:0:0:0:
96,81,167107,1,0,0:0:0:0:
216,189,167302,1,8,0:0:0:0:
38,140,167497,1,0,1:0:0:0:
194,77,167691,6,0,L|295:60,1,85,2|2,1:0|1:0,0:0:0:0:
410,140,168081,1,8,0:0:0:0:
363,43,168276,1,2,1:0:0:0:
320,158,168471,2,0,L|311:246,1,85,2|0,1:0|0:0,0:0:0:0:
311,242,168763,1,2,1:0:0:0:
311,242,168860,1,8,0:0:0:0:
425,120,169055,1,2,1:0:0:0:
485,270,169250,6,0,P|454:309|367:321,1,127.5,4|0,0:0|0:0,0:0:0:0:
306,262,169639,2,0,L|395:244,1,85,8|0,0:0|0:0,0:0:0:0:
259,347,170029,1,6,0:0:0:0:
221,341,170126,1,2,0:0:0:0:
182,335,170224,1,2,0:0:0:0:
144,329,170321,1,2,0:0:0:0:
105,323,170419,2,0,L|92:270,1,42.5,6|0,1:2|0:0,0:0:0:0:
21,226,170614,2,0,L|36:154,1,42.5,2|0,0:0|0:0,0:0:0:0:
83,106,170808,6,0,B|148:113|176:150|176:150|152:185|154:242,1,170,4|2,0:0|1:0,0:0:0:0:
241,279,171393,1,0,0:0:0:0:
241,279,171490,1,0,3:0:0:0:
241,279,171588,2,0,L|335:262,1,85,2|0,1:0|0:0,0:0:0:0:
358,238,171880,2,0,P|371:192|359:132,1,85,2|2,1:0|1:0,0:0:0:0:
317,101,172172,5,0,0:0:0:0:
293,81,172269,1,2,1:0:0:0:
264,69,172367,2,0,L|204:60,1,42.5,4|0,0:0|0:0,0:0:0:0:
142,118,172562,2,0,L|197:133,1,42.5,2|0,0:0|0:0,0:0:0:0:
270,161,172756,6,0,L|262:214,1,42.5,4|0,0:0|0:0,0:0:0:0:
328,277,172951,2,0,L|335:221,1,42.5,2|0,0:0|0:0,0:0:0:0:
264,345,173146,5,4,0:0:0:0:
241,314,173243,1,0,0:0:0:0:
205,301,173341,1,0,0:0:0:0:
166,304,173438,1,0,0:0:0:0:
130,318,173536,1,8,0:0:0:0:
92,323,173633,1,0,0:0:0:0:
55,314,173730,1,0,0:0:0:0:
28,287,173828,1,0,0:0:0:0:
33,248,173925,6,0,P|55:234|74:232,3,42.5,6|0|0|0,1:0|0:0|0:0|0:0,0:0:0:0:
156,252,174315,2,0,P|167:205|164:186,3,42.5,0|0|2|0,1:0|0:0|1:0|0:0,0:0:0:0:
98,156,174704,1,4,0:0:0:0:
118,123,174802,1,0,0:0:0:0:
152,105,174899,1,2,1:0:0:0:
191,104,174997,1,0,0:0:0:0:
226,123,175094,2,0,L|253:162,1,42.5,0|0,1:0|0:0,0:0:0:0:
308,237,175289,2,0,L|327:172,1,42.5,2|0,1:0|0:0,0:0:0:0:
390,103,175484,6,0,L|406:238,1,127.5,4|0,0:0|0:0,0:0:0:0:
471,304,175873,2,0,L|479:207,1,85,8|2,0:0|1:0,0:0:0:0:
480,194,176165,1,0,0:0:0:0:
480,168,176263,1,0,1:0:0:0:
306,315,176458,1,2,0:0:0:0:
468,268,176652,1,2,1:0:0:0:
326,181,176847,1,0,0:0:0:0:
326,181,176945,1,0,0:0:0:0:
326,181,177042,6,0,P|267:166|190:159,1,127.5,4|2,0:0|1:0,0:0:0:0:
129,210,177432,2,0,L|111:111,1,85,0|2,0:0|1:0,0:0:0:0:
49,261,177821,2,0,P|39:310|29:372,1,85,2|2,1:0|0:0,0:0:0:0:
33,344,178114,1,2,1:0:0:0:
33,344,178211,1,0,3:0:0:0:
129,210,178406,1,2,1:0:0:0:
282,281,178601,6,0,L|183:293,1,85,4|2,0:0|0:0,0:0:0:0:
197,291,178893,1,2,1:0:0:0:
197,291,178990,1,0,0:0:0:0:
360,207,179185,1,2,1:0:0:0:
163,175,179380,6,0,L|262:187,1,85,2|0,1:0|0:0,0:0:0:0:
247,185,179672,1,2,1:0:0:0:
247,185,179769,1,0,0:0:0:0:
85,101,179964,1,2,1:0:0:0:
288,31,180159,5,6,0:0:0:0:
256,192,180256,12,2,182886,0:0:0:0:
466,113,189510,6,0,B|394:86|394:86|363:122|316:140|316:140|279:126|262:75,1,237.999992736817,4|0,0:0|0:0,0:0:0:0:
205,161,190484,2,0,L|200:220,1,59.4999981842042,2|2,0:0|0:0,0:0:0:0:
268,285,190873,1,0,0:0:0:0:
268,285,191068,6,0,P|279:246|284:216,1,59.4999981842042,2|0,0:0|0:0,0:0:0:0:
138,309,191458,2,0,P|128:337|123:366,1,59.4999981842042,2|0,0:0|0:0,0:0:0:0:
7,278,191847,1,2,0:0:0:0:
165,213,192042,1,0,0:0:0:0:
44,142,192237,1,2,0:0:0:0:
141,61,192432,1,2,0:0:0:0:
141,61,192529,1,0,0:0:0:0:
141,61,192626,6,0,L|313:73,1,152.999995330811,4|2,0:0|0:0,0:0:0:0:
362,155,193211,1,2,0:0:0:0:
362,155,193308,1,0,0:0:0:0:
362,155,193406,2,0,L|239:174,2,114.749996498108,4|2|2,0:0|0:0|0:0,0:0:0:0:
259,30,194185,5,4,0:0:0:0:
176,340,194477,1,4,0:0:0:0:
473,221,194769,1,4,0:0:0:0:
378,130,194964,6,0,L|312:117,1,42.5,0|0,1:0|0:0,0:0:0:0:
251,57,195159,2,0,L|185:79,1,42.5,2|0,0:0|0:0,0:0:0:0:
160,160,195354,1,2,1:2:0:0:
128,173,195451,1,0,3:0:0:0:
93,170,195549,1,0,1:0:0:0:
64,152,195646,1,0,3:0:0:0:
47,122,195743,6,0,L|32:33,1,85,4|0,0:0|0:0,0:0:0:0:
32,38,196036,1,0,0:0:0:0:
32,38,196133,1,8,0:0:0:0:
170,198,196328,1,2,0:0:0:0:
147,62,196523,1,4,0:0:0:0:
76,243,196717,1,2,0:0:0:0:
76,243,196815,1,0,0:0:0:0:
76,243,196912,1,4,0:0:0:0:
240,176,197107,1,0,0:0:0:0:
307,354,197302,6,0,P|320:297|317:242,1,85,4|2,0:0|0:0,0:0:0:0:
305,227,197594,1,0,0:0:0:0:
305,227,197691,2,0,L|404:215,1,85,8|2,0:0|0:0,0:0:0:0:
239,296,198081,2,0,L|151:280,1,85,4|0,0:0|0:0,0:0:0:0:
44,208,198471,2,0,P|24:151|67:78,1,127.5,8|0,0:0|0:0,0:0:0:0:
86,66,198860,5,4,0:0:0:0:
44,208,199055,1,2,0:0:0:0:
201,135,199250,1,8,0:0:0:0:
4,107,199445,1,2,0:0:0:0:
201,135,199639,2,0,P|247:125|297:119,1,85,4|0,0:0|0:0,0:0:0:0:
310,115,199932,1,2,0:0:0:0:
335,108,200029,1,8,0:0:0:0:
394,205,200224,1,2,0:0:0:0:
459,64,200419,6,0,P|482:100|473:164,1,85,4|0,0:0|0:0,0:0:0:0:
371,318,200808,2,0,L|381:229,1,85,8|2,0:0|0:0,0:0:0:0:
394,205,201101,1,0,0:0:0:0:
394,205,201198,2,0,L|452:195,1,42.5,2|0,0:0|0:0,0:0:0:0:
299,275,201393,2,0,L|240:290,1,42.5,2|0,0:0|0:0,0:0:0:0:
131,234,201588,5,8,0:0:0:0:
120,197,201685,1,0,0:0:0:0:
109,160,201782,1,2,0:0:0:0:
98,122,201880,1,0,0:0:0:0:
88,85,201977,6,0,P|138:40|243:57,1,170,4|4,0:0|0:0,0:0:0:0:
34,154,202562,1,0,0:0:0:0:
204,241,202756,2,0,P|211:199|216:137,1,85,0|2,1:0|0:0,0:0:0:0:
105,196,203146,1,8,0:0:0:0:
162,341,203341,1,2,0:0:0:0:
199,126,203536,6,0,L|92:104,1,85,4|0,0:0|0:0,0:0:0:0:
278,265,203925,2,0,L|385:243,1,85,4|0,0:0|0:0,0:0:0:0:
495,73,204315,2,0,B|438:59|438:59|389:78|389:78|327:61,1,170,4|8,0:0|0:0,0:0:0:0:
448,176,204899,1,2,0:0:0:0:
448,176,204997,1,2,0:0:0:0:
448,176,205094,6,0,P|458:224|462:281,1,85,4|0,0:0|0:0,0:0:0:0:
318,371,205484,2,0,L|327:272,1,85,8|2,0:0|0:0,0:0:0:0:
298,181,205873,1,4,0:0:0:0:
213,257,206068,1,0,0:0:0:0:
213,257,206165,1,0,0:0:0:0:
213,257,206263,1,8,0:0:0:0:
173,100,206458,1,2,0:0:0:0:
128,324,206652,5,4,0:0:0:0:
201,167,206847,1,0,0:0:0:0:
302,238,207042,1,2,1:0:0:0:
196,48,207237,1,0,0:0:0:0:
74,103,207432,5,6,0:0:0:0:
56,133,207529,1,0,0:0:0:0:
51,166,207626,1,2,0:0:0:0:
65,197,207724,1,0,0:0:0:0:
94,216,207821,5,8,0:0:0:0:
102,250,207919,1,0,0:0:0:0:
109,283,208016,1,0,1:0:0:0:
112,318,208114,1,0,0:0:0:0:
128,350,208211,6,0,P|224:353|283:276,1,170,6|6,0:0|0:0,0:0:0:0:
282,283,208990,5,4,0:0:0:0:
202,22,209282,1,4,0:0:0:0:
13,219,209575,1,6,0:0:0:0:
256,192,209672,12,2,210938,0:0:0:0:
