osu file format v14

[General]
AudioFilename: audio.mp3
AudioLeadIn: 1500
PreviewTime: 56945
Countdown: 0
SampleSet: Soft
StackLeniency: 0.7
Mode: 0
LetterboxInBreaks: 0
WidescreenStoryboard: 1

[Editor]
Bookmarks: 947,97562,103795,183276,189510,211322
DistanceSpacing: 0.9
BeatDivisor: 4
GridSize: 32
TimelineZoom: 1.9

[Metadata]
Title:Sono Kami no Dilemma ni
TitleUnicode:その神のジレンマに
Artist:senya
ArtistUnicode:senya
Creator:Satellite
Version:Satellite
Source:東方風神録 ~ Mountain of Faith.
Tags:owc2022ro16dt2 owc 2022 ro16 dt2 pop touhou 10 th10 MoF 厄神様の通り道 ~ Dark Road 鍵山雛 Hina Kagiyama 幽閉サテライト Yuuhei HiZuMi 神奈森ユウ ikuo かませ虎 kamase tora video game japanese ZUN Team Shanghai Alice 東方project dagger-gazel ponpokorin pyrowar56 __Ag
BeatmapID:3851545
BeatmapSetID:1871922

[Difficulty]
HPDrainRate:6
CircleSize:4
OverallDifficulty:8
ApproachRate:8.5
SliderMultiplier:1.6
SliderTickRate:1

[Events]
//Background and Video events
0,0,"BG.jpg",0,0
//Break Periods
2,97762,103045
2,183276,188760
//Storyboard Layer 0 (Background)
//Storyboard Layer 1 (Fail)
//Storyboard Layer 2 (Pass)
//Storyboard Layer 3 (Foreground)
//Storyboard Layer 4 (Overlay)
//Storyboard Sound Samples

[TimingPoints]
947,487.80487804878,4,2,1,50,1,0
5614,389.61038961039,4,2,1,50,1,0
5614,-111.111111111111,4,2,1,60,0,0
8633,-111.111111111111,4,2,1,5,0,0
8730,-111.111111111111,4,2,1,60,0,0
10581,-111.111111111111,4,2,1,5,0,0
10678,-111.111111111111,4,2,1,60,0,0
11847,-83.3333333333333,4,2,1,70,0,1
12626,-83.3333333333333,4,2,1,70,0,1
14964,-111.111111111111,4,2,1,50,0,0
17691,-83.3333333333333,4,2,1,50,0,0
18081,-100,4,2,1,70,0,0
25873,-83.3333333333333,4,2,1,70,0,0
26165,-83.3333333333333,4,2,1,5,0,0
26263,-83.3333333333333,4,2,1,70,0,0
26555,-83.3333333333333,4,2,1,5,0,0
26652,-83.3333333333333,4,2,1,70,0,0
27237,-100,4,2,1,50,0,0
27432,-100,4,2,1,70,0,0
30549,-111.111111111111,4,2,1,50,0,0
36685,-111.111111111111,4,2,1,5,0,0
36782,-111.111111111111,4,2,1,60,0,0
39412,-111.111111111111,4,2,1,5,0,0
39510,-111.111111111111,4,2,1,60,0,0
43016,-100,4,2,1,70,0,0
55484,-100,4,2,1,50,0,0
57042,-100,4,2,1,80,0,1
57432,-100,4,2,1,80,0,0
69510,-100,4,2,1,80,0,1
69899,-100,4,2,1,80,0,0
83341,-200,4,2,1,50,0,0
85094,-100,4,2,1,70,0,0
92886,-83.3333333333333,4,2,1,70,0,0
93178,-83.3333333333333,4,2,1,5,0,0
93276,-83.3333333333333,4,2,1,70,0,0
93568,-83.3333333333333,4,2,1,5,0,0
93665,-83.3333333333333,4,2,1,70,0,0
94250,-100,4,2,1,70,0,0
97562,-100,4,2,1,50,0,0
103795,-111.111111111111,4,2,1,50,0,0
109250,-111.111111111111,4,2,1,70,0,0
109639,-111.111111111111,4,2,1,80,0,0
110029,-142.857142857143,4,2,1,50,0,0
110321,-142.857142857143,4,2,1,5,0,0
110419,-100,4,2,1,70,0,0
122497,-100,4,2,1,50,0,0
124055,-100,4,2,1,80,0,1
124445,-100,4,2,1,80,0,0
136523,-100,4,2,1,80,0,1
136912,-100,4,2,1,80,0,0
150354,-200,4,2,1,50,0,0
152107,-100,4,2,1,80,0,1
163795,-100,4,2,1,80,0,0
164575,-100,4,2,1,80,0,1
170029,-142.857142857143,4,2,1,70,0,0
170321,-142.857142857143,4,2,1,5,0,0
170419,-83.3333333333333,4,2,1,90,0,1
170711,-83.3333333333333,4,2,1,5,0,0
170808,-100,4,2,1,80,0,1
173438,-100,4,2,1,5,0,1
173536,-100,4,2,1,80,0,1
173925,-100,4,2,1,70,0,0
174704,-100,4,2,1,80,0,0
177042,-100,4,2,1,80,0,1
180159,-100,4,2,1,60,0,0
189510,-142.857142857143,4,2,1,50,0,0
192626,-111.111111111111,4,2,1,70,0,0
194185,-111.111111111111,4,2,1,80,0,1
194964,-100,4,2,1,50,0,0
195354,-100,4,2,1,60,0,0
195743,-100,4,2,1,80,0,1
203536,-83.3333333333333,4,2,1,80,0,1
205094,-100,4,2,1,80,0,1
209575,-200,4,2,1,50,0,0
211322,487.80487804878,4,2,1,50,1,0
213251,487.80487804878,4,2,1,50,1,0
215192,487.80487804878,4,2,1,50,1,0
217145,465.116279069767,4,2,1,50,1,0
218100,480,4,2,1,50,1,0
218580,465.116279069767,4,2,1,50,1,0
219075,483.870967741935,4,2,1,50,1,0
222931,540.54054054054,4,2,1,50,1,0
224016,550.45871559633,4,2,1,50,1,0
225111,666.666666666666,4,2,1,50,1,0

[Colours]
Combo1 : 137,50,52
Combo2 : 71,163,113
Combo3 : 104,169,92
Combo4 : 177,67,70

[HitObjects]
36,349,947,5,2,0:0:0:0:
173,288,1190,1,2,0:0:0:0:
86,281,1434,1,0,0:0:0:0:
212,363,1678,1,2,0:0:0:0:
426,281,1922,5,2,0:0:0:0:
300,363,2166,1,2,0:0:0:0:
476,349,2410,1,0,0:0:0:0:
339,288,2654,1,2,0:0:0:0:
212,363,2898,5,2,0:0:0:0:
256,224,3142,1,2,0:0:0:0:
300,363,3386,1,2,0:0:0:0:
173,288,3629,1,2,0:0:0:0:
339,288,3873,1,2,0:0:0:0:
94,296,5614,6,0,P|86:350|80:394,1,71.9999978027344,2|0,0:0|0:0,0:0:0:0:
41,237,6003,1,2,0:0:0:0:
176,338,6198,1,2,0:0:0:0:
176,338,6295,1,0,0:0:0:0:
176,338,6393,2,0,P|233:333|260:331,1,71.9999978027344,2|0,0:0|0:0,0:0:0:0:
345,269,6782,1,2,0:0:0:0:
257,240,6977,1,0,0:0:0:0:
333,361,7172,5,2,0:0:0:0:
434,297,7367,1,2,0:0:0:0:
434,297,7464,1,0,0:0:0:0:
434,297,7562,2,0,P|442:244|445:223,1,71.9999978027344,2|0,0:0|0:0,0:0:0:0:
360,109,7951,2,0,P|365:144|370:180,1,71.9999978027344,2|0,0:0|0:0,0:0:0:0:
479,108,8341,2,0,P|485:64|419:21,1,107.999996704102,2|0,0:0|0:0,0:0:0:0:
398,34,8730,6,0,P|351:30|317:26,1,71.9999978027344,2|0,0:0|0:0,0:0:0:0:
191,126,9120,1,2,0:0:0:0:
133,40,9315,1,0,0:0:0:0:
277,113,9510,2,0,P|268:158|264:187,1,71.9999978027344,2|2,0:0|0:0,0:0:0:0:
247,215,9802,1,0,0:0:0:0:
247,215,9899,2,0,P|200:219|166:223,1,71.9999978027344,2|0,0:0|0:0,0:0:0:0:
89,370,10289,5,2,0:0:0:0:
161,310,10484,1,0,0:0:0:0:
253,340,10678,1,2,0:0:0:0:
273,310,10776,1,0,0:0:0:0:
280,275,10873,1,2,0:0:0:0:
273,240,10971,1,0,0:0:0:0:
247,215,11068,5,2,0:0:0:0:
370,180,11263,1,2,0:0:0:0:
210,65,11458,2,0,P|180:91|180:126,1,71.9999978027344,2|0,0:0|0:0,0:0:0:0:
276,134,11847,6,0,P|221:142|57:190,1,191.999994140625,4|0,0:0|0:0,0:0:0:0:
40,260,12432,1,0,1:0:0:0:
40,260,12529,1,0,0:0:0:0:
40,260,12626,1,4,0:0:0:0:
176,354,12821,5,2,0:0:0:0:
295,248,13016,1,0,0:0:0:0:
133,277,13211,1,2,0:0:0:0:
264,372,13406,6,0,P|267:310|274:269,1,95.9999970703126,4|0,0:0|0:0,0:0:0:0:
214,103,13795,2,0,P|220:150|222:198,1,95.9999970703126,4|0,0:0|0:0,0:0:0:0:
133,277,14185,6,0,B|269:199|257:289|408:211,1,287.999991210938,4|0,0:0|0:0,0:0:0:0:
396,111,14964,6,0,P|313:171|331:272,1,215.999993408203,4|2,0:0|0:0,0:0:0:0:
424,304,15743,5,4,0:0:0:0:
256,192,16328,12,0,17497,0:0:0:0:
204,55,17691,6,0,P|145:74|138:109,1,95.9999970703126,2|0,0:0|0:0,0:0:0:0:
211,202,18081,5,6,0:0:0:0:
227,174,18178,1,0,0:0:0:0:
221,142,18276,1,0,0:0:0:0:
118,195,18471,1,8,0:0:0:0:
170,290,18665,5,2,0:0:0:0:
170,290,18763,2,0,P|225:276|299:267,1,120,2|2,0:0|0:0,0:0:0:0:
388,327,19250,2,0,P|430:342|471:347,1,80,8|0,0:0|0:0,0:0:0:0:
306,352,19639,5,2,0:0:0:0:
401,236,19834,1,0,0:0:0:0:
345,146,20029,2,0,P|338:90|336:58,1,80,8|0,0:0|0:0,0:0:0:0:
401,236,20419,5,0,1:0:0:0:
373,233,20516,1,0,0:0:0:0:
345,231,20614,1,0,1:0:0:0:
317,229,20711,1,0,0:0:0:0:
289,227,20808,2,0,P|225:220|187:215,1,80,8|0,0:0|0:0,0:0:0:0:
73,160,21198,5,0,1:0:0:0:
53,138,21295,1,0,0:0:0:0:
47,111,21393,1,0,1:0:0:0:
53,85,21490,1,0,0:0:0:0:
70,63,21588,1,8,0:0:0:0:
168,102,21782,1,0,1:0:0:0:
223,10,21977,1,0,1:0:0:0:
240,31,22075,1,0,0:0:0:0:
266,42,22172,1,0,1:0:0:0:
293,40,22269,1,0,0:0:0:0:
317,26,22367,2,0,P|370:33|415:39,1,80,8|0,0:0|0:0,0:0:0:0:
464,111,22756,5,4,0:0:0:0:
445,135,22854,1,0,0:0:0:0:
433,162,22951,1,0,0:0:0:0:
427,192,23049,1,0,0:0:0:0:
432,222,23146,1,8,0:0:0:0:
443,249,23243,1,0,0:0:0:0:
453,278,23341,1,0,1:0:0:0:
454,307,23438,1,0,0:0:0:0:
445,337,23536,1,8,0:0:0:0:
424,359,23633,1,0,0:0:0:0:
394,368,23730,1,0,1:0:0:0:
362,365,23828,1,0,0:0:0:0:
336,348,23925,2,0,P|283:353|231:359,1,80,8|0,0:0|0:0,0:0:0:0:
187,212,24315,5,6,0:0:0:0:
171,240,24412,1,0,0:0:0:0:
177,272,24510,1,0,0:0:0:0:
278,238,24704,1,8,0:0:0:0:
241,141,24899,1,2,0:0:0:0:
354,194,25094,6,0,P|401:199|461:209,1,80,0|0,1:0|0:0,0:0:0:0:
273,61,25484,2,0,P|233:65|193:70,1,80,8|0,0:0|0:0,0:0:0:0:
43,158,25873,6,0,P|108:155|160:226,1,143.999995605469,4|0,0:0|0:0,0:0:0:0:
155,255,26263,2,0,B|237:226|217:278|323:251,1,143.999995605469,4|0,0:0|0:0,0:0:0:0:
326,223,26652,2,0,P|351:134|454:130,1,191.999994140625,4|8,0:0|0:0,0:0:0:0:
447,235,27237,5,2,0:0:0:0:
447,235,27334,1,2,0:0:0:0:
447,235,27432,2,0,P|433:285|432:314,1,80,4|0,0:0|0:0,0:0:0:0:
220,322,27821,1,8,0:0:0:0:
302,364,28016,1,0,0:0:0:0:
340,273,28211,5,4,0:0:0:0:
309,147,28406,1,2,0:0:0:0:
309,147,28503,1,4,0:0:0:0:
447,235,28698,1,2,0:0:0:0:
447,235,28795,1,4,0:0:0:0:
242,241,28990,6,0,P|186:231|139:225,1,80,4|0,0:0|0:0,0:0:0:0:
21,158,29380,2,0,P|77:148|124:142,1,80,8|0,0:0|0:0,0:0:0:0:
262,20,29769,5,4,0:0:0:0:
266,51,29867,1,0,0:0:0:0:
270,85,29964,1,0,1:0:0:0:
276,120,30062,1,0,0:0:0:0:
280,151,30159,1,8,0:0:0:0:
284,186,30256,1,0,0:0:0:0:
288,220,30354,1,0,1:0:0:0:
291,254,30451,1,0,0:0:0:0:
293,288,30549,5,6,0:0:0:0:
378,319,30743,1,2,0:0:0:0:
227,384,30938,1,0,1:0:0:0:
314,362,31133,1,2,0:0:0:0:
156,313,31328,2,0,P|149:356|145:393,1,71.9999978027344,0|2,0:0|0:0,0:0:0:0:
59,270,31717,2,0,P|63:305|69:341,1,71.9999978027344,0|2,1:0|0:0,0:0:0:0:
254,303,32107,5,0,1:0:0:0:
254,303,32302,1,2,0:0:0:0:
133,235,32497,2,0,P|168:228|203:220,1,71.9999978027344,0|2,0:0|0:0,0:0:0:0:
370,155,32886,2,0,P|360:205|353:266,2,107.999996704102,2|2|2,0:0|0:0|0:0,0:0:0:0:
293,96,33665,5,0,1:0:0:0:
378,65,33860,1,2,0:0:0:0:
227,0,34055,1,0,1:0:0:0:
314,22,34250,1,2,0:0:0:0:
156,71,34445,2,0,P|149:28|145:-9,1,71.9999978027344,0|2,0:0|0:0,0:0:0:0:
59,114,34834,2,0,P|63:78|69:42,1,71.9999978027344,0|2,1:0|0:0,0:0:0:0:
190,157,35224,5,0,1:0:0:0:
190,157,35419,1,2,0:0:0:0:
342,95,35614,2,0,P|299:102|262:106,1,71.9999978027344,0|2,0:0|0:0,0:0:0:0:
95,210,36003,5,0,1:0:0:0:
65,127,36198,1,2,0:0:0:0:
190,157,36393,2,0,P|179:210|170:271,1,107.999996704102,0|0,1:0|0:0,0:0:0:0:
173,299,36782,5,4,0:0:0:0:
318,254,36977,1,0,0:0:0:0:
318,254,37075,1,0,0:0:0:0:
318,254,37172,1,8,0:0:0:0:
255,316,37367,1,2,0:0:0:0:
340,358,37562,1,0,1:0:0:0:
364,363,37659,1,0,0:0:0:0:
389,364,37756,1,0,1:0:0:0:
414,359,37854,1,0,0:0:0:0:
437,349,37951,1,0,1:0:0:0:
457,334,38049,1,0,0:0:0:0:
474,315,38146,1,0,1:0:0:0:
486,293,38243,1,0,0:0:0:0:
493,269,38341,6,0,P|499:214|499:185,1,71.9999978027344,0|0,1:0|0:0,0:0:0:0:
339,148,38730,1,8,0:0:0:0:
410,233,38925,1,2,0:0:0:0:
507,108,39120,2,0,P|466:104|400:81,1,107.999996704102,0|0,1:0|0:0,0:0:0:0:
380,52,39510,2,0,P|344:57|308:61,1,71.9999978027344,8|0,0:0|0:0,0:0:0:0:
158,120,39899,5,0,1:0:0:0:
207,39,40094,1,2,0:0:0:0:
207,39,40191,1,0,0:0:0:0:
207,39,40289,1,8,0:0:0:0:
75,102,40484,1,2,0:0:0:0:
203,189,40678,2,0,P|261:178|289:177,1,71.9999978027344,0|0,1:0|0:0,0:0:0:0:
299,178,40971,1,0,0:0:0:0:
322,186,41068,1,8,0:0:0:0:
272,267,41263,1,2,0:0:0:0:
407,202,41458,5,4,0:0:0:0:
361,111,41652,1,2,0:0:0:0:
361,111,41750,1,0,0:0:0:0:
361,111,41847,1,8,0:0:0:0:
490,220,42042,1,2,0:0:0:0:
434,286,42237,5,6,1:2:0:0:
411,296,42334,1,0,0:0:0:0:
385,299,42432,1,0,1:0:0:0:
359,297,42529,1,0,0:0:0:0:
335,288,42626,1,2,0:0:0:0:
314,303,42724,1,0,0:0:0:0:
290,312,42821,1,2,0:0:0:0:
264,315,42919,1,0,0:0:0:0:
239,309,43016,6,0,P|246:353|249:390,1,80,4|0,0:0|0:0,0:0:0:0:
165,255,43406,1,8,0:0:0:0:
281,208,43601,1,2,0:0:0:0:
281,208,43698,1,0,0:0:0:0:
281,208,43795,2,0,P|289:141|299:86,2,120,2|2|2,0:0|0:0|0:0,0:0:0:0:
165,255,44575,6,0,P|118:250|60:241,1,80,4|0,0:0|0:0,0:0:0:0:
58,236,44867,1,0,0:0:0:0:
38,215,44964,1,8,0:0:0:0:
190,102,45159,1,2,0:0:0:0:
206,130,45256,1,0,0:0:0:0:
200,162,45354,1,0,1:0:0:0:
108,139,45549,1,2,0:0:0:0:
138,23,45743,2,0,P|186:27|250:30,1,80,8|0,0:0|0:0,0:0:0:0:
343,166,46133,6,0,P|395:156|432:60,1,160,4|8,0:0|0:0,0:0:0:0:
342,0,46717,1,2,0:0:0:0:
342,0,46815,1,0,0:0:0:0:
342,0,46912,2,0,P|347:51|351:108,1,80,0|0,1:0|0:0,0:0:0:0:
260,196,47302,2,0,P|263:156|267:116,1,80,8|0,0:0|0:0,0:0:0:0:
178,234,47691,5,4,0:0:0:0:
343,166,47886,1,2,0:0:0:0:
343,166,47984,1,0,0:0:0:0:
343,166,48081,1,8,0:0:0:0:
305,280,48276,1,2,0:0:0:0:
420,252,48471,5,0,1:0:0:0:
420,252,48568,1,0,0:0:0:0:
420,252,48665,1,0,1:0:0:0:
420,252,48763,1,0,0:0:0:0:
420,252,48860,1,8,0:0:0:0:
446,242,48958,1,0,0:0:0:0:
469,226,49055,1,0,1:0:0:0:
482,201,49152,1,0,0:0:0:0:
485,173,49250,6,0,P|431:164|313:137,1,160,4|8,0:0|0:0,0:0:0:0:
191,47,49834,1,2,0:0:0:0:
191,47,49932,1,0,0:0:0:0:
191,47,50029,2,0,P|197:91|203:143,1,80,0|2,1:0|0:0,0:0:0:0:
204,154,50321,1,0,0:0:0:0:
207,181,50419,1,8,0:0:0:0:
317,137,50614,1,2,0:0:0:0:
108,109,50808,6,0,P|68:141|75:263,1,160,4|8,0:0|0:0,0:0:0:0:
158,341,51393,1,2,0:0:0:0:
158,341,51490,1,0,0:0:0:0:
158,341,51588,2,0,P|214:330|250:326,1,80,0|0,1:0|0:0,0:0:0:0:
264,327,51880,1,0,0:0:0:0:
289,337,51977,1,8,0:0:0:0:
445,256,52172,1,2,0:0:0:0:
374,381,52367,5,0,1:0:0:0:
370,347,52464,1,0,0:0:0:0:
368,313,52562,1,0,1:0:0:0:
365,280,52659,1,0,0:0:0:0:
362,246,52756,1,0,1:0:0:0:
359,212,52854,1,0,0:0:0:0:
357,179,52951,1,0,1:0:0:0:
353,145,53049,1,0,0:0:0:0:
348,110,53146,2,0,L|343:42,1,40,0|0,1:0|0:0,0:0:0:0:
216,60,53341,2,0,L|211:-7,1,40,0|0,1:0|0:0,0:0:0:0:
71,150,53536,5,2,1:2:0:0:
68,199,53633,1,2,0:0:0:0:
99,237,53730,1,2,1:2:0:0:
146,249,53828,1,2,0:0:0:0:
191,233,53925,5,4,1:2:0:0:
217,223,54023,1,0,0:0:0:0:
244,220,54120,1,0,1:0:0:0:
271,222,54217,1,0,0:0:0:0:
294,199,54315,1,0,1:0:0:0:
319,210,54412,1,0,0:0:0:0:
346,213,54510,1,0,1:0:0:0:
373,209,54607,1,0,0:0:0:0:
406,236,54704,5,0,1:0:0:0:
436,216,54802,1,0,3:0:0:0:
447,182,54899,1,0,1:0:0:0:
434,147,54997,1,0,3:0:0:0:
402,130,55094,1,2,1:2:0:0:
366,111,55191,1,2,0:0:0:0:
352,72,55289,1,2,1:2:0:0:
364,35,55386,1,0,0:0:0:0:
397,13,55484,1,2,1:2:0:0:
167,108,57042,6,0,P|285:89|347:77,1,160,4|8,0:0|0:0,0:0:0:0:
106,36,57626,1,2,0:0:0:0:
106,36,57724,1,0,0:0:0:0:
106,36,57821,2,0,P|68:60|64:96,1,80,0|0,1:0|0:0,0:0:0:0:
66,120,58114,1,2,0:0:0:0:
82,142,58211,1,8,0:0:0:0:
167,108,58406,1,2,0:0:0:0:
66,230,58601,6,0,P|57:273|50:320,1,80,4|0,0:0|0:0,0:0:0:0:
190,368,58990,1,8,0:0:0:0:
145,283,59185,1,2,0:0:0:0:
145,283,59282,1,0,0:0:0:0:
145,283,59380,2,0,P|197:277|258:268,1,80,0|0,1:0|0:0,0:0:0:0:
296,358,59769,2,0,P|335:363|375:367,1,80,8|0,0:0|0:0,0:0:0:0:
442,225,60159,5,4,0:0:0:0:
376,289,60354,1,2,0:0:0:0:
512,266,60549,1,8,0:0:0:0:
463,141,60743,5,2,0:0:0:0:
463,141,60841,1,0,0:0:0:0:
463,141,60938,2,0,P|424:132|390:106,1,80,4|0,0:0|0:0,0:0:0:0:
376,85,61230,1,2,0:0:0:0:
372,57,61328,1,8,0:0:0:0:
299,136,61523,1,2,0:0:0:0:
221,13,61717,6,0,B|244:104|189:79|213:169,1,160,4|8,0:0|0:0,0:0:0:0:
291,371,62302,5,2,0:0:0:0:
285,343,62399,1,0,0:0:0:0:
286,315,62497,1,2,0:0:0:0:
296,289,62594,1,0,0:0:0:0:
304,262,62691,1,0,0:0:0:0:
303,235,62789,1,0,0:0:0:0:
293,208,62886,2,0,P|342:203|385:196,1,80,8|2,0:0|0:0,0:0:0:0:
155,327,63276,5,4,0:0:0:0:
202,245,63471,1,2,0:0:0:0:
202,245,63568,1,0,0:0:0:0:
202,245,63665,2,0,P|138:237|27:223,1,160,4|0,0:0|1:0,0:0:0:0:
9,64,64250,5,2,0:0:0:0:
116,111,64445,1,8,0:0:0:0:
143,116,64542,1,0,0:0:0:0:
169,108,64639,1,2,0:0:0:0:
191,90,64737,1,0,0:0:0:0:
203,65,64834,2,0,P|193:113|188:155,1,80,4|0,0:0|0:0,0:0:0:0:
259,370,65224,2,0,P|253:330|245:292,1,80,8|0,0:0|0:0,0:0:0:0:
163,215,65614,5,2,0:0:0:0:
189,222,65711,1,0,0:0:0:0:
216,216,65808,1,2,0:0:0:0:
243,210,65906,1,0,0:0:0:0:
269,217,66003,1,10,0:0:0:0:
418,272,66198,5,2,0:0:0:0:
418,272,66295,1,0,0:0:0:0:
418,272,66393,2,0,P|428:180|445:86,1,160,4|8,0:0|0:0,0:0:0:0:
199,102,66977,1,2,0:0:0:0:
199,102,67075,1,0,0:0:0:0:
199,102,67172,2,0,P|204:156|209:185,1,80,0|2,1:0|0:0,0:0:0:0:
214,208,67464,1,0,0:0:0:0:
225,233,67562,1,8,0:0:0:0:
360,146,67756,1,2,0:0:0:0:
119,85,67951,5,4,0:0:0:0:
278,144,68146,1,2,0:0:0:0:
278,144,68243,1,4,0:0:0:0:
367,67,68438,1,2,0:0:0:0:
367,67,68536,1,4,0:0:0:0:
193,23,68730,5,0,1:0:0:0:
190,51,68828,1,0,0:0:0:0:
204,74,68925,1,0,1:0:0:0:
207,102,69023,1,0,0:0:0:0:
191,124,69120,5,2,1:2:0:0:
188,152,69217,1,0,0:0:0:0:
202,175,69315,1,2,0:0:0:0:
205,203,69412,1,0,0:0:0:0:
198,230,69510,6,0,P|270:219|297:215,1,80,4|0,0:0|0:0,0:0:0:0:
304,210,69802,1,2,0:0:0:0:
329,222,69899,1,8,0:0:0:0:
452,266,70094,1,2,0:0:0:0:
298,318,70289,5,4,0:0:0:0:
410,189,70484,1,2,0:0:0:0:
410,189,70581,1,0,0:0:0:0:
410,189,70678,2,0,P|415:142|418:104,1,80,8|2,0:0|0:0,0:0:0:0:
243,13,71068,6,0,P|246:52|250:92,1,80,4|0,0:0|0:0,0:0:0:0:
253,120,71360,1,0,0:0:0:0:
256,148,71458,1,8,0:0:0:0:
342,68,71652,1,2,0:0:0:0:
166,130,71847,5,0,1:0:0:0:
166,130,71945,1,0,0:0:0:0:
166,130,72042,1,0,1:0:0:0:
166,130,72139,1,0,0:0:0:0:
166,130,72237,2,0,P|98:123|69:119,1,80,8|0,0:0|0:0,0:0:0:0:
70,267,72626,5,4,0:0:0:0:
136,203,72821,1,2,0:0:0:0:
0,226,73016,1,8,0:0:0:0:
205,270,73211,5,2,0:0:0:0:
205,270,73308,1,0,0:0:0:0:
205,270,73406,2,0,P|226:236|231:193,1,80,4|0,0:0|0:0,0:0:0:0:
226,168,73698,1,2,0:0:0:0:
209,146,73795,1,8,0:0:0:0:
136,203,73990,1,2,0:0:0:0:
303,238,74185,6,0,B|393:214|368:269|459:246,1,160,4|8,0:0|0:0,0:0:0:0:
209,146,74769,5,2,0:0:0:0:
181,152,74867,1,0,0:0:0:0:
153,152,74964,1,2,0:0:0:0:
127,141,75062,1,0,0:0:0:0:
100,133,75159,1,0,0:0:0:0:
73,134,75256,1,0,0:0:0:0:
46,144,75354,2,0,P|41:95|34:52,1,80,8|2,0:0|0:0,0:0:0:0:
185,254,75743,5,4,0:0:0:0:
89,223,75938,1,2,0:0:0:0:
89,223,76036,1,0,0:0:0:0:
89,223,76133,2,0,P|80:282|74:317,1,80,4|0,0:0|0:0,0:0:0:0:
71,329,76425,1,0,0:0:0:0:
67,356,76523,1,0,1:0:0:0:
253,310,76717,5,2,0:0:0:0:
167,283,76912,1,8,0:0:0:0:
334,253,77107,5,2,0:0:0:0:
334,253,77204,1,0,0:0:0:0:
334,253,77302,2,0,P|340:200|344:169,1,80,4|0,0:0|0:0,0:0:0:0:
209,121,77691,2,0,P|213:160|218:200,1,80,4|0,0:0|0:0,0:0:0:0:
406,301,78081,1,4,0:0:0:0:
410,261,78178,1,0,0:0:0:0:
415,221,78276,1,0,1:0:0:0:
420,181,78373,1,0,3:0:0:0:
425,142,78471,1,8,0:0:0:0:
366,28,78665,5,2,0:0:0:0:
366,28,78763,1,2,0:0:0:0:
366,28,78860,2,0,P|411:23|468:13,1,80,4|0,0:0|0:0,0:0:0:0:
293,106,79250,1,8,0:0:0:0:
210,0,79445,1,2,0:0:0:0:
210,0,79542,1,0,0:0:0:0:
210,0,79639,2,0,P|203:46|198:91,1,80,2|0,0:0|0:0,0:0:0:0:
196,107,79932,1,0,0:0:0:0:
195,134,80029,1,8,0:0:0:0:
293,106,80224,1,2,0:0:0:0:
114,50,80419,6,0,P|67:57|27:64,1,80,0|0,1:0|0:0,0:0:0:0:
172,224,80808,2,0,P|219:217|259:210,1,80,2|0,1:0|0:0,0:0:0:0:
83,132,81198,5,4,0:0:0:0:
74,161,81295,1,0,0:0:0:0:
73,192,81393,1,0,1:0:0:0:
65,223,81490,1,0,0:0:0:0:
64,252,81588,1,0,1:0:0:0:
56,283,81685,1,0,0:0:0:0:
55,314,81782,1,0,1:0:0:0:
47,344,81880,1,0,0:0:0:0:
47,375,81977,5,6,0:0:0:0:
309,298,82367,1,6,0:0:0:0:
158,263,82756,6,0,L|154:215,1,40,4|0,0:0|0:0,0:0:0:0:
332,123,83049,2,0,L|328:162,1,40,4|0,0:0|0:0,0:0:0:0:
258,358,83341,6,0,P|245:199|235:67,1,280,4|4,0:0|0:0,0:0:0:0:
426,202,85094,6,0,P|416:260|409:304,1,80,4|0,0:0|0:0,0:0:0:0:
170,226,85484,2,0,P|166:186|163:146,1,80,8|0,0:0|0:0,0:0:0:0:
334,32,85873,1,0,1:0:0:0:
332,59,85971,1,0,0:0:0:0:
329,87,86068,1,0,1:0:0:0:
326,115,86165,1,0,0:0:0:0:
324,143,86263,1,8,0:0:0:0:
254,253,86458,5,0,1:0:0:0:
254,253,86555,1,0,0:0:0:0:
254,253,86652,2,0,P|310:245|341:241,1,80,4|0,0:0|0:0,0:0:0:0:
213,173,87042,1,8,0:0:0:0:
167,296,87237,1,2,0:0:0:0:
88,239,87432,5,4,0:0:0:0:
80,212,87529,1,0,0:0:0:0:
79,184,87626,1,0,1:0:0:0:
72,156,87724,1,0,0:0:0:0:
71,129,87821,1,0,1:0:0:0:
64,101,87919,1,0,0:0:0:0:
63,73,88016,1,0,1:0:0:0:
56,46,88114,1,0,0:0:0:0:
56,17,88211,5,0,1:0:0:0:
146,101,88406,1,0,0:0:0:0:
217,0,88601,1,8,0:0:0:0:
287,74,88795,5,2,0:0:0:0:
287,74,88893,1,0,0:0:0:0:
287,74,88990,2,0,P|339:79|378:82,1,80,0|0,1:0|0:0,0:0:0:0:
171,185,89380,2,0,P|119:190|80:193,1,80,8|0,0:0|0:0,0:0:0:0:
226,334,89769,6,0,B|280:322|280:322|322:338|322:338|380:324,1,160,0|8,1:0|0:0,0:0:0:0:
482,220,90354,1,2,0:0:0:0:
457,233,90451,1,0,0:0:0:0:
430,239,90549,1,0,1:0:0:0:
402,237,90646,1,0,0:0:0:0:
375,228,90743,1,0,1:0:0:0:
352,213,90841,1,0,0:0:0:0:
334,191,90938,2,0,P|325:131|322:99,1,80,8|2,0:0|0:0,0:0:0:0:
316,84,91230,1,0,0:0:0:0:
318,55,91328,5,4,0:0:0:0:
219,174,91523,1,2,0:0:0:0:
156,20,91717,1,8,0:0:0:0:
222,185,91912,1,2,0:0:0:0:
237,97,92107,5,0,1:0:0:0:
205,90,92204,1,0,0:0:0:0:
174,101,92302,1,2,0:0:0:0:
142,104,92399,1,0,0:0:0:0:
110,95,92497,1,8,0:0:0:0:
20,239,92691,5,2,0:0:0:0:
20,239,92789,1,2,0:0:0:0:
20,239,92886,2,0,P|85:236|137:307,1,143.999995605469,4|0,0:0|0:0,0:0:0:0:
134,339,93276,2,0,B|216:310|196:362|302:335,1,143.999995605469,4|0,0:0|0:0,0:0:0:0:
305,303,93665,2,0,P|354:203|439:252,1,191.999994140625,4|4,0:0|0:0,0:0:0:0:
486,320,94250,5,2,0:0:0:0:
486,320,94347,1,0,0:0:0:0:
486,320,94445,2,0,P|446:314|406:310,1,80,4|0,0:0|0:0,0:0:0:0:
129,228,94834,2,0,P|100:264|110:307,1,80,8|0,0:0|0:0,0:0:0:0:
114,321,95126,1,0,0:0:0:0:
134,339,95224,5,6,0:0:0:0:
319,262,95419,1,2,0:0:0:0:
319,262,95516,1,4,0:0:0:0:
201,278,95711,1,2,0:0:0:0:
201,278,95808,1,4,0:0:0:0:
407,310,96003,5,4,0:0:0:0:
422,277,96101,1,0,0:0:0:0:
421,241,96198,1,0,3:0:0:0:
408,207,96295,1,0,0:0:0:0:
384,179,96393,1,0,1:2:0:0:
352,161,96490,1,0,0:0:0:0:
315,157,96588,1,2,3:2:0:0:
280,164,96685,1,2,0:0:0:0:
251,185,96782,1,2,1:2:0:0:
222,206,96880,1,0,0:0:0:0:
187,213,96977,1,2,3:2:0:0:
150,209,97075,1,2,0:0:0:0:
118,191,97172,1,0,1:2:0:0:
94,163,97269,1,2,0:0:0:0:
81,129,97367,1,2,3:2:0:0:
80,93,97464,1,2,0:0:0:0:
95,60,97562,1,4,0:0:0:0:
121,346,103795,5,6,1:2:0:0:
121,346,104185,1,0,0:0:0:0:
190,184,104380,1,0,1:0:0:0:
57,288,104575,6,0,B|77:269|77:269|137:258|137:258|165:271|165:271|234:262|234:262|254:244,1,215.999993408203,2|0,1:3|0:0,0:0:0:0:
107,143,105354,5,2,0:0:0:0:
107,143,105549,1,0,0:0:0:0:
190,184,105743,2,0,P|193:148|196:112,1,71.9999978027344,2|0,0:0|0:0,0:0:0:0:
275,39,106133,2,0,P|281:92|288:146,2,107.999996704102,2|2|0,1:3|0:0|1:0,0:0:0:0:
369,187,106912,5,2,0:0:0:0:
448,171,107691,6,0,P|404:261|306:238,1,215.999993408203,2|2,1:3|0:0,0:0:0:0:
328,353,108471,5,2,3:0:0:0:
369,187,108665,1,0,1:0:0:0:
369,187,109055,1,8,0:0:0:0:
159,237,109250,5,0,1:0:0:0:
165,268,109347,1,0,0:0:0:0:
171,299,109445,1,8,0:0:0:0:
282,150,109639,5,8,0:0:0:0:
288,111,109737,1,0,0:0:0:0:
294,73,109834,1,8,0:0:0:0:
89,27,110029,6,0,P|55:46|57:99,1,83.9999974365235,2|0,0:0|0:0,0:0:0:0:
72,120,110419,6,0,P|124:104|171:93,1,80,4|0,0:0|0:0,0:0:0:0:
176,97,110711,1,0,0:0:0:0:
202,105,110808,1,0,1:0:0:0:
152,195,111003,1,2,0:0:0:0:
152,195,111101,1,0,0:0:0:0:
152,195,111198,1,8,0:0:0:0:
248,270,111393,1,2,0:0:0:0:
202,362,111588,5,0,1:0:0:0:
229,358,111685,1,0,0:0:0:0:
256,354,111782,1,0,1:0:0:0:
283,350,111880,1,0,0:0:0:0:
310,346,111977,1,8,0:0:0:0:
436,376,112172,1,2,0:0:0:0:
436,376,112269,1,0,0:0:0:0:
436,376,112367,2,0,P|443:329|450:282,1,80,0|0,1:0|0:0,0:0:0:0:
349,188,112756,2,0,P|356:239|364:289,1,80,8|0,0:0|0:0,0:0:0:0:
481,102,113146,6,0,P|415:98|323:71,1,160,0|8,1:0|0:0,0:0:0:0:
255,146,113730,1,2,0:0:0:0:
255,146,113828,1,0,0:0:0:0:
255,146,113925,1,0,1:0:0:0:
159,11,114120,1,2,0:0:0:0:
159,11,114217,1,0,0:0:0:0:
159,11,114315,2,0,P|152:58|148:94,1,80,8|0,0:0|0:0,0:0:0:0:
56,234,114704,6,0,P|76:199|111:183,1,80,4|0,0:0|0:0,0:0:0:0:
139,181,114997,1,2,0:0:0:0:
163,193,115094,1,8,0:0:0:0:
235,268,115289,1,2,0:0:0:0:
297,140,115484,1,0,1:0:0:0:
297,140,115581,1,0,0:0:0:0:
297,140,115678,1,0,1:0:0:0:
297,140,115776,1,0,0:0:0:0:
297,140,115873,1,8,0:0:0:0:
324,144,115971,1,0,0:0:0:0:
347,158,116068,1,0,1:0:0:0:
365,179,116165,1,0,0:0:0:0:
374,205,116263,6,0,P|381:102|388:35,1,160,4|8,0:0|0:0,0:0:0:0:
284,233,116847,1,2,0:0:0:0:
284,233,116945,1,0,0:0:0:0:
284,233,117042,2,0,P|288:291|289:337,1,80,0|2,1:0|0:0,0:0:0:0:
290,340,117334,1,0,0:0:0:0:
291,368,117432,1,8,0:0:0:0:
387,296,117626,1,2,0:0:0:0:
190,349,117821,6,0,P|147:356|66:276,1,160,4|8,0:0|0:0,0:0:0:0:
121,120,118406,1,2,0:0:0:0:
121,120,118503,1,0,0:0:0:0:
121,120,118601,2,0,P|189:127|214:131,1,80,4|2,0:0|0:0,0:0:0:0:
227,134,118893,1,0,0:0:0:0:
253,143,118990,1,8,0:0:0:0:
319,234,119185,1,2,0:0:0:0:
408,83,119380,5,4,0:0:0:0:
393,112,119477,1,0,0:0:0:0:
393,146,119575,1,0,0:0:0:0:
406,176,119672,1,0,0:0:0:0:
430,198,119769,1,8,0:0:0:0:
456,221,119867,1,0,0:0:0:0:
469,250,119964,1,0,0:0:0:0:
469,284,120062,1,0,0:0:0:0:
456,315,120159,2,0,L|451:372,1,40,0|0,1:0|0:0,0:0:0:0:
325,271,120354,2,0,L|321:231,1,40,0|0,1:0|0:0,0:0:0:0:
354,363,120549,5,2,1:2:0:0:
305,358,120646,1,2,0:0:0:0:
257,353,120743,1,2,1:2:0:0:
209,349,120841,1,2,0:0:0:0:
166,371,120938,5,4,1:2:0:0:
160,345,121036,1,0,0:0:0:0:
155,317,121133,1,0,1:0:0:0:
150,290,121230,1,0,0:0:0:0:
132,268,121328,1,0,1:0:0:0:
158,262,121425,1,0,0:0:0:0:
186,257,121523,1,0,1:0:0:0:
213,252,121620,1,0,0:0:0:0:
248,269,121717,5,0,1:0:0:0:
279,250,121815,1,0,0:0:0:0:
291,217,121912,1,0,1:0:0:0:
280,181,122010,1,0,0:0:0:0:
249,162,122107,1,2,1:2:0:0:
211,140,122204,1,2,0:0:0:0:
198,97,122302,1,2,1:2:0:0:
214,57,122399,1,2,0:0:0:0:
251,34,122497,1,6,0:0:0:0:
307,200,124055,6,0,P|292:121|283:41,1,160,4|8,0:0|0:0,0:0:0:0:
460,67,124639,1,2,0:0:0:0:
460,67,124737,1,0,0:0:0:0:
460,67,124834,2,0,P|473:104|457:141,1,80,0|0,1:0|0:0,0:0:0:0:
436,158,125126,1,2,0:0:0:0:
408,161,125224,1,8,0:0:0:0:
341,96,125419,1,2,0:0:0:0:
416,246,125614,6,0,P|455:238|499:231,1,80,0|0,1:0|0:0,0:0:0:0:
381,336,126003,1,8,0:0:0:0:
307,200,126198,1,2,0:0:0:0:
307,200,126295,1,0,0:0:0:0:
307,200,126393,2,0,P|300:260|297:296,1,80,0|0,1:0|0:0,0:0:0:0:
201,346,126782,2,0,P|197:306|192:266,1,80,8|0,0:0|0:0,0:0:0:0:
87,159,127172,5,4,0:0:0:0:
36,250,127367,1,2,0:0:0:0:
173,174,127562,1,8,0:0:0:0:
23,89,127756,5,2,0:0:0:0:
23,89,127854,1,0,0:0:0:0:
23,89,127951,2,0,P|68:79|106:58,1,80,0|0,1:0|0:0,0:0:0:0:
120,46,128243,1,2,0:0:0:0:
134,21,128341,1,8,0:0:0:0:
207,85,128536,1,2,0:0:0:0:
324,0,128730,6,0,P|312:42|306:106,1,80,4|0,0:0|0:0,0:0:0:0:
304,106,129023,1,0,0:0:0:0:
312,132,129120,1,8,0:0:0:0:
209,205,129315,1,2,0:0:0:0:
209,205,129412,1,0,0:0:0:0:
209,205,129510,1,0,1:0:0:0:
222,229,129607,1,0,0:0:0:0:
230,255,129704,1,2,0:0:0:0:
227,283,129802,1,0,0:0:0:0:
218,309,129899,2,0,P|175:317|131:324,1,80,8|0,0:0|0:0,0:0:0:0:
401,265,130289,5,4,0:0:0:0:
304,380,130484,1,2,0:0:0:0:
304,380,130581,1,0,0:0:0:0:
304,380,130678,2,0,P|310:297|323:206,1,160,4|0,0:0|1:0,0:0:0:0:
395,51,131263,5,2,0:0:0:0:
453,149,131458,1,8,0:0:0:0:
425,144,131555,1,0,0:0:0:0:
397,141,131652,1,2,0:0:0:0:
368,137,131750,1,0,0:0:0:0:
340,135,131847,2,0,P|274:127|243:122,1,80,4|0,0:0|0:0,0:0:0:0:
33,203,132237,2,0,P|72:198|112:192,1,80,8|0,0:0|0:0,0:0:0:0:
182,108,132626,5,2,1:2:0:0:
175,135,132724,1,0,0:0:0:0:
187,159,132821,1,2,1:2:0:0:
199,184,132919,1,0,0:0:0:0:
192,211,133016,1,8,0:0:0:0:
91,346,133211,5,2,0:0:0:0:
91,346,133308,1,0,0:0:0:0:
91,346,133406,2,0,P|187:328|270:320,1,160,4|8,0:0|0:0,0:0:0:0:
417,268,133990,1,2,0:0:0:0:
417,268,134088,1,0,0:0:0:0:
417,268,134185,2,0,P|453:227|437:186,1,80,0|0,1:0|0:0,0:0:0:0:
443,178,134477,1,0,0:0:0:0:
420,160,134575,1,8,0:0:0:0:
326,222,134769,1,2,0:0:0:0:
352,42,134964,5,4,0:0:0:0:
229,157,135159,1,2,0:0:0:0:
229,157,135256,1,4,0:0:0:0:
77,96,135451,1,2,0:0:0:0:
77,96,135549,1,4,0:0:0:0:
172,6,135743,5,0,1:0:0:0:
161,33,135841,1,0,0:0:0:0:
164,61,135938,1,0,1:0:0:0:
154,89,136036,1,0,0:0:0:0:
157,117,136133,5,8,0:0:0:0:
147,144,136230,1,0,1:0:0:0:
149,172,136328,1,0,1:0:0:0:
139,200,136425,1,0,3:0:0:0:
142,228,136523,6,0,P|136:271|131:328,1,80,4|0,0:0|0:0,0:0:0:0:
131,335,136815,1,2,0:0:0:0:
132,362,136912,1,8,0:0:0:0:
226,291,137107,1,2,0:0:0:0:
47,327,137302,5,4,0:0:0:0:
222,375,137497,1,2,0:0:0:0:
222,375,137594,1,0,0:0:0:0:
222,375,137691,2,0,P|283:364|311:360,1,80,8|0,0:0|0:0,0:0:0:0:
456,295,138081,5,4,0:0:0:0:
331,255,138276,1,2,0:0:0:0:
331,255,138373,1,0,0:0:0:0:
331,255,138471,1,8,0:0:0:0:
399,360,138665,1,2,0:0:0:0:
498,216,138860,5,0,1:0:0:0:
498,216,138958,1,0,0:0:0:0:
498,216,139055,1,0,1:0:0:0:
498,216,139152,1,0,0:0:0:0:
498,216,139250,2,0,P|483:152|477:117,1,80,8|0,0:0|0:0,0:0:0:0:
275,193,139639,5,0,1:0:0:0:
404,203,139834,1,2,0:0:0:0:
244,277,140029,1,8,0:0:0:0:
173,134,140224,5,2,0:0:0:0:
173,134,140321,1,0,0:0:0:0:
173,134,140419,2,0,P|167:186|163:215,1,80,4|0,0:0|0:0,0:0:0:0:
160,241,140711,1,2,0:0:0:0:
157,268,140808,1,8,0:0:0:0:
56,246,141003,1,2,0:0:0:0:
133,354,141198,6,0,P|175:342|239:336,1,80,4|0,0:0|0:0,0:0:0:0:
239,334,141490,1,0,0:0:0:0:
265,342,141588,1,8,0:0:0:0:
338,239,141782,1,2,0:0:0:0:
338,239,141880,1,0,0:0:0:0:
338,239,141977,1,0,1:0:0:0:
362,251,142075,1,0,0:0:0:0:
388,260,142172,1,2,0:0:0:0:
416,257,142269,1,0,0:0:0:0:
442,248,142367,2,0,P|450:205|457:161,1,80,8|0,0:0|0:0,0:0:0:0:
290,76,142756,5,4,0:0:0:0:
367,157,142951,1,2,0:0:0:0:
367,157,143049,1,0,0:0:0:0:
367,157,143146,2,0,P|376:98|382:63,1,80,4|0,0:0|0:0,0:0:0:0:
385,51,143438,1,0,0:0:0:0:
389,24,143536,1,0,1:0:0:0:
283,80,143730,5,2,0:0:0:0:
453,161,143925,1,8,0:0:0:0:
261,180,144120,5,2,0:0:0:0:
261,180,144217,1,0,0:0:0:0:
261,180,144315,2,0,P|217:174|168:166,1,80,4|0,0:0|0:0,0:0:0:0:
135,309,144704,2,0,P|179:303|228:295,1,80,4|0,0:0|0:0,0:0:0:0:
319,110,145094,1,4,0:0:0:0:
279,102,145191,1,0,0:0:0:0:
240,95,145289,1,0,1:0:0:0:
200,89,145386,1,0,3:0:0:0:
161,83,145484,1,8,0:0:0:0:
39,223,145678,5,2,0:0:0:0:
39,223,145776,1,2,0:0:0:0:
39,223,145873,2,0,P|46:271|51:308,1,80,4|0,0:0|0:0,0:0:0:0:
191,177,146263,1,8,0:0:0:0:
144,271,146458,5,2,0:0:0:0:
144,271,146555,1,0,0:0:0:0:
144,271,146652,2,0,P|192:264|229:259,1,80,0|0,1:0|0:0,0:0:0:0:
251,255,146945,1,2,0:0:0:0:
277,264,147042,1,8,0:0:0:0:
234,354,147237,1,2,0:0:0:0:
377,302,147432,6,0,P|383:246|389:213,1,80,4|0,0:0|0:0,0:0:0:0:
254,47,147821,2,0,P|248:103|242:136,1,80,2|0,1:0|0:0,0:0:0:0:
64,251,148211,5,4,0:0:0:0:
94,242,148308,1,0,0:0:0:0:
122,239,148406,1,0,1:0:0:0:
153,230,148503,1,0,0:0:0:0:
183,228,148601,1,0,1:0:0:0:
215,220,148698,1,0,0:0:0:0:
246,217,148795,1,0,1:0:0:0:
273,209,148893,1,0,0:0:0:0:
305,207,148990,5,6,0:0:0:0:
234,354,149380,1,6,0:0:0:0:
139,144,149769,6,0,L|143:105,1,40,4|0,0:0|0:0,0:0:0:0:
337,282,150062,2,0,L|341:321,1,40,4|0,0:0|0:0,0:0:0:0:
128,260,150354,6,0,P|266:241|405:223,1,280,4|4,0:0|0:0,0:0:0:0:
470,154,151912,5,2,0:0:0:0:
359,69,152107,5,4,0:0:0:0:
359,69,152204,1,0,0:0:0:0:
359,69,152302,1,2,0:0:0:0:
324,199,152497,1,8,0:0:0:0:
239,135,152691,5,2,0:0:0:0:
239,135,152789,1,2,0:0:0:0:
239,135,152886,2,0,P|188:130|157:125,1,80,0|0,1:0|0:0,0:0:0:0:
59,201,153276,1,8,0:0:0:0:
86,192,153373,1,0,0:0:0:0:
113,197,153471,1,2,0:0:0:0:
134,214,153568,1,0,0:0:0:0:
142,240,153665,6,0,P|134:280|133:320,1,80,4|2,0:0|0:0,0:0:0:0:
216,379,154055,1,8,0:0:0:0:
260,216,154250,1,2,0:0:0:0:
260,216,154347,1,0,0:0:0:0:
260,216,154445,2,0,P|252:176|251:136,1,80,0|2,1:0|0:0,0:0:0:0:
457,211,154834,1,8,0:0:0:0:
465,238,154932,1,0,0:0:0:0:
461,265,155029,1,2,0:0:0:0:
444,286,155126,1,0,0:0:0:0:
417,294,155224,6,0,P|377:286|337:285,1,80,4|2,0:0|0:0,0:0:0:0:
310,293,155516,1,0,0:0:0:0:
294,316,155614,1,8,0:0:0:0:
215,202,155808,1,2,0:0:0:0:
215,202,155906,1,0,0:0:0:0:
215,202,156003,2,0,P|175:210|135:211,1,80,4|2,0:0|0:0,0:0:0:0:
108,205,156295,1,0,0:0:0:0:
87,186,156393,1,8,0:0:0:0:
37,273,156588,1,2,0:0:0:0:
160,109,156782,5,4,0:0:0:0:
0,196,156977,1,2,0:0:0:0:
0,196,157075,1,0,0:0:0:0:
0,196,157172,1,8,0:0:0:0:
167,117,157367,1,2,0:0:0:0:
95,23,157562,5,2,0:0:0:0:
124,7,157659,1,0,0:0:0:0:
156,1,157756,1,2,0:0:0:0:
190,5,157854,1,0,0:0:0:0:
221,15,157951,1,8,0:0:0:0:
252,26,158049,1,0,0:0:0:0:
285,30,158146,1,2,0:0:0:0:
317,24,158243,1,0,0:0:0:0:
347,8,158341,6,0,P|342:65|338:121,1,80,4|0,0:0|0:0,0:0:0:0:
274,381,158730,2,0,P|270:333|265:285,1,80,4|0,0:0|0:0,0:0:0:0:
420,163,159120,5,0,1:0:0:0:
396,186,159217,1,0,0:0:0:0:
366,200,159315,1,0,0:0:0:0:
333,204,159412,1,0,0:0:0:0:
301,194,159510,1,8,0:0:0:0:
270,185,159607,1,0,0:0:0:0:
236,188,159704,1,2,0:0:0:0:
207,202,159802,1,0,0:0:0:0:
184,226,159899,5,2,1:0:0:0:
274,381,160094,1,2,0:0:0:0:
301,194,160289,1,2,1:0:0:0:
106,150,160484,5,2,0:0:0:0:
106,150,160581,1,0,0:0:0:0:
106,150,160678,1,2,1:0:0:0:
266,290,160873,1,2,1:0:0:0:
301,281,160971,1,0,0:0:0:0:
338,282,161068,1,2,1:0:0:0:
375,274,161165,1,0,0:0:0:0:
412,274,161263,1,2,1:0:0:0:
447,266,161360,1,0,0:0:0:0:
484,272,161458,6,0,P|489:220|494:169,1,80,4|0,0:0|0:0,0:0:0:0:
494,164,161750,1,0,0:0:0:0:
497,136,161847,1,8,0:0:0:0:
330,207,162042,1,2,1:0:0:0:
235,38,162237,6,0,P|240:90|245:141,1,80,4|0,0:0|0:0,0:0:0:0:
245,146,162529,1,0,0:0:0:0:
248,174,162626,1,8,0:0:0:0:
415,103,162821,1,2,1:0:0:0:
153,100,163016,5,4,0:0:0:0:
330,128,163211,1,2,0:0:0:0:
330,128,163308,1,4,0:0:0:0:
167,184,163503,1,2,0:0:0:0:
167,184,163601,1,4,0:0:0:0:
34,55,163795,5,0,1:0:0:0:
34,55,163893,1,0,1:0:0:0:
34,55,163990,5,2,1:0:0:0:
37,85,164088,1,0,0:0:0:0:
21,110,164185,5,2,1:0:0:0:
19,141,164282,1,0,0:0:0:0:
36,165,164380,5,2,1:0:0:0:
39,196,164477,1,0,0:0:0:0:
28,218,164575,6,0,P|119:228|212:244,1,160,4|8,0:0|0:0,0:0:0:0:
484,166,165159,1,2,1:0:0:0:
484,166,165256,1,0,0:0:0:0:
484,166,165354,2,0,P|393:156|300:140,1,160,4|8,0:0|0:0,0:0:0:0:
206,27,165938,5,2,1:0:0:0:
206,27,166036,1,0,0:0:0:0:
206,27,166133,1,4,0:0:0:0:
243,172,166328,1,2,1:0:0:0:
243,172,166425,1,0,0:0:0:0:
243,172,166523,1,4,0:0:0:0:
375,65,166717,1,2,0:0:0:0:
282,86,166912,5,4,0:0:0:0:
279,115,167010,1,0,0:0:0:0:
277,146,167107,1,0,0:0:0:0:
276,177,167204,1,0,0:0:0:0:
274,208,167302,1,8,0:0:0:0:
273,238,167399,1,0,0:0:0:0:
271,269,167497,1,0,1:0:0:0:
269,300,167594,1,0,0:0:0:0:
267,331,167691,5,2,1:0:0:0:
182,302,167886,1,2,1:0:0:0:
182,302,167984,1,0,0:0:0:0:
182,302,168081,1,8,0:0:0:0:
360,233,168276,1,2,1:0:0:0:
193,198,168471,5,2,1:0:0:0:
278,169,168665,1,0,0:0:0:0:
278,169,168763,1,2,1:0:0:0:
278,169,168860,1,8,0:0:0:0:
103,122,169055,1,2,1:0:0:0:
210,12,169250,6,0,P|258:26|293:33,1,80,4|0,0:0|0:0,0:0:0:0:
314,39,169542,1,0,0:0:0:0:
341,32,169639,2,0,P|365:62|367:108,1,80,8|0,0:0|0:0,0:0:0:0:
252,286,170029,6,0,B|248:271|248:271|253:251|253:251|244:234|251:200,1,83.9999974365235,6|0,0:0|0:0,0:0:0:0:
278,169,170419,6,0,B|241:185|205:178|205:178|180:197|127:195,1,143.999995605469,6|0,1:2|0:0,0:0:0:0:
89,191,170808,5,4,0:0:0:0:
230,97,171003,1,2,0:0:0:0:
176,305,171198,1,2,1:0:0:0:
176,305,171295,2,0,P|212:288|252:286,1,80,0|0,3:0|3:0,0:0:0:0:
290,301,171588,1,2,1:0:0:0:
415,224,171782,1,0,0:0:0:0:
415,224,171880,1,2,1:0:0:0:
325,78,172075,5,2,1:0:0:0:
312,81,172172,1,0,0:0:0:0:
299,85,172269,1,2,1:0:0:0:
288,89,172367,2,0,P|282:129|277:169,1,80,4|0,0:0|0:0,0:0:0:0:
277,197,172659,1,0,0:0:0:0:
280,224,172756,1,4,0:0:0:0:
364,158,172951,5,2,0:0:0:0:
364,158,173049,1,2,0:0:0:0:
364,158,173146,2,0,P|287:143|214:134,1,120,4|0,0:0|0:0,0:0:0:0:
211,113,173536,2,0,P|169:126|135:142,1,80,8|0,0:0|0:0,0:0:0:0:
205,380,173925,5,6,1:0:0:0:
209,360,174023,1,0,0:0:0:0:
214,340,174120,1,0,0:0:0:0:
219,320,174217,1,0,0:0:0:0:
241,302,174315,1,0,1:0:0:0:
236,278,174412,1,0,0:0:0:0:
230,253,174510,1,2,1:0:0:0:
224,229,174607,1,0,0:0:0:0:
202,200,174704,5,4,0:0:0:0:
233,175,174802,1,0,0:0:0:0:
271,167,174899,1,2,1:0:0:0:
310,170,174997,1,0,0:0:0:0:
347,184,175094,1,0,1:0:0:0:
383,198,175191,1,0,0:0:0:0:
423,202,175289,1,2,1:0:0:0:
460,193,175386,1,0,0:0:0:0:
492,169,175484,6,0,P|498:116|500:87,1,80,4|2,0:0|0:0,0:0:0:0:
498,61,175776,1,0,0:0:0:0:
493,33,175873,1,8,0:0:0:0:
367,114,176068,1,2,1:0:0:0:
367,114,176165,1,0,0:0:0:0:
367,114,176263,1,0,1:0:0:0:
274,56,176458,1,2,0:0:0:0:
146,120,176652,1,2,1:0:0:0:
118,118,176750,1,0,0:0:0:0:
92,107,176847,1,0,0:0:0:0:
73,87,176945,1,0,0:0:0:0:
64,61,177042,5,4,0:0:0:0:
176,22,177237,1,2,0:0:0:0:
176,22,177334,1,2,1:0:0:0:
29,153,177529,1,2,0:0:0:0:
29,153,177626,1,2,1:0:0:0:
250,176,177821,5,2,1:0:0:0:
146,120,178016,1,2,0:0:0:0:
146,120,178114,1,2,1:0:0:0:
146,120,178211,2,0,P|139:183|136:212,1,80,0|2,3:0|1:0,0:0:0:0:
252,355,178601,5,4,0:0:0:0:
400,283,178795,1,2,0:0:0:0:
400,283,178893,1,2,1:0:0:0:
205,244,179088,1,2,0:0:0:0:
205,244,179185,1,2,1:0:0:0:
374,99,179380,5,2,1:0:0:0:
392,120,179477,1,2,0:0:0:0:
402,146,179575,1,0,0:0:0:0:
402,173,179672,1,2,1:0:0:0:
307,279,179867,1,2,0:0:0:0:
297,253,179964,1,2,1:0:0:0:
489,227,180159,5,6,0:0:0:0:
256,192,180256,12,2,181717,0:0:0:0:
148,380,189510,6,0,P|230:364|378:339,1,223.999993164063,4|0,0:0|0:0,0:0:0:0:
426,257,190484,5,2,0:0:0:0:
336,193,190678,2,0,L|333:254,1,55.9999982910157,2|0,0:0|0:0,0:0:0:0:
493,162,191068,6,0,P|457:158|418:152,1,55.9999982910157,2|0,0:0|0:0,0:0:0:0:
351,101,191458,2,0,P|315:105|276:111,1,55.9999982910157,2|0,0:0|0:0,0:0:0:0:
225,180,191847,1,2,0:0:0:0:
63,63,192237,1,2,0:0:0:0:
150,13,192432,5,2,0:0:0:0:
150,13,192529,1,0,0:0:0:0:
150,13,192626,2,0,L|137:167,1,143.999995605469,4|2,0:0|0:0,0:0:0:0:
303,250,193211,5,2,0:0:0:0:
303,250,193308,1,0,0:0:0:0:
303,250,193406,1,4,0:0:0:0:
420,215,193698,1,2,0:0:0:0:
254,121,193990,1,2,0:0:0:0:
441,135,194185,5,4,0:0:0:0:
322,171,194380,1,2,0:0:0:0:
322,171,194477,1,4,0:0:0:0:
288,46,194672,1,2,0:0:0:0:
288,46,194769,1,4,0:0:0:0:
231,205,194964,5,0,1:0:0:0:
363,92,195159,1,2,0:0:0:0:
208,0,195354,5,2,1:2:0:0:
180,1,195451,1,0,3:0:0:0:
155,14,195549,1,0,1:0:0:0:
138,36,195646,1,0,3:0:0:0:
132,63,195743,2,0,P|138:117|144:173,1,80,4|0,0:0|0:0,0:0:0:0:
147,170,196036,1,0,0:0:0:0:
152,197,196133,1,8,0:0:0:0:
254,121,196328,1,2,0:0:0:0:
67,207,196523,5,4,0:0:0:0:
232,251,196717,1,2,0:0:0:0:
232,251,196815,1,0,0:0:0:0:
232,251,196912,2,0,P|285:239|323:233,1,80,4|0,0:0|0:0,0:0:0:0:
338,234,197204,1,0,0:0:0:0:
362,248,197302,1,4,0:0:0:0:
454,177,197497,1,2,0:0:0:0:
454,177,197594,1,0,0:0:0:0:
454,177,197691,1,8,0:0:0:0:
340,128,197886,1,2,0:0:0:0:
475,68,198081,5,4,0:0:0:0:
447,65,198178,1,0,0:0:0:0:
419,58,198276,1,0,0:0:0:0:
393,46,198373,1,0,0:0:0:0:
368,31,198471,2,0,P|318:46|288:55,1,80,8|0,0:0|0:0,0:0:0:0:
155,163,198860,5,4,0:0:0:0:
110,79,199055,1,2,0:0:0:0:
264,172,199250,1,8,0:0:0:0:
109,270,199445,5,2,0:0:0:0:
109,270,199542,1,0,0:0:0:0:
109,270,199639,2,0,P|63:258|42:225,1,80,4|0,0:0|0:0,0:0:0:0:
34,206,199932,1,2,0:0:0:0:
39,178,200029,1,8,0:0:0:0:
195,235,200224,1,2,0:0:0:0:
272,16,200419,6,0,B|295:107|240:82|264:172,1,160,4|8,0:0|0:0,0:0:0:0:
182,344,201003,5,2,0:0:0:0:
176,316,201101,1,0,0:0:0:0:
177,288,201198,1,2,0:0:0:0:
187,262,201295,1,0,0:0:0:0:
195,235,201393,1,0,0:0:0:0:
194,208,201490,1,0,0:0:0:0:
184,181,201588,2,0,P|223:177|263:171,1,80,8|2,0:0|0:0,0:0:0:0:
103,228,201977,5,4,0:0:0:0:
277,306,202172,1,2,0:0:0:0:
277,306,202269,1,0,0:0:0:0:
277,306,202367,2,0,P|349:295|441:278,1,160,4|0,0:0|1:0,0:0:0:0:
328,123,202951,5,2,0:0:0:0:
419,159,203146,1,8,0:0:0:0:
233,171,203341,5,2,0:0:0:0:
233,171,203438,1,0,0:0:0:0:
233,171,203536,2,0,P|223:110|217:64,1,95.9999970703126,4|0,0:0|0:0,0:0:0:0:
83,246,203925,2,0,P|71:185|66:141,1,95.9999970703126,4|0,0:0|0:0,0:0:0:0:
215,338,204315,1,4,0:0:0:0:
235,300,204412,1,0,3:0:0:0:
269,273,204510,1,0,1:0:0:0:
310,263,204607,1,0,3:0:0:0:
353,270,204704,1,8,0:0:0:0:
471,201,204899,5,2,0:0:0:0:
471,201,204997,1,2,0:0:0:0:
471,201,205094,2,0,P|412:193|378:186,1,80,4|0,0:0|0:0,0:0:0:0:
314,358,205484,1,8,0:0:0:0:
255,256,205678,1,2,0:0:0:0:
255,256,205776,1,0,0:0:0:0:
255,256,205873,2,0,P|261:196|262:162,1,80,4|0,0:0|0:0,0:0:0:0:
260,148,206165,1,0,0:0:0:0:
256,120,206263,1,8,0:0:0:0:
173,194,206458,1,2,0:0:0:0:
352,274,206652,6,0,P|413:264|441:259,1,80,4|0,0:0|0:0,0:0:0:0:
160,110,207042,2,0,P|99:120|71:125,1,80,2|0,1:0|0:0,0:0:0:0:
256,344,207432,5,6,0:0:0:0:
265,313,207529,1,0,0:0:0:0:
256,282,207626,1,2,0:0:0:0:
265,251,207724,1,0,0:0:0:0:
256,220,207821,1,8,0:0:0:0:
265,189,207919,1,0,0:0:0:0:
256,159,208016,1,0,1:0:0:0:
265,128,208114,1,0,0:0:0:0:
256,97,208211,5,6,0:0:0:0:
256,344,208601,1,6,0:0:0:0:
345,128,208990,6,0,L|347:88,1,40,4|0,0:0|0:0,0:0:0:0:
145,291,209282,2,0,L|147:330,1,40,4|0,0:0|0:0,0:0:0:0:
256,344,209575,6,0,B|286:270|247:188|227:241|186:156|215:81,1,280,6|2,0:0|0:0,0:0:0:0:
