osu file format v14

[General]
AudioFilename: audio.mp3
AudioLeadIn: 1500
PreviewTime: 56945
Countdown: 0
SampleSet: Soft
StackLeniency: 0.7
Mode: 0
LetterboxInBreaks: 0
WidescreenStoryboard: 1

[Editor]
Bookmarks: 947,97562,103795,183276,189510,211322
DistanceSpacing: 1
BeatDivisor: 4
GridSize: 32
TimelineZoom: 1.9

[Metadata]
Title:Sono Kami no Dilemma ni
TitleUnicode:その神のジレンマに
Artist:senya
ArtistUnicode:senya
Creator:Satellite
Version:Normal
Source:東方風神録 ~ Mountain of Faith.
Tags:owc2022ro16dt2 owc 2022 ro16 dt2 pop touhou 10 th10 MoF 厄神様の通り道 ~ Dark Road 鍵山雛 Hina Kagiyama 幽閉サテライト Yuuhei HiZuMi 神奈森ユウ ikuo かませ虎 kamase tora video game japanese ZUN Team Shanghai Alice 東方project dagger-gazel ponpokorin pyrowar56 __Ag
BeatmapID:4477405
BeatmapSetID:1871922

[Difficulty]
HPDrainRate:4
CircleSize:3.5
OverallDifficulty:4
ApproachRate:5
SliderMultiplier:1
SliderTickRate:1

[Events]
//Background and Video events
0,0,"BG.jpg",0,0
//Break Periods
2,97762,102595
2,183276,188310
//Storyboard Layer 0 (Background)
//Storyboard Layer 1 (Fail)
//Storyboard Layer 2 (Pass)
//Storyboard Layer 3 (Foreground)
//Storyboard Layer 4 (Overlay)
//Storyboard Sound Samples

[TimingPoints]
947,487.80487804878,4,2,1,50,1,0
5614,389.61038961039,4,2,1,60,1,0
8633,-100,4,2,1,5,0,0
8730,-100,4,2,1,60,0,0
10581,-100,4,2,1,5,0,0
10678,-100,4,2,1,60,0,0
11847,-100,4,2,1,70,0,1
14964,-100,4,2,1,50,0,0
18081,-100,4,2,1,70,0,0
26165,-100,4,2,1,5,0,0
26263,-100,4,2,1,70,0,0
26555,-100,4,2,1,5,0,0
26652,-100,4,2,1,70,0,0
27237,-100,4,2,1,50,0,0
27432,-100,4,2,1,70,0,0
30549,-125,4,2,1,50,0,0
36685,-125,4,2,1,5,0,0
36782,-100,4,2,1,60,0,0
39412,-100,4,2,1,5,0,0
39510,-100,4,2,1,60,0,0
43016,-100,4,2,1,70,0,0
55484,-100,4,2,1,50,0,0
57042,-100,4,2,1,80,0,1
57432,-100,4,2,1,80,0,0
69510,-100,4,2,1,80,0,1
69899,-100,4,2,1,80,0,0
83341,-100,4,2,1,50,0,0
85094,-100,4,2,1,70,0,0
93178,-100,4,2,1,5,0,0
93276,-100,4,2,1,70,0,0
93568,-100,4,2,1,5,0,0
93665,-100,4,2,1,70,0,0
97562,-100,4,2,1,50,0,0
103795,-125,4,2,1,50,0,0
109250,-125,4,2,1,70,0,0
109639,-125,4,2,1,80,0,0
110029,-125,4,2,1,50,0,0
110321,-125,4,2,1,5,0,0
110419,-100,4,2,1,70,0,0
122497,-100,4,2,1,50,0,0
124055,-100,4,2,1,80,0,1
124445,-100,4,2,1,80,0,0
136523,-100,4,2,1,80,0,1
136912,-100,4,2,1,80,0,0
150354,-100,4,2,1,50,0,0
152107,-100,4,2,1,80,0,1
164185,-100,4,2,1,80,0,0
164575,-100,4,2,1,80,0,1
170029,-100,4,2,1,70,0,0
170321,-100,4,2,1,5,0,0
170419,-100,4,2,1,90,0,1
170711,-100,4,2,1,5,0,0
170808,-100,4,2,1,80,0,1
173438,-100,4,2,1,5,0,1
173536,-100,4,2,1,80,0,1
173925,-100,4,2,1,70,0,0
174704,-100,4,2,1,80,0,0
177042,-100,4,2,1,80,0,1
180159,-100,4,2,1,60,0,0
189510,-125,4,2,1,50,0,0
192626,-100,4,2,1,70,0,0
194185,-100,4,2,1,80,0,1
194964,-100,4,2,1,50,0,1
195354,-100,4,2,1,60,0,0
195743,-100,4,2,1,80,0,1
209575,-100,4,2,1,50,0,0
211322,487.80487804878,4,2,1,50,1,0
213251,487.80487804878,4,2,1,50,1,0
215192,487.80487804878,4,2,1,50,1,0
217145,465.116279069767,4,2,1,50,1,0
218100,480,4,2,1,50,1,0
218580,465.116279069767,4,2,1,50,1,0
219075,483.870967741935,4,2,1,50,1,0
222931,540.54054054054,4,2,1,50,1,0
224016,550.45871559633,4,2,1,50,1,0
225111,666.666666666666,4,2,1,50,1,0

[Colours]
Combo1 : 137,50,52
Combo2 : 71,163,113
Combo3 : 104,169,92
Combo4 : 177,67,70

[HitObjects]
310,367,947,6,0,P|325:336|244:282,1,150,2|2,0:0|0:0,0:0:0:0:
208,307,1922,2,0,P|142:288|147:219,1,150,2|2,0:0|0:0,0:0:0:0:
192,197,2898,6,0,P|223:142|192:101,2,100,2|2|2,0:0|0:0|0:0,0:0:0:0:
46,341,5614,6,0,P|13:319|14:285,2,75,2|0|2,0:0|0:0|0:0,0:0:0:0:
95,350,6393,1,2,0:0:0:0:
175,291,6782,1,2,0:0:0:0:
236,369,7172,6,0,P|289:360|391:347,1,150,2|0,0:0|0:0,0:0:0:0:
431,364,7951,1,2,0:0:0:0:
505,296,8341,1,2,0:0:0:0:
414,254,8730,6,0,P|387:218|406:166,1,100,2|2,0:0|0:0,0:0:0:0:
411,69,9510,2,0,P|465:91|475:119,2,75,2|0|0,0:0|0:0|0:0,0:0:0:0:
369,96,10289,6,0,L|255:84,1,100,2|2,0:0|0:0,0:0:0:0:
202,159,11068,1,2,0:0:0:0:
116,107,11458,2,0,L|110:52,1,50,2|0,0:0|0:0,0:0:0:0:
100,8,11847,6,0,P|33:24|25:145,1,200,4|4,0:0|0:0,0:0:0:0:
97,202,13016,1,0,0:0:0:0:
179,145,13406,6,0,L|239:131,1,50,4|0,0:0|0:0,0:0:0:0:
267,103,13795,2,0,L|315:114,1,50,4|0,0:0|0:0,0:0:0:0:
349,151,14185,1,4,0:0:0:0:
506,27,14964,6,0,L|487:232,1,200,4|4,0:0|0:0,0:0:0:0:
25,226,17691,1,2,0:0:0:0:
83,306,18081,6,0,L|191:287,1,100,6|8,0:0|0:0,0:0:0:0:
251,360,18860,2,0,L|308:351,1,50,0|2,0:0|0:0,0:0:0:0:
336,317,19250,2,0,L|393:326,1,50,8|0,0:0|0:0,0:0:0:0:
425,354,19639,6,0,P|466:322|456:269,1,100,2|8,0:0|0:0,0:0:0:0:
377,225,20419,1,0,1:0:0:0:
464,176,20808,1,8,0:0:0:0:
393,104,21198,6,0,B|350:96|350:96|305:52|305:52|262:44,1,150,0|0,1:0|1:0,0:0:0:0:
224,11,21977,2,0,B|181:19|181:19|136:63|136:63|93:71,1,150,0|0,1:0|0:0,0:0:0:0:
47,49,22756,6,0,L|57:157,1,100,4|8,0:0|0:0,0:0:0:0:
128,217,23536,1,8,0:0:0:0:
31,241,23925,2,0,L|36:297,1,50,8|0,0:0|0:0,0:0:0:0:
41,340,24315,6,0,P|106:324|158:314,1,100,6|8,0:0|0:0,0:0:0:0:
182,340,24899,1,2,0:0:0:0:
182,340,25094,1,0,1:0:0:0:
270,292,25484,1,8,0:0:0:0:
353,346,25873,6,0,P|376:322|370:260,1,100,4|4,0:0|0:0,0:0:0:0:
292,195,26652,2,0,P|187:179|130:171,1,150,4|2,0:0|0:0,0:0:0:0:
99,196,27432,6,0,P|76:172|82:110,1,100,4|8,0:0|0:0,0:0:0:0:
158,44,28211,2,0,P|134:15|90:18,2,75,4|4|4,0:0|0:0|0:0,0:0:0:0:
174,91,28990,6,0,P|214:118|270:108,1,100,4|8,0:0|0:0,0:0:0:0:
345,54,29769,2,0,P|393:47|434:75,1,100,4|8,0:0|0:0,0:0:0:0:
475,166,30549,5,6,0:0:0:0:
391,212,30938,1,0,1:0:0:0:
443,297,31328,1,0,0:0:0:0:
360,345,31717,1,0,1:0:0:0:
305,265,32107,6,0,P|255:260|217:256,1,80,0|0,1:0|0:0,0:0:0:0:
145,309,32886,2,0,P|111:311|79:315,2,60,2|2|2,0:0|0:0|0:0,0:0:0:0:
181,340,33665,5,0,1:0:0:0:
218,251,34055,1,0,1:0:0:0:
133,205,34445,1,0,0:0:0:0:
169,116,34834,1,0,1:0:0:0:
84,70,35224,6,0,P|119:27|146:23,1,80,0|0,1:0|0:0,0:0:0:0:
233,46,36003,2,0,P|305:57|324:60,1,80,0|0,1:0|1:0,0:0:0:0:
406,25,36782,6,0,P|439:57|433:118,1,100,4|8,0:0|0:0,0:0:0:0:
411,151,37367,1,2,0:0:0:0:
411,151,37562,2,0,P|361:142|309:134,1,100,0|0,1:0|1:0,0:0:0:0:
237,200,38341,2,0,L|179:192,1,50,0|0,1:0|0:0,0:0:0:0:
155,154,38730,2,0,L|97:162,1,50,8|2,0:0|0:0,0:0:0:0:
63,187,39120,1,0,1:0:0:0:
120,268,39510,1,8,0:0:0:0:
55,344,39899,6,0,P|25:319|21:281,2,75,0|0|2,1:0|0:0|0:0,0:0:0:0:
99,367,40678,2,0,P|149:347|206:337,1,100,0|8,1:0|0:0,0:0:0:0:
289,369,41458,6,0,P|282:294|278:219,1,150,4|2,0:0|0:0,0:0:0:0:
305,177,42237,1,6,1:2:0:0:
236,104,42626,2,0,P|239:79|240:54,1,50,2|2,0:0|0:0,0:0:0:0:
215,10,43016,6,0,P|173:16|142:83,1,100,4|8,0:0|0:0,0:0:0:0:
69,130,43795,2,0,P|26:104|25:78,2,75,2|2|2,0:0|0:0|0:0,0:0:0:0:
108,161,44575,2,0,P|152:195|150:256,1,100,4|8,0:0|0:0,0:0:0:0:
137,282,45159,1,2,0:0:0:0:
137,282,45354,1,0,1:0:0:0:
46,240,45743,1,8,0:0:0:0:
108,161,46133,6,0,P|169:151|218:143,1,100,4|8,0:0|0:0,0:0:0:0:
271,221,46912,2,0,P|320:229|369:237,1,100,0|8,1:0|0:0,0:0:0:0:
455,186,47691,5,4,0:0:0:0:
498,276,48081,1,8,0:0:0:0:
448,363,48471,1,0,1:0:0:0:
348,362,48860,1,8,0:0:0:0:
270,298,49250,6,0,L|276:147,1,150,4|2,0:0|0:0,0:0:0:0:
300,104,50029,2,0,L|243:93,1,50,0|2,1:0|0:0,0:0:0:0:
206,117,50419,2,0,L|149:106,1,50,8|2,0:0|0:0,0:0:0:0:
107,98,50808,6,0,P|63:120|63:215,1,150,4|2,0:0|0:0,0:0:0:0:
102,238,51588,2,0,P|131:216|138:180,2,75,0|2|2,1:0|0:0|0:0,0:0:0:0:
58,262,52367,5,0,1:0:0:0:
129,332,52756,2,0,P|163:325|201:319,1,50,0|0,1:0|1:0,0:0:0:0:
208,282,53146,2,0,P|242:289|280:295,1,50,0|0,1:0|1:0,0:0:0:0:
292,327,53536,2,0,P|326:320|364:314,1,50,2|2,1:2|1:2,0:0:0:0:
384,292,53925,6,0,L|373:75,2,200,4|0|2,1:2|1:0|1:2,0:0:0:0:
469,230,57042,6,0,P|411:219|358:209,1,100,4|8,0:0|0:0,0:0:0:0:
321,220,57626,1,2,0:0:0:0:
281,188,57821,2,0,L|272:306,1,100,0|8,1:0|0:0,0:0:0:0:
181,328,58601,2,0,L|185:262,1,50,4|0,0:0|0:0,0:0:0:0:
148,242,58990,2,0,L|152:176,1,50,8|2,0:0|0:0,0:0:0:0:
188,159,59380,1,0,1:0:0:0:
93,126,59769,2,0,L|89:60,1,50,8|0,0:0|0:0,0:0:0:0:
59,35,60159,6,0,P|117:24|170:14,1,100,4|8,0:0|0:0,0:0:0:0:
199,42,60743,1,2,0:0:0:0:
241,68,60938,2,0,L|317:52,2,75,4|2|2,0:0|0:0|0:0,0:0:0:0:
201,98,61717,6,0,P|175:141|203:196,1,100,4|8,0:0|0:0,0:0:0:0:
226,219,62302,1,2,0:0:0:0:
226,219,62497,1,2,0:0:0:0:
320,185,62886,1,8,0:0:0:0:
393,253,63276,6,0,P|396:282|369:310,1,50,4|2,0:0|0:0,0:0:0:0:
346,329,63665,2,0,L|233:313,1,100,4|0,0:0|1:0,0:0:0:0:
156,271,64445,2,0,P|145:248|149:224,1,50,8|2,0:0|0:0,0:0:0:0:
179,184,64834,6,0,L|280:166,1,100,4|8,0:0|0:0,0:0:0:0:
319,138,65419,1,0,0:0:0:0:
365,156,65614,2,0,P|393:121|374:67,1,100,2|10,0:0|0:0,0:0:0:0:
291,16,66393,6,0,P|283:91|277:166,1,150,4|2,0:0|0:0,0:0:0:0:
295,212,67172,2,0,L|245:221,1,50,0|2,1:0|0:0,0:0:0:0:
219,263,67562,2,0,L|169:272,1,50,8|2,0:0|0:0,0:0:0:0:
125,295,67951,6,0,P|97:256|103:227,1,75,4|4,0:0|0:0,0:0:0:0:
29,202,68536,2,0,P|48:132|115:107,1,150,4|2,0:0|1:2,0:0:0:0:
167,22,69510,6,0,P|208:53|214:105,1,100,4|8,0:0|0:0,0:0:0:0:
198,145,70094,1,2,0:0:0:0:
234,179,70289,2,0,P|316:163|354:158,1,100,4|8,0:0|0:0,0:0:0:0:
401,232,71068,2,0,P|353:239|335:245,1,50,4|0,0:0|0:0,0:0:0:0:
328,284,71458,2,0,P|303:289|278:291,1,50,8|2,0:0|0:0,0:0:0:0:
234,267,71847,1,0,1:0:0:0:
176,348,72237,2,0,P|128:341|110:335,1,50,8|0,0:0|0:0,0:0:0:0:
81,362,72626,6,0,L|75:261,1,100,4|8,0:0|0:0,0:0:0:0:
52,216,73211,1,2,0:0:0:0:
80,174,73406,2,0,P|27:163|-2:157,2,75,4|2|2,0:0|0:0|0:0,0:0:0:0:
129,165,74185,6,0,P|170:136|166:82,1,100,4|8,0:0|0:0,0:0:0:0:
149,44,74769,1,2,0:0:0:0:
149,44,74964,1,2,0:0:0:0:
60,91,75354,1,8,0:0:0:0:
129,165,75743,6,0,P|160:175|177:200,1,50,4|2,0:0|0:0,0:0:0:0:
204,224,76133,2,0,L|306:201,1,100,4|0,0:0|1:0,0:0:0:0:
374,132,76912,2,0,P|343:122|326:97,1,50,8|2,0:0|0:0,0:0:0:0:
310,64,77302,5,4,0:0:0:0:
407,40,77691,1,4,0:0:0:0:
479,109,78081,1,4,0:0:0:0:
458,206,78471,1,8,0:0:0:0:
366,245,78860,6,0,P|290:234|208:223,1,150,4|2,0:0|0:0,0:0:0:0:
185,185,79639,2,0,P|159:192|126:203,1,50,2|0,0:0|0:0,0:0:0:0:
92,177,80029,2,0,P|85:203|78:237,1,50,8|2,0:0|0:0,0:0:0:0:
70,274,80419,5,0,1:0:0:0:
155,325,80808,2,0,B|279:312|211:395|336:382,1,200,2|0,1:0|1:0,0:0:0:0:
426,341,81977,5,6,0:0:0:0:
378,252,82367,2,0,P|421:243|444:239,1,50,6|0,0:0|0:0,0:0:0:0:
460,204,82756,6,0,P|424:188|410:151,1,75,4|4,0:0|0:0,0:0:0:0:
484,131,83341,6,0,P|371:114|123:81,1,350,4|4,0:0|0:0,0:0:0:0:
47,37,85094,6,0,P|51:82|57:147,1,100,4|8,0:0|0:0,0:0:0:0:
142,186,85873,2,0,P|144:212|146:240,1,50,0|0,1:0|1:0,0:0:0:0:
184,267,86263,2,0,P|182:293|180:321,1,50,8|0,0:0|1:0,0:0:0:0:
157,361,86652,6,0,P|106:364|66:329,1,100,4|8,0:0|0:0,0:0:0:0:
15,250,87432,1,4,0:0:0:0:
68,165,87821,1,0,1:0:0:0:
168,168,88211,6,0,P|237:160|288:151,1,100,0|8,1:0|0:0,0:0:0:0:
312,177,88795,1,2,0:0:0:0:
355,152,88990,1,0,1:0:0:0:
394,60,89380,2,0,P|357:52|329:46,1,50,8|0,0:0|0:0,0:0:0:0:
300,27,89769,6,0,P|305:101|311:176,1,150,0|2,1:0|0:0,0:0:0:0:
317,226,90549,2,0,L|258:239,1,50,0|0,1:0|1:0,0:0:0:0:
218,244,90938,2,0,P|215:278|212:307,1,50,8|2,0:0|0:0,0:0:0:0:
204,343,91328,5,4,0:0:0:0:
107,317,91717,1,8,0:0:0:0:
85,217,92107,1,0,1:0:0:0:
154,144,92497,1,8,0:0:0:0:
248,175,92886,6,0,B|304:159|276:140|333:125,1,100,4|4,0:0|0:0,0:0:0:0:
394,46,93665,2,0,P|384:123|373:218,1,150,4|2,0:0|0:0,0:0:0:0:
368,244,94445,5,4,0:0:0:0:
273,277,94834,1,8,0:0:0:0:
215,195,95224,2,0,P|182:188|141:182,2,75,6|4|4,0:0|0:0|0:0,0:0:0:0:
260,174,96003,5,4,0:0:0:0:
204,90,96393,1,0,1:2:0:0:
276,21,96782,2,0,P|310:13|331:9,1,50,2|2,1:2|3:2,0:0:0:0:
366,37,97172,2,0,P|400:45|421:49,1,50,0|2,1:2|3:2,0:0:0:0:
458,23,97562,5,4,0:0:0:0:
455,381,103795,6,0,P|379:362|329:356,1,120,6|0,1:2|1:0,0:0:0:0:
298,384,104575,2,0,P|253:381|238:312,1,120,2|0,1:3|0:0,0:0:0:0:
274,289,105354,6,0,P|303:286|330:274,2,60,2|0|0,0:0|0:0|0:0,0:0:0:0:
230,267,106133,6,0,B|222:261|222:261|124:250|124:250|114:243,1,120,2|0,1:3|1:0,0:0:0:0:
85,204,106912,6,0,P|55:209|37:234,2,60,2|0|0,0:0|0:0|0:0,0:0:0:0:
132,207,107691,6,0,P|175:176|157:110,1,120,2|2,1:3|0:0,0:0:0:0:
124,89,108471,5,2,3:0:0:0:
124,89,108665,2,0,P|180:75|210:64,1,80,0|8,1:0|0:0,0:0:0:0:
238,37,109250,5,0,1:0:0:0:
308,102,109639,1,8,0:0:0:0:
397,67,110029,2,0,P|393:103|391:123,1,40,2|0,0:0|0:0,0:0:0:0:
374,153,110419,6,0,P|424:182|425:221,1,100,4|0,0:0|1:0,0:0:0:0:
395,314,111198,1,8,0:0:0:0:
311,259,111588,2,0,P|268:253|199:242,1,100,0|8,1:0|0:0,0:0:0:0:
168,219,112172,1,2,0:0:0:0:
168,219,112367,1,0,1:0:0:0:
114,306,112756,1,8,0:0:0:0:
207,343,113146,6,0,P|208:293|212:244,1,100,0|8,1:0|0:0,0:0:0:0:
285,176,113925,2,0,P|281:126|280:76,1,100,0|8,1:0|0:0,0:0:0:0:
201,14,114704,5,4,0:0:0:0:
107,49,115094,1,8,0:0:0:0:
69,142,115484,1,0,1:0:0:0:
103,235,115873,1,8,0:0:0:0:
191,282,116263,6,0,P|270:262|356:247,1,150,4|2,0:0|0:0,0:0:0:0:
387,254,117042,2,0,P|403:228|397:198,1,50,0|2,1:0|0:0,0:0:0:0:
367,173,117432,2,0,P|352:153|351:128,1,50,8|2,0:0|0:0,0:0:0:0:
380,87,117821,6,0,P|358:40|265:58,1,150,4|2,0:0|0:0,0:0:0:0:
224,65,118601,2,0,P|188:43|182:10,2,75,4|2|2,0:0|0:0|0:0,0:0:0:0:
263,95,119380,5,4,0:0:0:0:
200,173,119769,2,0,P|205:206|207:231,1,50,8|0,0:0|0:0,0:0:0:0:
254,235,120159,2,0,P|249:268|247:293,1,50,0|0,1:0|1:0,0:0:0:0:
204,309,120549,2,0,P|209:342|211:367,1,50,2|2,1:2|1:2,0:0:0:0:
255,380,120938,6,0,L|468:352,2,200,4|0|6,1:2|1:0|0:0,0:0:0:0:
193,304,124055,6,0,P|266:292|308:286,1,100,4|8,0:0|0:0,0:0:0:0:
327,253,124639,1,2,0:0:0:0:
376,258,124834,2,0,L|383:147,1,100,0|8,1:0|0:0,0:0:0:0:
432,71,125614,2,0,L|373:61,1,50,0|0,1:0|0:0,0:0:0:0:
347,26,126003,2,0,L|288:36,1,50,8|2,0:0|0:0,0:0:0:0:
265,73,126393,1,0,1:0:0:0:
176,26,126782,2,0,L|117:16,1,50,8|0,0:0|0:0,0:0:0:0:
76,14,127172,6,0,P|58:62|83:116,1,100,4|8,0:0|0:0,0:0:0:0:
107,142,127756,1,2,0:0:0:0:
156,148,127951,2,0,P|207:132|228:103,2,75,0|2|2,1:0|0:0|0:0,0:0:0:0:
107,142,128730,6,0,L|96:249,1,100,4|8,0:0|0:0,0:0:0:0:
90,291,129315,1,2,0:0:0:0:
90,291,129510,1,0,1:0:0:0:
174,344,129899,1,8,0:0:0:0:
257,288,130289,6,0,P|288:292|305:307,1,50,4|2,0:0|0:0,0:0:0:0:
339,336,130678,2,0,P|399:328|422:300,1,100,4|0,0:0|1:0,0:0:0:0:
396,202,131458,2,0,P|365:198|348:183,1,50,8|2,0:0|0:0,0:0:0:0:
328,142,131847,6,0,P|333:79|367:58,1,100,4|8,0:0|0:0,0:0:0:0:
407,43,132432,1,0,0:0:0:0:
448,70,132626,2,0,P|474:127|454:162,1,100,2|8,1:2|0:0,0:0:0:0:
387,226,133406,6,0,L|217:206,1,150,4|2,0:0|0:0,0:0:0:0:
199,176,134185,2,0,L|190:245,1,50,0|0,1:0|0:0,0:0:0:0:
147,246,134575,2,0,L|138:315,1,50,8|2,0:0|0:0,0:0:0:0:
144,345,134964,6,0,P|191:347|213:326,1,75,4|4,0:0|0:0,0:0:0:0:
274,375,135549,2,0,P|322:320|306:251,1,150,4|8,0:0|0:0,0:0:0:0:
387,191,136523,6,0,P|339:150|288:155,1,100,4|8,0:0|0:0,0:0:0:0:
258,170,137107,1,2,0:0:0:0:
216,142,137302,2,0,L|205:31,1,100,4|8,0:0|0:0,0:0:0:0:
109,16,138081,2,0,L|115:81,1,50,4|2,0:0|0:0,0:0:0:0:
88,109,138471,2,0,L|94:174,1,50,8|2,0:0|0:0,0:0:0:0:
125,196,138860,1,0,1:0:0:0:
44,255,139250,2,0,L|38:320,1,50,8|0,0:0|0:0,0:0:0:0:
33,354,139639,6,0,P|111:342|150:336,1,100,0|8,1:0|0:0,0:0:0:0:
165,301,140224,1,2,0:0:0:0:
211,282,140419,2,0,P|206:230|175:204,2,75,4|2|2,0:0|0:0|0:0,0:0:0:0:
250,313,141198,6,0,L|365:324,1,100,4|8,0:0|0:0,0:0:0:0:
399,329,141782,1,2,0:0:0:0:
399,329,141977,1,0,1:0:0:0:
480,270,142367,1,8,0:0:0:0:
424,187,142756,6,0,L|365:178,1,50,4|2,0:0|0:0,0:0:0:0:
328,198,143146,2,0,L|322:81,1,100,4|0,0:0|1:0,0:0:0:0:
245,35,143925,2,0,L|186:26,1,50,8|2,0:0|0:0,0:0:0:0:
146,14,144315,5,4,0:0:0:0:
60,65,144704,1,4,0:0:0:0:
58,165,145094,1,4,0:0:0:0:
141,219,145484,1,8,0:0:0:0:
234,181,145873,6,0,P|303:171|365:229,1,150,4|2,0:0|0:0,0:0:0:0:
377,266,146652,2,0,P|373:302|360:319,1,50,0|0,1:0|0:0,0:0:0:0:
333,351,147042,2,0,P|303:360|277:357,1,50,8|2,0:0|0:0,0:0:0:0:
237,340,147432,5,4,0:0:0:0:
282,251,147821,2,0,B|233:136|332:176|283:61,1,200,2|0,1:0|1:0,0:0:0:0:
198,113,148990,5,6,0:0:0:0:
143,28,149380,2,0,L|92:40,1,50,6|0,0:0|0:0,0:0:0:0:
46,55,149769,6,0,P|82:71|96:108,1,75,4|4,0:0|0:0,0:0:0:0:
22,128,150354,6,0,P|135:145|383:178,1,350,4|4,0:0|0:0,0:0:0:0:
447,114,152107,6,0,P|473:156|454:219,1,100,4|8,0:0|0:0,0:0:0:0:
439,246,152691,2,0,P|383:267|365:312,1,100,2|0,0:0|0:0,0:0:0:0:
347,347,153276,2,0,L|280:335,1,50,8|2,0:0|0:0,0:0:0:0:
250,355,153665,5,4,0:0:0:0:
192,272,154055,2,0,L|125:284,1,50,8|2,0:0|0:0,0:0:0:0:
99,306,154445,2,0,P|60:256|78:204,1,100,0|8,1:0|0:0,0:0:0:0:
104,131,155224,6,0,B|147:137|147:137|180:185|180:185|227:194,1,150,4|2,0:0|0:0,0:0:0:0:
277,190,156003,2,0,B|297:221|297:221|284:268,2,75,4|0|2,0:0|0:0|0:0,0:0:0:0:
245,151,156782,5,4,0:0:0:0:
306,71,157172,2,0,L|362:60,1,50,8|2,0:0|0:0,0:0:0:0:
390,26,157562,2,0,P|439:57|437:109,1,100,2|8,0:0|0:0,0:0:0:0:
418,191,158341,6,0,L|368:182,1,50,4|0,0:0|0:0,0:0:0:0:
328,152,158730,2,0,P|292:164|276:225,1,100,4|0,0:0|1:0,0:0:0:0:
222,305,159510,2,0,P|202:332|181:331,1,50,8|2,0:0|0:0,0:0:0:0:
146,304,159899,6,0,L|140:243,1,50,2|2,1:0|0:0,0:0:0:0:
102,221,160289,2,0,L|108:160,1,50,2|2,1:0|0:0,0:0:0:0:
145,138,160678,1,2,1:0:0:0:
83,59,161068,2,0,L|135:46,1,50,2|2,1:0|1:0,0:0:0:0:
166,10,161458,6,0,P|205:17|241:117,1,150,4|2,0:0|1:0,0:0:0:0:
278,146,162237,2,0,P|289:216|355:245,1,150,4|2,0:0|1:0,0:0:0:0:
404,233,163016,6,0,P|427:215|432:169,1,75,4|4,0:0|0:0,0:0:0:0:
358,167,163601,2,0,B|272:148|335:113|235:90,1,150,4|2,0:0|1:0,0:0:0:0:
168,16,164575,6,0,P|116:29|108:83,1,100,4|8,0:0|0:0,0:0:0:0:
91,117,165159,1,2,1:0:0:0:
128,149,165354,2,0,P|123:228|120:263,1,100,4|8,0:0|0:0,0:0:0:0:
180,329,166133,6,0,P|203:322|239:317,1,50,4|2,0:0|1:0,0:0:0:0:
270,291,166523,2,0,P|293:297|329:302,1,50,4|2,0:0|0:0,0:0:0:0:
362,276,166912,2,0,L|371:116,1,150,4|0,0:0|1:0,0:0:0:0:
400,85,167691,6,0,L|351:76,1,50,2|2,1:0|1:0,0:0:0:0:
316,38,168081,2,0,L|267:47,1,50,8|2,0:0|1:0,0:0:0:0:
220,66,168471,2,0,P|192:35|198:4,2,75,2|2|2,1:0|1:0|1:0,0:0:0:0:
259,96,169250,6,0,P|287:127|247:217,1,150,4|0,0:0|0:0,0:0:0:0:
204,236,170029,1,6,0:0:0:0:
107,211,170419,2,0,P|79:228|69:258,1,50,6|0,1:2|0:0,0:0:0:0:
46,286,170808,6,0,P|94:294|122:343,1,100,4|2,0:0|1:0,0:0:0:0:
211,377,171588,2,0,P|259:369|287:320,1,100,2|0,1:0|0:0,0:0:0:0:
288,278,172172,1,0,0:0:0:0:
288,278,172367,2,0,P|209:271|184:266,2,100,4|4|4,0:0|0:0|0:0,0:0:0:0:
368,338,173536,1,8,0:0:0:0:
403,244,173925,6,0,L|411:74,1,150,6|2,1:0|1:0,0:0:0:0:
433,49,174704,2,0,L|373:56,1,50,4|2,0:0|1:0,0:0:0:0:
344,23,175094,2,0,L|284:30,1,50,0|2,1:0|1:0,0:0:0:0:
262,67,175484,5,4,0:0:0:0:
180,8,175873,2,0,B|175:31|175:31|179:34|179:34|173:62,1,50,8|2,0:0|1:0,0:0:0:0:
144,95,176263,1,0,1:0:0:0:
225,153,176652,2,0,B|230:176|230:176|226:179|226:179|232:207,1,50,2|0,1:0|0:0,0:0:0:0:
270,230,177042,6,0,P|324:200|328:172,2,75,4|2|2,0:0|1:0|1:0,0:0:0:0:
228,257,177821,2,0,P|116:232|75:224,1,150,2|2,1:0|1:0,0:0:0:0:
56,181,178601,6,0,P|1:210|-2:238,2,75,4|2|2,0:0|1:0|1:0,0:0:0:0:
84,139,179380,2,0,P|156:177|157:259,1,150,2|2,1:0|1:0,0:0:0:0:
256,192,180159,12,2,181717,0:0:0:0:
165,239,189510,6,0,P|251:249|328:267,1,160,4|0,0:0|0:0,0:0:0:0:
474,148,191068,2,0,P|479:109|439:85,2,80,2|2|2,0:0|0:0|0:0,0:0:0:0:
380,126,192237,1,2,0:0:0:0:
410,221,192626,6,0,P|286:201|241:194,1,150,4|2,0:0|0:0,0:0:0:0:
214,214,193406,2,0,L|207:125,2,75,4|2|2,0:0|0:0|0:0,0:0:0:0:
221,263,194185,6,0,P|262:285|292:272,1,75,4|4,0:0|0:0,0:0:0:0:
336,338,194769,2,0,P|402:315|413:227,1,150,4|2,0:0|1:2,0:0:0:0:
395,145,195743,6,0,P|321:131|275:121,1,100,4|8,0:0|0:0,0:0:0:0:
250,146,196328,1,2,0:0:0:0:
212,112,196523,2,0,P|178:144|185:204,1,100,4|4,0:0|0:0,0:0:0:0:
261,251,197302,2,0,P|256:288|246:301,1,50,4|2,0:0|0:0,0:0:0:0:
213,332,197691,2,0,P|179:346|153:344,1,50,8|2,0:0|0:0,0:0:0:0:
117,332,198081,2,0,P|78:315|66:249,1,100,4|8,0:0|0:0,0:0:0:0:
100,170,198860,6,0,P|174:160|217:155,1,100,4|8,0:0|0:0,0:0:0:0:
244,178,199445,1,2,0:0:0:0:
278,142,199639,2,0,P|285:98|260:72,2,75,4|2|2,0:0|0:0|0:0,0:0:0:0:
244,178,200419,6,0,L|234:298,1,100,4|8,0:0|0:0,0:0:0:0:
230,327,201003,1,2,0:0:0:0:
230,327,201198,1,2,0:0:0:0:
317,375,201588,1,8,0:0:0:0:
385,302,201977,6,0,P|356:297|331:276,1,50,4|2,0:0|0:0,0:0:0:0:
319,239,202367,2,0,L|429:226,1,100,4|0,0:0|1:0,0:0:0:0:
430,127,203146,2,0,P|454:130|475:143,1,50,8|2,0:0|0:0,0:0:0:0:
507,182,203536,5,4,0:0:0:0:
500,281,203925,1,4,0:0:0:0:
424,346,204315,1,4,0:0:0:0:
325,332,204704,1,8,0:0:0:0:
279,243,205094,6,0,L|272:82,1,150,4|2,0:0|0:0,0:0:0:0:
286,45,205873,2,0,L|232:38,1,50,4|0,0:0|0:0,0:0:0:0:
194,66,206263,2,0,L|140:59,1,50,8|2,0:0|0:0,0:0:0:0:
102,31,206652,5,4,0:0:0:0:
39,109,207042,2,0,B|91:222|-8:184|44:298,1,200,2|8,1:0|0:0,0:0:0:0:
123,358,208211,5,6,0:0:0:0:
163,266,208601,2,0,L|219:277,1,50,6|0,0:0|0:0,0:0:0:0:
251,244,208990,6,0,P|230:209|238:175,1,75,4|4,0:0|0:0,0:0:0:0:
300,128,209575,6,0,P|191:52|236:177,1,350,6|2,0:0|0:0,0:0:0:0:
