osu file format v14

[General]
AudioFilename: audio.mp3
AudioLeadIn: 2000
PreviewTime: 274232
Countdown: 0
SampleSet: Soft
StackLeniency: 0.7
Mode: 0
LetterboxInBreaks: 0
WidescreenStoryboard: 1

[Editor]
Bookmarks: 567657
DistanceSpacing: 1.3
BeatDivisor: 4
GridSize: 32
TimelineZoom: 1.9

[Metadata]
Title:Song Compilation
TitleUnicode:Song Compilation
Artist:senya
ArtistUnicode:senya
Creator:Santtu
Version:Portal to 150 BPM
Source:東方Project
Tags:touhou marathon Yuuhei Satellite 幽閉サテライト Iceon Mayumi Morinaga Autobahn でいたらぼっち
BeatmapID:1160834
BeatmapSetID:545593

[Difficulty]
HPDrainRate:5
CircleSize:4
OverallDifficulty:8
ApproachRate:8.8
SliderMultiplier:1.7
SliderTickRate:1

[Events]
//Background and Video events
0,0,"bg.jpg",0,0
//Break Periods
2,301560,310772
2,351859,359520
2,385849,393638
2,419194,426765
2,456165,464603
2,490843,498856
//Storyboard Layer 0 (Background)
//Storyboard Layer 1 (Fail)
//Storyboard Layer 2 (Pass)
//Storyboard Layer 3 (Foreground)
//Storyboard Sound Samples

[TimingPoints]
536,508.474576271186,4,2,1,80,1,0
67654,-100,4,2,1,80,0,1
83798,-100,4,2,1,80,0,0
83925,-100,4,2,1,80,0,1
100197,-100,4,2,1,80,0,0
106261,476.190476190476,4,2,1,80,1,0
107451,-100,4,2,1,5,0,0
107570,-100,4,2,1,80,0,0
108165,-100,4,2,1,80,0,1
108284,-100,4,2,1,80,0,0
141775,441.176470588235,4,2,1,80,1,0
148833,-100,4,2,1,80,0,1
148944,-100,4,2,1,80,0,0
183197,428.571428571429,4,2,1,80,1,0
191768,-100,4,2,1,80,0,1
191875,-100,4,2,1,80,0,0
224021,413.793103448276,4,2,1,80,1,0
230641,-100,4,2,1,80,0,1
230745,-100,4,2,1,80,0,0
270960,400,4,2,1,80,1,0
274160,-133.333333333333,4,2,1,80,0,0
274960,-100,4,2,1,80,0,0
275760,-100,4,2,1,80,0,1
275860,-100,4,2,1,80,0,0
311401,387.096774193548,4,2,1,80,1,0
314497,-100,4,2,1,80,0,1
314594,-100,4,2,1,80,0,0
357149,375,4,2,1,80,1,0
361649,-100,4,2,1,80,0,1
361742,-100,4,2,1,80,0,0
365399,-83.3333333333333,4,2,1,80,0,0
365680,-66.6666666666667,4,2,1,80,0,0
365961,-100,4,2,1,80,0,0
369149,-83.3333333333333,4,2,1,80,0,0
369430,-66.6666666666667,4,2,1,80,0,0
369711,-100,4,2,1,80,0,0
371024,-57.1428571428571,4,2,1,80,0,0
371399,-100,4,2,1,80,0,0
371774,-57.1428571428571,4,2,1,80,0,0
372149,-100,4,2,1,80,0,0
377399,-83.3333333333333,4,2,1,80,0,0
377586,-100,4,2,1,80,0,0
379930,-57.1428571428571,4,2,1,80,0,0
380211,-100,4,2,1,80,0,0
381430,-57.1428571428571,4,2,1,80,0,0
381711,-100,4,2,1,80,0,0
391358,363.636363636364,4,2,1,80,1,0
395721,-100,4,2,1,80,0,1
395812,-100,4,2,1,80,0,0
425965,357.142857142857,4,2,1,80,1,0
431679,-100,4,2,1,80,0,1
431768,-100,4,2,1,80,0,0
460997,352.941176470588,4,2,1,80,1,0
466644,-100,4,2,1,80,0,1
466732,-100,4,2,1,80,0,0
477497,-80,4,2,1,80,0,0
477761,-57.1428571428571,4,2,1,80,0,0
477938,-100,4,2,1,80,0,0
495885,300,4,2,1,80,1,0
499485,-86.9565217391304,4,2,1,80,0,0
500685,-133.333333333333,4,2,1,80,0,0
519285,-153.846153846153,4,2,1,80,0,0
519885,-100,4,2,1,80,0,0
520485,-62.5,4,2,1,80,0,0
521085,-83.3333333333333,4,2,1,80,0,1
539085,-83.3333333333333,4,2,1,80,0,0
540285,-83.3333333333333,4,2,1,80,0,1
559485,-100,4,2,1,80,0,0

[HitObjects]
174,230,270960,5,4,0:0:0:0:
217,110,271160,1,0,0:0:0:0:
337,153,271360,1,8,0:0:0:0:
294,273,271560,1,0,0:0:0:0:
160,217,271760,5,4,0:0:0:0:
230,96,271960,1,0,0:0:0:0:
351,166,272160,1,8,0:0:0:0:
281,287,272360,1,0,0:0:0:0:
146,205,272560,6,0,L|142:162,2,42.5,4|0|0,0:0|0:0|0:0,0:0:0:0:
80,314,272960,2,0,L|74:382,2,42.5,12|0|0,0:0|0:0|0:0,0:0:0:0:
27,160,273360,1,4,0:0:0:0:
34,118,273460,1,0,0:0:0:0:
56,82,273560,1,0,0:0:0:0:
89,56,273660,1,0,0:0:0:0:
129,43,273760,1,12,0:0:0:0:
171,45,273860,1,0,0:0:0:0:
210,63,273960,1,0,0:0:0:0:
240,92,274060,1,0,0:0:0:0:
257,131,274160,6,0,B|256:178|220:212|220:212|275:232|275:232|239:275|251:326,1,223.125008511544,4|0,0:0|0:0,0:0:0:0:
264,325,274960,5,0,0:0:0:0:
287,327,275060,1,0,0:0:0:0:
309,330,275160,1,0,0:0:0:0:
331,332,275260,1,0,0:0:0:0:
377,311,275360,5,0,0:0:0:0:
399,308,275460,1,0,0:0:0:0:
422,306,275560,1,0,0:0:0:0:
444,304,275660,1,0,0:0:0:0:
482,270,275760,6,0,P|494:238|483:174,1,85,4|0,0:0|0:0,0:0:0:0:
333,121,276160,1,8,0:0:0:0:
396,221,276360,1,0,0:0:0:0:
446,58,276560,2,0,B|422:17|422:17|342:6,1,127.5,2|0,0:3|0:0,0:0:0:0:
302,21,276960,2,0,L|210:17,1,85,8|0,0:0|0:0,0:0:0:0:
71,107,277360,5,0,0:0:0:0:
165,248,277560,1,0,0:0:0:0:
167,103,277760,2,0,L|118:187,1,85,8|0,0:0|0:0,0:0:0:0:
101,212,278060,1,0,0:0:0:0:
101,212,278160,1,2,0:3:0:0:
155,369,278360,1,0,0:0:0:0:
70,309,278560,1,8,0:0:0:0:
203,210,278760,1,0,0:0:0:0:
236,306,278960,6,0,P|276:316|330:309,1,85
437,188,279360,1,8,0:0:0:0:
475,309,279560,1,0,0:0:0:0:
339,207,279760,2,0,P|345:146|393:98,1,127.5,2|0,0:3|0:0,0:0:0:0:
427,80,280160,2,0,L|346:41,1,85,8|0,0:0|0:0,0:0:0:0:
100,119,280560,6,0,L|257:131,1,127.5
207,166,280960,2,0,L|217:272,1,85,8|0,0:0|0:0,0:0:0:0:
303,352,281360,1,2,0:3:0:0:
139,279,281560,1,0,0:0:0:0:
285,177,281760,1,8,0:0:0:0:
208,366,281960,5,0,0:0:0:0:
208,366,282060,1,0,0:0:0:0:
208,366,282160,2,0,L|218:260,1,85,4|0,0:0|0:0,0:0:0:0:
277,92,282560,2,0,L|287:198,1,85,8|0,0:0|0:0,0:0:0:0:
63,204,282960,2,0,L|205:192,1,127.5,2|0,0:3|0:0,0:0:0:0:
202,152,283360,2,0,L|194:67,1,85,8|0,0:0|0:0,0:0:0:0:
26,130,283760,5,0,0:0:0:0:
94,294,283960,1,0,0:0:0:0:
202,152,284160,1,8,0:0:0:0:
63,204,284360,1,0,0:0:0:0:
205,354,284560,2,0,P|223:312|221:268,1,85,2|0,0:3|0:0,0:0:0:0:
208,233,284860,1,0,0:0:0:0:
208,233,284960,2,0,P|194:185|211:137,1,85,8|0,0:0|0:0,0:0:0:0:
330,27,285360,5,0,0:0:0:0:
276,189,285560,1,0,0:0:0:0:
238,49,285760,1,8,0:0:0:0:
401,86,285960,1,0,0:0:0:0:
355,305,286160,2,0,L|344:197,1,85,2|0,0:3|0:0,0:0:0:0:
359,180,286460,1,0,0:0:0:0:
359,180,286560,1,8,0:0:0:0:
456,297,286760,1,0,0:0:0:0:
489,87,286960,5,8,0:0:0:0:
489,87,287160,1,8,0:0:0:0:
178,26,287360,2,0,L|262:20,1,85,4|0,0:0|0:0,0:0:0:0:
273,244,287760,5,12,0:0:0:0:
298,210,287860,2,0,P|319:158|315:106,1,85,0|8,0:0|0:0,0:0:0:0:
311,88,288160,1,4,0:0:0:0:
337,298,288360,1,2,0:0:0:0:
186,137,288560,5,0,0:0:0:0:
182,144,288760,1,2,0:0:0:0:
426,240,288960,2,0,P|434:194|415:141,1,85,4|0,0:0|0:0,0:0:0:0:
399,123,289260,1,2,0:0:0:0:
363,99,289360,5,0,0:0:0:0:
360,108,289560,1,2,0:0:0:0:
305,347,289760,2,0,P|259:346|213:326,1,85,4|2,0:0|0:0,0:0:0:0:
125,192,290160,5,4,0:0:0:0:
94,315,290360,1,0,0:0:0:0:
219,215,290560,2,0,L|206:115,1,85,8|0,0:0|0:0,0:0:0:0:
200,88,290860,1,0,0:0:0:0:
200,88,290960,1,2,0:3:0:0:
324,253,291160,1,0,0:0:0:0:
322,125,291360,1,8,0:0:0:0:
125,192,291560,1,0,0:0:0:0:
205,295,291760,6,0,P|236:342|276:356,1,85
257,186,292160,1,8,0:0:0:0:
117,282,292360,1,0,0:0:0:0:
286,273,292560,2,0,P|334:243|349:204,1,85,2|0,0:3|0:0,0:0:0:0:
343,176,292860,1,0,0:0:0:0:
343,176,292960,2,0,L|354:83,1,85,8|0,0:0|0:0,0:0:0:0:
180,17,293360,6,0,L|197:172,1,127.5
202,185,293760,1,8,0:0:0:0:
117,282,293960,1,0,0:0:0:0:
47,145,294160,2,0,L|32:256,1,85,2|0,0:3|0:0,0:0:0:0:
211,347,294560,2,0,L|196:236,1,85,8|0,0:0|0:0,0:0:0:0:
243,98,294960,5,4,0:0:0:0:
127,184,295160,1,0,0:0:0:0:
293,247,295360,2,0,P|304:195|295:160,1,85,8|0,0:0|0:0,0:0:0:0:
121,69,295760,2,0,L|209:77,1,85,2|0,0:3|0:0,0:0:0:0:
243,98,296060,1,0,0:0:0:0:
243,98,296160,2,0,L|327:89,1,85,8|0,0:0|0:0,0:0:0:0:
461,194,296560,5,4,0:0:0:0:
420,28,296760,1,0,0:0:0:0:
360,187,296960,1,8,0:0:0:0:
465,298,297160,1,0,0:0:0:0:
338,377,297360,2,0,P|329:316|341:290,1,85,2|0,0:3|0:0,0:0:0:0:
366,264,297660,1,2,0:3:0:0:
496,124,297960,1,2,0:3:0:0:
465,298,298160,5,4,0:0:0:0:
316,79,298760,1,0,0:0:0:0:
316,79,298860,1,0,0:0:0:0:
316,79,298960,2,0,L|304:170,1,85,4|0,0:0|0:0,0:0:0:0:
205,243,299360,1,2,0:0:0:0:
205,243,299760,5,4,0:0:0:0:
202,116,299960,1,0,0:0:0:0:
391,178,300160,1,4,0:0:0:0:
319,278,300360,1,0,0:0:0:0:
316,79,300560,5,4,0:0:0:0:
270,373,300860,1,4,0:0:0:0:
39,186,301160,1,4,0:0:0:0:
210,211,301360,5,4,0:0:0:0:
256,192,311401,5,4,0:0:0:0:
256,192,311498,12,0,313336,0:0:0:0:
137,87,313723,6,0,L|132:188,1,85,2|0,0:0|0:0,0:0:0:0:
207,331,314111,2,0,L|216:172,1,127.5,2|0,0:0|0:0,0:0:0:0:
218,161,314498,5,4,0:0:0:0:
350,55,314691,1,0,0:0:0:0:
409,187,314885,2,0,P|354:201|316:190,1,85,8|0,0:0|0:0,0:0:0:0:
497,98,315272,2,0,L|483:239,1,127.5,2|0,0:0|0:0,0:0:0:0:
478,267,315659,1,8,0:0:0:0:
265,314,315853,1,0,0:0:0:0:
373,376,316046,6,0,L|382:291,1,85,4|0,0:0|0:0,0:0:0:0:
336,136,316433,1,8,0:0:0:0:
484,219,316627,1,0,0:0:0:0:
291,284,316820,2,0,P|268:232|268:186,1,85,2|0,0:0|0:0,0:0:0:0:
456,131,317207,1,8,0:0:0:0:
345,50,317401,5,0,0:0:0:0:
345,50,317498,1,0,0:0:0:0:
345,50,317594,2,0,P|292:32|229:40,1,85,4|0,0:0|0:0,0:0:0:0:
104,133,317982,1,8,0:0:0:0:
160,28,318175,1,0,0:0:0:0:
202,227,318369,2,0,L|196:93,1,127.5,2|0,0:0|0:0,0:0:0:0:
160,28,318756,2,0,L|68:22,1,85,8|0,0:0|0:0,0:0:0:0:
12,180,319143,5,4,0:0:0:0:
118,111,319336,1,0,0:0:0:0:
106,280,319530,2,0,L|93:178,1,85,8|0,0:0|0:0,0:0:0:0:
174,346,319917,1,2,0:0:0:0:
24,264,320111,1,0,0:0:0:0:
24,264,320207,1,0,0:0:0:0:
24,264,320304,1,8,0:0:0:0:
170,176,320498,1,0,0:0:0:0:
350,280,320691,6,0,P|282:295|210:267,1,127.5,4|0,0:0|0:0,0:0:0:0:
192,255,321078,1,8,0:0:0:0:
290,116,321272,1,0,0:0:0:0:
459,201,321465,2,0,L|360:214,1,85,2|0,0:0|0:0,0:0:0:0:
458,114,321853,1,8,0:0:0:0:
427,297,322046,1,0,0:0:0:0:
366,119,322240,5,0,0:0:0:0:
504,267,322433,1,0,0:0:0:0:
504,267,322530,1,0,0:0:0:0:
504,267,322627,1,8,0:0:0:0:
307,318,322820,1,0,0:0:0:0:
171,215,323014,2,0,P|156:256|180:343,1,127.5,2|0,0:0|0:0,0:0:0:0:
185,376,323401,2,0,L|94:355,1,85,8|0,0:0|0:0,0:0:0:0:
16,163,323788,5,4,0:0:0:0:
52,285,323982,1,0,0:0:0:0:
165,86,324175,5,8,0:0:0:0:
129,208,324369,1,0,0:0:0:0:
327,93,324562,5,4,0:0:0:0:
239,185,324756,1,0,0:0:0:0:
468,183,324949,5,8,0:0:0:0:
344,213,325143,1,0,0:0:0:0:
436,293,325336,5,4,0:0:0:0:
454,269,325432,1,0,0:0:0:0:
465,241,325529,1,0,0:0:0:0:
470,212,325626,1,0,0:0:0:0:
468,183,325723,1,8,0:0:0:0:
458,154,325819,1,0,0:0:0:0:
443,129,325916,1,0,0:0:0:0:
422,108,326013,1,0,0:0:0:0:
397,92,326111,5,2,0:0:0:0:
358,73,326207,1,0,0:0:0:0:
318,60,326304,1,0,0:0:0:0:
276,59,326401,1,0,0:0:0:0:
234,69,326498,1,8,0:0:0:0:
193,79,326594,1,0,0:0:0:0:
151,81,326691,1,0,0:0:0:0:
109,74,326788,1,0,0:0:0:0:
69,60,326885,5,4,0:0:0:0:
26,268,327078,1,0,0:0:0:0:
228,201,327272,2,0,P|161:184|123:197,1,85,8|0,0:0|0:0,0:0:0:0:
256,384,327659,5,4,0:0:0:0:
296,175,327852,1,0,0:0:0:0:
94,242,328046,2,0,P|161:259|199:246,1,85,8|0,0:0|0:0,0:0:0:0:
275,0,328433,5,4,0:0:0:0:
231,208,328626,1,0,0:0:0:0:
433,141,328820,2,0,P|366:124|328:137,1,85,8|0,0:0|0:0,0:0:0:0:
461,326,329207,5,4,0:0:0:0:
504,118,329400,1,0,0:0:0:0:
302,185,329594,2,0,P|369:202|407:189,1,85,8|0,0:0|0:0,0:0:0:0:
167,17,329982,5,4,0:0:0:0:
172,228,330175,1,0,0:0:0:0:
353,118,330369,2,0,P|286:101|248:114,1,85,8|0,0:0|0:0,0:0:0:0:
175,235,330756,5,4,0:0:0:0:
345,110,330949,1,0,0:0:0:0:
151,24,331143,2,0,P|176:89|208:113,1,85,8|0,0:0|0:0,0:0:0:0:
338,102,331530,5,4,0:0:0:0:
138,34,331723,1,0,0:0:0:0:
179,242,331917,2,0,P|218:185|219:145,1,85,8|0,0:0|0:0,0:0:0:0:
124,45,332304,5,4,0:0:0:0:
184,248,332497,1,0,0:0:0:0:
330,95,332691,2,0,P|261:96|228:118,1,85,8|0,0:0|0:0,0:0:0:0:
337,318,333078,6,0,P|357:256|289:170,1,170,4|8,0:0|0:0,0:0:0:0:
256,353,333659,1,0,0:0:0:0:
439,346,333853,2,0,L|346:325,1,85,2|0,0:0|0:0,0:0:0:0:
167,275,334240,2,0,L|260:254,1,85,8|0,0:0|0:0,0:0:0:0:
339,111,334627,5,4,0:0:0:0:
221,13,334820,1,0,0:0:0:0:
152,169,335014,1,8,0:0:0:0:
281,60,335207,1,0,0:0:0:0:
115,100,335401,2,0,P|80:131|58:187,1,85,2|0,0:0|0:0,0:0:0:0:
185,282,335788,2,0,P|182:328|206:383,1,85,8|0,0:0|0:0,0:0:0:0:
353,155,336175,6,0,P|291:135|197:206,1,170,4|8,0:0|0:0,0:0:0:0:
310,320,336756,1,0,0:0:0:0:
423,194,336949,1,2,0:0:0:0:
316,72,337143,1,0,0:0:0:0:
287,103,337239,1,0,0:0:0:0:
268,141,337336,1,8,0:0:0:0:
260,182,337433,1,0,0:0:0:0:
264,224,337530,1,0,0:0:0:0:
280,264,337626,1,0,0:0:0:0:
308,296,337723,6,0,P|306:357|295:380,1,85,4|0,0:0|0:0,0:0:0:0:
181,198,338111,1,8,0:0:0:0:
395,173,338304,2,0,P|423:226|425:252,1,85,4|2,0:0|0:0,0:0:0:0:
181,198,338691,1,0,0:0:0:0:
319,37,338885,1,8,0:0:0:0:
360,28,338981,1,0,0:0:0:0:
402,33,339078,1,0,0:0:0:0:
441,50,339175,1,0,0:0:0:0:
473,78,339272,1,4,0:0:0:0:
256,192,339369,12,4,342369,0:0:0:0:
181,260,342756,5,8,0:0:0:0:
210,136,342949,1,0,0:0:0:0:
302,288,343143,2,0,P|281:351|236:371,1,85,2|0,0:0|0:0,0:0:0:0:
228,376,343433,1,0,0:0:0:0:
228,376,343530,2,0,L|107:365,1,85,8|0,0:0|0:0,0:0:0:0:
22,248,343917,5,0,0:0:0:0:
135,188,344111,1,0,0:0:0:0:
143,368,344304,2,0,P|121:329|118:283,1,85,8|0,0:0|0:0,0:0:0:0:
264,187,344691,2,0,P|263:231|243:273,1,85,2|0,0:0|0:0,0:0:0:0:
194,87,345078,1,8,0:0:0:0:
365,163,345272,1,0,0:0:0:0:
184,209,345465,6,0,P|129:205|74:146,1,127.5,4|0,0:0|0:0,0:0:0:0:
66,116,345852,1,8,0:0:0:0:
176,9,346046,1,0,0:0:0:0:
296,103,346240,2,0,L|317:1,1,85,2|0,0:0|0:0,0:0:0:0:
198,133,346627,1,8,0:0:0:0:
334,259,346820,1,0,0:0:0:0:
383,78,347014,5,4,0:0:0:0:
251,210,347207,1,0,0:0:0:0:
251,210,347304,1,0,0:0:0:0:
251,210,347401,2,0,P|240:274|256:315,1,85,8|0,0:0|0:0,0:0:0:0:
426,246,347788,2,0,L|411:156,1,85,2|0,0:0|0:0,0:0:0:0:
389,326,348175,1,8,0:0:0:0:
504,200,348369,1,0,0:0:0:0:
339,160,348562,5,4,0:0:0:0:
486,301,348756,1,0,0:0:0:0:
486,301,348852,1,0,0:0:0:0:
486,301,348949,1,8,0:0:0:0:
504,97,349143,1,0,0:0:0:0:
359,239,349336,2,0,P|299:233|263:196,1,85,2|0,0:0|0:0,0:0:0:0:
211,60,349723,2,0,L|202:126,1,42.5,8|0,0:0|0:0,0:0:0:0:
316,88,349917,2,0,L|325:154,1,42.5
143,217,350111,5,4,0:0:0:0:
118,200,350207,1,0,0:0:0:0:
98,178,350304,1,0,0:0:0:0:
85,151,350401,1,0,0:0:0:0:
80,122,350498,1,8,0:0:0:0:
83,93,350594,1,0,0:0:0:0:
94,65,350691,1,0,0:0:0:0:
112,41,350788,1,0,0:0:0:0:
136,24,350885,6,0,L|200:19,1,42.5,2|0,0:0|0:0,0:0:0:0:
233,116,351078,2,0,L|296:121,1,42.5
337,21,351272,2,0,L|379:18,1,42.5,8|0,0:0|0:0,0:0:0:0:
444,127,351465,2,0,L|507:132,1,42.5
354,191,351659,5,4,0:0:0:0:
370,268,360149,5,4,0:0:0:0:
370,268,360524,2,0,P|376:315|356:372,1,85,2|0,0:0|0:0,0:0:0:0:
247,222,360899,5,0,0:0:0:0:
260,195,360992,1,0,0:0:0:0:
279,173,361086,1,0,0:0:0:0:
303,155,361180,1,0,0:0:0:0:
331,143,361274,1,2,0:0:0:0:
360,138,361367,1,0,0:0:0:0:
389,139,361461,1,0,0:0:0:0:
418,148,361555,1,0,0:0:0:0:
444,162,361649,6,0,P|440:114|417:73,1,85,4|0,0:0|0:0,0:0:0:0:
393,51,361930,1,0,0:0:0:0:
393,51,362024,2,0,L|276:37,1,85,8|0,0:0|0:0,0:0:0:0:
154,148,362399,1,2,0:3:0:0:
196,37,362586,1,0,0:0:0:0:
196,37,362680,1,0,0:0:0:0:
196,37,362774,1,8,0:0:0:0:
252,222,362961,2,0,L|240:283,1,42.5
169,307,363149,6,0,P|86:295|62:273,1,85,4|0,0:0|0:0,0:0:0:0:
57,265,363430,1,0,0:0:0:0:
57,265,363524,1,8,0:0:0:0:
147,120,363711,1,0,0:0:0:0:
154,148,363804,1,0,0:0:0:0:
153,178,363899,1,2,0:3:0:0:
47,24,364086,1,0,0:0:0:0:
76,26,364179,1,0,0:0:0:0:
106,28,364274,2,0,L|164:13,1,42.5,8|0,0:0|0:0,0:0:0:0:
244,61,364461,2,0,L|301:45,1,42.5
448,140,364649,6,0,P|452:97|438:57,1,85,4|0,0:0|0:0,0:0:0:0:
361,237,365024,2,0,P|357:279|371:319,1,85,8|0,0:0|0:0,0:0:0:0:
364,105,365399,6,0,L|256:128,1,101.999996887207,4|0,0:0|0:0,0:0:0:0:
137,140,365680,6,0,L|261:113,1,127.500004863739,4|0,0:0|0:0,0:0:0:0:
288,32,365961,6,0,P|334:67|315:180,1,170,4|0,0:0|0:0,0:0:0:0:
295,200,366430,1,0,0:0:0:0:
295,200,366524,1,8,0:0:0:0:
188,316,366711,1,0,0:0:0:0:
373,373,366899,5,4,0:0:0:0:
363,344,366992,1,0,0:0:0:0:
347,320,367086,1,0,0:0:0:0:
325,300,367180,1,0,0:0:0:0:
298,288,367274,1,8,0:0:0:0:
269,283,367367,1,0,0:0:0:0:
239,286,367461,1,0,0:0:0:0:
212,298,367555,1,0,0:0:0:0:
188,316,367649,6,0,L|91:302,1,85,4|0,0:0|0:0,0:0:0:0:
69,278,367930,1,0,0:0:0:0:
69,278,368024,2,0,P|51:218|60:159,1,85,8|0,0:0|0:0,0:0:0:0:
131,45,368399,1,2,0:3:0:0:
214,221,368586,1,0,0:0:0:0:
214,221,368680,1,0,0:0:0:0:
214,221,368774,1,8,0:0:0:0:
251,108,368961,1,0,0:0:0:0:
29,57,369149,6,0,L|130:44,1,101.999996887207,4|0,0:0|0:0,0:0:0:0:
283,38,369430,6,0,L|124:19,1,127.500004863739,4|0,0:0|0:0,0:0:0:0:
87,114,369711,6,0,P|77:162|92:211,1,85,4|2,0:0|0:3,0:0:0:0:
216,304,370086,1,0,0:0:0:0:
216,304,370180,1,0,0:0:0:0:
216,304,370274,1,8,0:0:0:0:
199,160,370461,1,0,0:0:0:0:
364,63,370649,6,0,P|371:120|346:168,1,85,2|0,0:0|0:0,0:0:0:0:
172,183,371024,6,0,B|193:143|193:143|306:99,1,148.750001418591,4|0,0:0|0:0,0:0:0:0:
320,317,371399,6,0,P|313:260|338:212,1,85,2|0,0:0|0:0,0:0:0:0:
512,197,371774,6,0,B|491:237|491:237|378:281,1,148.750001418591,4|0,0:0|0:0,0:0:0:0:
204,331,372149,5,0,0:0:0:0:
158,139,372336,1,0,0:0:0:0:
158,139,372430,1,0,0:0:0:0:
158,139,372524,1,4,0:0:0:0:
93,258,372711,1,0,0:0:0:0:
280,170,372899,1,2,0:3:0:0:
284,140,372992,1,0,0:0:0:0:
282,111,373086,1,0,0:0:0:0:
273,82,373180,1,0,0:0:0:0:
257,57,373274,2,0,L|215:21,1,42.5,4|0,0:0|0:0,0:0:0:0:
75,30,373461,2,0,L|42:57,1,42.5
39,207,373649,5,4,0:0:0:0:
120,320,373836,1,0,0:0:0:0:
120,320,373930,1,0,0:0:0:0:
120,320,374024,1,8,0:0:0:0:
180,161,374211,1,0,0:0:0:0:
294,287,374399,1,2,0:3:0:0:
333,122,374586,1,0,0:0:0:0:
305,114,374679,1,0,0:0:0:0:
275,113,374773,1,8,0:0:0:0:
206,269,374961,1,0,0:0:0:0:
204,298,375054,1,0,0:0:0:0:
213,327,375149,6,0,P|251:365|296:374,1,85,4|0,0:0|0:0,0:0:0:0:
439,313,375524,1,8,0:0:0:0:
315,196,375711,1,0,0:0:0:0:
315,196,375805,1,0,0:0:0:0:
315,196,375899,1,2,0:3:0:0:
364,358,376086,1,0,0:0:0:0:
364,358,376180,1,0,0:0:0:0:
364,358,376274,2,0,P|353:312|355:297,1,42.5,8|0,0:0|0:0,0:0:0:0:
435,219,376461,2,0,P|446:173|444:158,1,42.5
363,30,376649,6,0,P|356:86|373:126,1,85,4|0,0:0|0:0,0:0:0:0:
468,23,377024,1,8,0:0:0:0:
273,4,377211,1,0,0:0:0:0:
199,181,377399,2,0,L|321:201,1,101.999996887207,4|4,0:0|0:0,0:0:0:0:
31,153,377961,6,0,L|207:182,1,170,4|0,0:0|0:0,0:0:0:0:
411,242,378524,1,8,0:0:0:0:
401,269,378617,1,0,0:0:0:0:
383,293,378711,1,0,0:0:0:0:
359,311,378805,1,0,0:0:0:0:
332,321,378899,1,4,0:0:0:0:
302,323,378992,1,0,0:0:0:0:
273,315,379086,1,0,0:0:0:0:
248,300,379180,1,0,0:0:0:0:
228,278,379274,2,0,L|220:229,1,42.5,8|0,0:0|0:0,0:0:0:0:
320,108,379461,2,0,L|313:149,1,42.5
73,104,379649,6,0,P|115:113|155:102,1,85,4|0,0:0|0:0,0:0:0:0:
112,42,379930,6,0,L|121:234,1,148.750001418591,4|0,0:0|0:0,0:0:0:0:
79,265,380211,6,0,P|125:227|245:284,1,170,4|0,0:0|0:0,0:0:0:0:
249,286,380680,1,0,0:0:0:0:
249,286,380774,1,8,0:0:0:0:
388,382,380961,1,0,0:0:0:0:
375,176,381149,6,0,P|360:216|365:258,1,85,4|0,0:0|0:0,0:0:0:0:
434,229,381430,6,0,L|281:210,1,148.750001418591,4|0,0:0|0:0,0:0:0:0:
226,271,381711,6,0,P|267:186|215:97,1,170,4|0,0:0|0:0,0:0:0:0:
212,88,382180,1,0,0:0:0:0:
212,88,382274,1,8,0:0:0:0:
64,171,382461,1,0,0:0:0:0:
135,14,382649,6,0,L|131:118,1,85,4|0,0:0|0:0,0:0:0:0:
142,140,382930,1,0,0:0:0:0:
142,140,383024,1,8,0:0:0:0:
38,274,383211,1,0,0:0:0:0:
212,277,383399,2,0,P|173:240|128:225,1,85,4|0,0:0|0:0,0:0:0:0:
172,378,383774,2,0,L|303:355,1,127.5,8|0,0:0|0:0,0:0:0:0:
332,331,384149,5,4,0:0:0:0:
465,145,384336,1,0,0:0:0:0:
247,275,384524,5,12,0:0:0:0:
284,49,384711,1,0,0:0:0:0:
75,166,384899,5,4,0:0:0:0:
100,182,384992,1,0,0:0:0:0:
128,191,385086,1,0,0:0:0:0:
158,191,385180,1,0,0:0:0:0:
186,182,385274,2,0,P|209:138|209:116,1,42.5,12|0,0:0|0:0,0:0:0:0:
56,281,385461,2,0,P|33:325|33:347,1,42.5
218,343,385649,5,4,0:0:0:0:
141,220,394267,5,4,0:0:0:0:
144,113,394630,2,0,L|152:213,1,85,2|2,0:0|0:0,0:0:0:0:
251,313,395358,5,2,0:0:0:0:
257,297,395721,6,0,P|267:248|256:184,1,85,4|0,0:0|0:0,0:0:0:0:
242,176,395994,1,0,0:0:0:0:
242,176,396085,2,0,P|232:127|243:63,1,85,8|0,0:0|0:0,0:0:0:0:
438,32,396448,1,2,0:3:0:0:
313,5,396630,1,0,0:0:0:0:
348,162,396812,2,0,P|360:130|349:66,1,85,8|0,0:0|0:0,0:0:0:0:
139,26,397176,6,0,B|116:55|116:55|125:165,1,127.5,4|0,0:0|0:0,0:0:0:0:
134,186,397539,1,8,0:0:0:0:
31,321,397721,1,0,0:0:0:0:
197,355,397903,2,0,L|177:272,1,85,2|0,0:3|0:0,0:0:0:0:
108,359,398267,1,8,0:0:0:0:
264,294,398448,1,0,0:0:0:0:
59,147,398630,6,0,P|49:198|64:243,1,85,4|0,0:0|0:0,0:0:0:0:
73,269,398903,1,0,0:0:0:0:
73,269,398994,1,8,0:0:0:0:
218,181,399176,2,0,P|228:130|217:85,1,85,0|2,0:0|0:3,0:0:0:0:
169,261,399539,1,0,0:0:0:0:
272,298,399721,2,0,P|315:281|348:240,1,85,8|0,0:0|0:0,0:0:0:0:
419,72,400085,5,0,0:0:0:0:
473,233,400267,1,0,0:0:0:0:
473,233,400358,1,0,0:0:0:0:
473,233,400448,1,8,0:0:0:0:
321,109,400630,2,0,P|314:63|325:26,1,85,0|2,0:0|0:3,0:0:0:0:
371,212,400994,1,0,0:0:0:0:
487,103,401176,1,8,0:0:0:0:
278,188,401358,1,0,0:0:0:0:
488,262,401539,6,0,P|484:317|455:352,1,85,4|0,0:0|0:0,0:0:0:0:
428,358,401812,1,0,0:0:0:0:
428,358,401903,2,0,L|331:352,2,85,8|0|2,0:0|0:0|0:3,0:0:0:0:
281,270,402448,1,0,0:0:0:0:
202,382,402630,2,0,P|180:329|182:288,1,85,8|0,0:0|0:0,0:0:0:0:
234,95,402994,5,4,0:0:0:0:
281,270,403176,1,0,0:0:0:0:
119,217,403358,2,0,L|228:196,1,85,8|0,0:0|0:0,0:0:0:0:
45,134,403721,2,0,P|30:182|30:218,1,85,2|0,0:3|0:0,0:0:0:0:
45,256,403994,1,0,0:0:0:0:
45,256,404085,1,8,0:0:0:0:
142,95,404267,1,0,0:0:0:0:
239,253,404448,5,4,0:0:0:0:
143,383,404630,2,0,P|138:338|151:295,1,85,0|8,0:0|0:0,0:0:0:0:
309,359,404994,1,0,0:0:0:0:
469,300,405176,2,0,P|480:341|475:383,1,85,2|0,0:3|0:0,0:0:0:0:
366,250,405539,2,0,P|381:178|389:165,1,85,8|0,0:0|0:0,0:0:0:0:
388,126,405812,5,0,0:0:0:0:
388,126,405903,2,0,P|373:54|365:41,1,85
180,22,406267,1,8,0:0:0:0:
246,195,406448,1,0,0:0:0:0:
277,53,406630,6,0,L|275:21,4,21.25,2|0|0|0|2,0:3|0:0|0:0|0:0|0:0,0:0:0:0:
210,107,406903,2,0,P|150:122|100:106,1,85,2|2,0:0|0:0,0:0:0:0:
49,83,407176,1,2,0:0:0:0:
246,195,407358,6,0,B|283:165|283:165|303:79,1,127.5,4|0,0:0|0:0,0:0:0:0:
277,53,407721,1,8,0:0:0:0:
128,118,407903,2,0,L|122:206,1,85,0|2,0:0|0:3,0:0:0:0:
180,349,408267,1,0,0:0:0:0:
180,349,408358,1,0,0:0:0:0:
180,349,408448,2,0,P|126:356|70:332,1,85,8|0,0:0|0:0,0:0:0:0:
282,158,408812,6,0,B|314:196|314:196|305:318,1,170,4|8,0:0|0:0,0:0:0:0:
73,205,409358,2,0,B|192:196|192:196|230:228,1,170
391,319,409903,2,0,L|396:229,1,85,8|0,0:0|0:0,0:0:0:0:
416,196,410176,5,0,0:0:0:0:
416,196,410267,2,0,P|427:149|416:100,1,85,4|0,0:0|0:0,0:0:0:0:
282,15,410630,1,8,0:0:0:0:
246,165,410812,2,0,L|347:154,1,85,0|2,0:0|0:3,0:0:0:0:
180,73,411176,1,0,0:0:0:0:
107,260,411358,2,0,L|115:126,1,127.5,8|0,0:0|0:0,0:0:0:0:
98,93,411721,5,4,0:0:0:0:
199,229,411903,1,0,0:0:0:0:
31,213,412085,2,0,P|19:266|33:307,1,85,8|0,0:0|0:0,0:0:0:0:
49,331,412358,1,0,0:0:0:0:
49,331,412448,2,0,L|167:352,1,85,2|0,0:3|0:0,0:0:0:0:
361,316,412812,2,0,L|277:301,1,85,8|0,0:0|0:0,0:0:0:0:
203,96,413176,6,0,P|184:158|284:195,1,170,4|8,0:0|0:0,0:0:0:0:
359,30,413721,2,0,P|318:13|267:18,1,85,0|2,0:0|0:3,0:0:0:0:
412,119,414085,1,0,0:0:0:0:
262,205,414267,2,0,P|303:222|354:217,1,85,8|0,0:0|0:0,0:0:0:0:
383,208,414539,1,0,0:0:0:0:
383,208,414630,6,0,P|402:268|398:299,1,85,4|0,0:0|0:0,0:0:0:0:
319,143,414994,1,8,0:0:0:0:
188,224,415176,2,0,B|155:190|155:190|155:66,1,170
69,194,415721,2,0,L|68:295,1,85,8|0,0:0|0:0,0:0:0:0:
285,268,416085,6,0,P|297:220|286:184,1,85,6|0,0:0|0:0,0:0:0:0:
213,299,416358,2,0,P|200:340|210:381,1,85,2|0,0:0|0:0,0:0:0:0:
346,383,416630,2,0,P|358:335|347:299,1,85,2|2,0:0|0:0,0:0:0:0:
218,218,416994,1,0,0:0:0:0:
340,112,417176,2,0,L|254:117,1,85,8|0,0:0|0:0,0:0:0:0:
134,21,417539,5,4,0:0:0:0:
118,46,417629,1,0,0:0:0:0:
107,73,417720,1,0,0:0:0:0:
102,103,417811,1,0,0:0:0:0:
105,132,417902,1,8,0:0:0:0:
114,160,417994,1,0,0:0:0:0:
127,187,418084,1,0,0:0:0:0:
140,214,418175,1,0,0:0:0:0:
149,242,418266,1,0,0:0:0:0:
153,271,418357,1,0,0:0:0:0:
151,301,418448,1,0,0:0:0:0:
143,330,418539,1,0,0:0:0:0:
125,354,418630,2,0,P|71:355|27:320,1,85,2|0,3:0|0:0,0:0:0:0:
256,307,418994,5,4,0:0:0:0:
303,156,428822,5,2,3:2:0:0:
262,91,429000,2,0,L|247:218,2,127.5,0|0|0,3:2|3:2|3:2,3:2:0:0:
117,134,429715,6,0,L|125:69,1,42.5,0|0,3:2|3:2,3:2:0:0:
341,25,429982,2,0,L|333:90,2,42.5,0|0|0,3:2|3:2|3:2,3:2:0:0:
377,102,430250,5,2,3:2:0:0:
396,139,430339,1,0,3:2:0:0:
392,180,430428,1,0,3:2:0:0:
366,213,430517,1,0,3:2:0:0:
326,226,430607,1,0,3:2:0:0:
286,215,430696,1,0,3:2:0:0:
250,191,430786,1,0,3:2:0:0:
210,180,430875,1,0,3:2:0:0:
170,193,430965,1,0,3:2:0:0:
144,226,431054,1,0,3:2:0:0:
140,267,431143,1,0,3:2:0:0:
159,305,431232,1,0,3:2:0:0:
191,333,431322,2,0,L|248:324,1,42.5,0|0,3:2|3:2,3:2:0:0:
352,368,431500,2,0,L|409:359,1,42.5,0|0,3:2|3:2,3:2:0:0:
475,235,431679,6,0,P|481:162|463:83,1,127.5,4|0,0:0|0:0,0:0:0:0:
450,71,432036,1,8,0:0:0:0:
309,167,432215,1,0,0:0:0:0:
365,6,432393,2,0,P|370:52|360:88,1,85,2|0,0:3|0:0,0:0:0:0:
250,319,432750,2,0,P|245:273|255:237,1,85,8|0,0:0|0:0,0:0:0:0:
475,314,433107,6,0,P|395:338|340:318,1,127.5
328,292,433465,1,8,0:0:0:0:
256,138,433643,1,0,0:0:0:0:
133,256,433822,1,2,0:3:0:0:
111,87,434000,1,0,0:0:0:0:
229,263,434179,2,0,P|203:323|169:342,1,85,8|0,0:0|0:0,0:0:0:0:
24,191,434536,6,0,L|159:177,1,127.5
186,154,434893,2,0,B|206:121|206:121|209:73,1,85,8|0,0:0|0:0,0:0:0:0:
407,162,435250,1,2,0:3:0:0:
342,25,435429,1,0,0:0:0:0:
342,25,435518,1,0,0:0:0:0:
342,25,435607,1,8,0:0:0:0:
375,243,435786,1,0,0:0:0:0:
439,74,435965,6,0,L|296:118,1,127.5
289,144,436322,2,0,P|281:192|300:245,1,85,8|0,0:0|0:0,0:0:0:0:
397,355,436679,1,2,0:3:0:0:
397,355,436857,1,0,0:0:0:0:
212,320,437036,1,8,0:0:0:0:
360,235,437215,1,0,0:0:0:0:
130,113,437393,6,0,P|122:185|165:245,1,127.5,4|0,0:0|0:0,0:0:0:0:
185,250,437750,1,8,0:0:0:0:
28,341,437929,2,0,B|33:172,1,170
127,19,438465,2,0,L|135:117,1,85,8|0,0:0|0:0,0:0:0:0:
276,196,438822,6,0,P|323:179|404:214,1,127.5
414,240,439179,1,8,0:0:0:0:
234,362,439357,2,0,L|223:273,2,85,0|2|0,0:0|0:3|0:0,0:0:0:0:
95,291,439893,2,0,P|108:221|139:187,1,85,8|0,0:0|0:0,0:0:0:0:
304,88,440250,6,0,P|301:162|226:169,1,127.5
216,177,440607,1,8,0:0:0:0:
396,19,440786,2,0,L|411:137,1,85,0|2,0:0|0:3,0:0:0:0:
480,192,441143,1,0,0:0:0:0:
396,365,441322,2,0,L|412:238,1,127.5,8|0,0:0|0:0,0:0:0:0:
390,201,441679,6,0,P|322:179|293:187,1,85
131,306,442036,1,8,0:0:0:0:
346,308,442215,1,0,0:0:0:0:
174,178,442393,1,2,0:3:0:0:
236,384,442572,1,0,0:0:0:0:
310,181,442750,1,8,0:0:0:0:
319,139,442840,1,0,0:0:0:0:
308,98,442928,1,0,0:0:0:0:
285,63,443017,1,0,0:0:0:0:
250,38,443107,6,0,P|179:68|110:42,1,127.5,4|0,0:0|0:0,0:0:0:0:
102,26,443465,1,8,0:0:0:0:
195,167,443643,1,0,0:0:0:0:
51,243,443822,2,0,P|24:189|21:158,1,85,2|0,0:3|0:0,0:0:0:0:
162,312,444179,2,0,P|108:339|77:342,1,85,8|0,0:0|0:0,0:0:0:0:
270,208,444536,6,0,B|293:275|258:330|258:330|290:299,1,170,0|8,0:0|0:0,0:0:0:0:
429,189,445072,1,0,0:0:0:0:
394,365,445250,2,0,L|376:269,1,85,2|0,0:3|0:0,0:0:0:0:
410,83,445607,1,8,0:0:0:0:
410,83,445786,1,0,0:0:0:0:
165,169,445965,6,0,P|215:189|311:150,1,127.5
315,143,446322,2,0,L|322:52,1,85,8|0,0:0|0:0,0:0:0:0:
132,5,446679,2,0,L|139:96,1,85,2|0,0:3|0:0,0:0:0:0:
50,270,447036,2,0,P|118:260|189:287,1,127.5,8|0,0:0|0:0,0:0:0:0:
202,308,447393,5,0,0:0:0:0:
360,371,447572,1,0,0:0:0:0:
332,203,447750,1,8,0:0:0:0:
255,383,447929,5,0,0:0:0:0:
255,383,448018,1,0,0:0:0:0:
255,383,448107,1,2,0:3:0:0:
225,154,448286,1,0,0:0:0:0:
330,20,448465,5,8,0:0:0:0:
300,249,448644,1,0,0:0:0:0:
105,99,448822,5,4,0:0:0:0:
217,60,449000,1,0,0:0:0:0:
217,60,449090,1,0,0:0:0:0:
217,60,449179,1,8,0:0:0:0:
107,213,449357,1,0,0:0:0:0:
224,290,449536,2,0,P|240:251|239:208,1,85,2|0,0:3|0:0,0:0:0:0:
81,368,449893,2,0,P|63:311|84:244,1,127.5,8|0,0:0|0:0,0:0:0:0:
107,213,450250,6,0,L|101:114,1,85
293,36,450607,1,8,0:0:0:0:
141,14,450786,1,0,0:0:0:0:
195,157,450965,2,0,L|213:59,2,85,2|0|8,0:3|0:0|0:0,0:0:0:0:
163,306,451500,1,0,0:0:0:0:
374,217,451679,6,0,P|303:210|260:262,1,127.5
262,288,452036,1,8,0:0:0:0:
464,360,452215,2,0,L|472:264,2,85,0|2|0,0:0|0:3|0:0,0:0:0:0:
374,217,452750,2,0,L|366:121,1,85,8|0,0:0|0:0,0:0:0:0:
268,8,453107,5,0,0:0:0:0:
147,140,453286,1,0,0:0:0:0:
277,101,453465,1,8,0:0:0:0:
103,58,453643,1,0,0:0:0:0:
135,233,453822,2,0,L|193:219,1,42.5,2|0,0:3|0:0,0:0:0:0:
266,306,454000,2,0,L|324:320,1,42.5
420,231,454179,1,8,0:0:0:0:
428,190,454268,1,0,0:0:0:0:
413,151,454357,1,0,0:0:0:0:
379,127,454446,1,0,0:0:0:0:
337,125,454536,6,0,L|326:70,2,42.5,0|0|0,3:0|3:0|3:0,3:0:0:0:
266,306,454893,1,0,3:0:0:0:
118,140,455072,1,0,3:0:0:0:
78,153,455161,1,0,3:0:0:0:
50,185,455250,1,0,3:0:0:0:
40,226,455339,1,0,3:0:0:0:
51,266,455429,1,0,3:0:0:0:
80,297,455518,1,0,3:0:0:0:
120,309,455607,1,0,3:0:0:0:
161,302,455697,1,0,3:0:0:0:
193,275,455786,1,0,3:0:0:0:
209,236,455875,1,0,3:0:0:0:
205,194,455965,5,4,0:0:0:0:
301,311,465232,6,0,B|312:333|314:357|314:357|350:270|323:208,1,170,8|0,0:0|0:0,0:0:0:0:
211,73,465761,2,0,B|200:51|198:27|198:27|162:114|189:176,1,170,8|0,0:0|0:0,0:0:0:0:
400,105,466291,6,0,P|359:92|317:99,1,85,8|0,0:0|0:0,0:0:0:0:
259,141,466555,5,0,0:0:0:0:
259,141,466644,2,0,P|149:155|95:102,1,170,4|8,0:0|0:0,0:0:0:0:
279,36,467173,1,0,0:0:0:0:
359,197,467349,2,0,P|365:254|347:290,1,85,2|0,0:3|0:0,0:0:0:0:
322,306,467614,1,0,0:0:0:0:
322,306,467702,2,0,L|228:298,1,85,8|0,0:0|0:0,0:0:0:0:
39,198,468055,6,0,L|31:304,1,85
46,323,468320,1,0,0:0:0:0:
46,323,468408,1,8,0:0:0:0:
166,190,468585,1,0,0:0:0:0:
245,379,468761,2,0,P|179:353|158:319,1,85,2|0,0:3|0:0,0:0:0:0:
341,230,469114,1,8,0:0:0:0:
139,263,469291,1,0,0:0:0:0:
395,302,469467,6,0,P|421:266|389:167,1,127.5
377,160,469820,1,8,0:0:0:0:
182,84,469997,1,0,0:0:0:0:
243,269,470173,2,0,P|272:217|269:172,1,85,2|0,0:3|0:0,0:0:0:0:
254,153,470438,1,0,0:0:0:0:
254,153,470526,1,8,0:0:0:0:
78,204,470702,1,0,0:0:0:0:
156,21,470879,6,0,L|146:124,1,85,2|0,0:0|0:0,0:0:0:0:
69,119,471144,2,0,L|79:222,1,85,2|0,0:0|0:0,0:0:0:0:
151,222,471408,2,0,L|146:264,1,42.5,2|0,0:0|0:0,0:0:0:0:
107,330,471585,6,0,L|210:350,1,85,2|0,0:0|0:0,0:0:0:0:
254,305,471849,2,0,L|357:325,1,85,2|0,0:0|0:0,0:0:0:0:
390,376,472114,2,0,L|431:384,1,42.5,2|0,0:0|0:0,0:0:0:0:
487,330,472291,6,0,P|503:271|465:200,1,127.5,4|0,0:0|0:0,0:0:0:0:
444,185,472644,1,8,0:0:0:0:
261,195,472820,1,0,0:0:0:0:
353,39,472997,2,0,P|377:74|375:116,1,85,2|0,0:3|0:0,0:0:0:0:
348,149,473261,1,0,0:0:0:0:
348,149,473349,1,8,0:0:0:0:
210,40,473526,1,0,0:0:0:0:
145,263,473702,6,0,P|145:195|126:119,1,127.5
103,105,474055,1,8,0:0:0:0:
55,340,474232,1,0,0:0:0:0:
55,340,474320,1,0,0:0:0:0:
55,340,474408,2,0,L|130:348,1,42.5,2|0,0:3|0:0,0:0:0:0:
192,384,474585,2,0,L|267:376,1,42.5
304,300,474761,1,8,0:0:0:0:
289,260,474849,1,0,0:0:0:0:
294,218,474937,1,0,0:0:0:0:
318,184,475025,1,0,0:0:0:0:
355,164,475114,6,0,L|448:177,1,85
301,76,475467,1,8,0:0:0:0:
380,255,475644,1,0,0:0:0:0:
492,71,475820,2,0,P|443:39|395:36,1,85,2|0,0:3|0:0,0:0:0:0:
375,44,476085,1,0,0:0:0:0:
375,44,476173,1,8,0:0:0:0:
221,192,476349,1,0,0:0:0:0:
154,25,476526,6,0,B|199:29|199:29|260:111,1,127.5
271,131,476879,1,8,0:0:0:0:
53,107,477055,1,0,0:0:0:0:
158,273,477232,6,0,L|147:188,1,85,2|0,0:0|0:0,0:0:0:0:
75,243,477497,6,0,L|62:348,1,106.25,2|0,0:0|0:0,0:0:0:0:
151,361,477761,6,0,L|219:332,1,74.3750007092953,2|0,0:0|0:0,0:0:0:0:
76,158,477938,5,4,0:0:0:0:
210,24,478114,1,0,0:0:0:0:
210,24,478202,1,0,0:0:0:0:
210,24,478291,2,0,P|226:96|216:130,1,85,8|0,0:0|0:0,0:0:0:0:
158,273,478644,2,0,L|261:288,1,85,2|0,0:3|0:0,0:0:0:0:
303,330,478908,1,0,0:0:0:0:
303,330,478997,2,0,L|387:317,1,85,8|0,0:0|0:0,0:0:0:0:
407,140,479349,6,0,P|392:218|463:254,1,170,0|8,0:0|0:0,0:0:0:0:
484,75,479879,1,0,0:0:0:0:
298,49,480055,1,2,0:3:0:0:
266,232,480232,1,0,0:0:0:0:
266,232,480320,1,0,0:0:0:0:
266,232,480408,2,0,P|264:179|240:133,1,85,8|0,0:0|0:0,0:0:0:0:
57,85,480761,6,0,P|159:40|200:78,1,170,0|8,0:0|0:0,0:0:0:0:
84,193,481291,1,0,0:0:0:0:
238,255,481467,2,0,L|129:271,1,85,2|0,0:3|0:0,0:0:0:0:
124,296,481732,1,0,0:0:0:0:
124,296,481820,2,0,P|119:337|132:377,1,85,8|0,0:0|0:0,0:0:0:0:
363,334,482173,6,0,L|372:241,1,85,2|0,0:0|0:0,0:0:0:0:
387,174,482438,2,0,L|480:183,1,85,2|0,0:0|0:0,0:0:0:0:
489,103,482702,2,0,L|446:107,1,42.5,2|0,0:0|0:0,0:0:0:0:
394,49,482879,6,0,L|309:57,1,85,2|0,0:0|0:0,0:0:0:0:
257,114,483144,2,0,L|172:122,1,85,2|0,0:0|0:0,0:0:0:0:
96,96,483408,2,0,L|95:138,1,42.5,2|0,0:0|0:0,0:0:0:0:
21,240,483585,6,0,P|101:268|184:232,1,170,4|8,0:0|0:0,0:0:0:0:
257,114,484114,1,0,0:0:0:0:
344,250,484291,2,0,P|351:304|338:337,1,85,2|0,0:3|0:0,0:0:0:0:
302,349,484555,1,0,0:0:0:0:
302,349,484644,2,0,L|183:333,1,85,8|0,0:0|0:0,0:0:0:0:
141,170,484997,5,0,0:0:0:0:
113,138,485085,1,0,0:0:0:0:
108,96,485173,1,0,0:0:0:0:
128,59,485261,1,0,0:0:0:0:
165,40,485349,1,8,0:0:0:0:
207,45,485438,1,0,0:0:0:0:
238,73,485526,1,0,0:0:0:0:
236,115,485614,1,0,0:0:0:0:
233,158,485702,1,2,0:3:0:0:
231,200,485790,1,0,0:0:0:0:
229,242,485878,1,0,0:0:0:0:
227,285,485967,1,0,0:0:0:0:
227,327,486055,2,0,L|271:323,1,42.5,8|0,0:0|0:0,0:0:0:0:
436,283,486232,2,0,L|392:279,1,42.5
501,373,486408,5,0,0:0:0:0:
480,186,486585,1,0,0:0:0:0:
331,354,486761,1,2,0:0:0:0:
347,214,486938,1,0,0:0:0:0:
152,257,487114,2,0,P|201:277|265:249,1,85,2|0,0:3|0:0,0:0:0:0:
255,236,487379,1,0,0:0:0:0:
255,236,487467,2,0,L|269:119,1,85,2|0,0:0|0:0,0:0:0:0:
128,31,487820,6,0,L|145:132,1,85
134,157,488085,1,0,0:0:0:0:
134,157,488173,2,0,L|117:258,1,85,2|0,0:0|0:0,0:0:0:0:
278,341,488526,2,0,L|76:354,1,170,2|2,0:3|0:0,0:0:0:0:
331,234,489232,6,0,B|376:308|366:365|366:365|395:267|449:212|449:212|528:144|488:73|400:53|360:156|371:209|505:187|491:299,1,680,2|4,0:0|0:0,0:0:0:0:
206,184,499485,6,0,L|208:135,3,48.8750009322167,0|0|0|0,3:2|3:2|3:2|3:2,3:2:0:0:
305,249,499785,2,0,L|308:298,3,48.8750009322167,0|0|0|0,3:2|3:2|3:2|3:2,3:2:0:0:
150,287,500085,1,0,3:2:0:0:
113,254,500160,1,0,3:2:0:0:
93,210,500235,5,0,3:2:0:0:
92,162,500310,1,0,3:2:0:0:
111,117,500385,1,0,3:2:0:0:
147,84,500460,1,0,3:2:0:0:
192,68,500535,1,0,3:2:0:0:
241,71,500610,1,0,3:2:0:0:
284,94,500685,6,0,L|369:103,1,63.7500024318696,4|0,0:0|0:0,0:0:0:0:
429,171,500985,1,2,0:0:0:0:
255,214,501135,2,0,L|340:223,1,63.7500024318696,0|8,0:0|0:0,0:0:0:0:
400,291,501435,1,0,0:0:0:0:
235,360,501585,2,0,L|110:370,1,95.6250036478044,2|0,0:0|0:0,0:0:0:0:
107,346,501885,6,0,L|84:222,1,95.6250036478044
157,32,502335,1,0,0:0:0:0:
218,121,502485,2,0,L|195:245,1,95.6250036478044,8|0,0:0|0:0,0:0:0:0:
70,34,502935,1,0,0:0:0:0:
9,123,503085,6,0,L|20:185,1,63.7500024318696
0,292,503385,1,2,0:0:0:0:
125,99,503535,2,0,L|136:161,1,63.7500024318696,0|8,0:0|0:0,0:0:0:0:
117,268,503835,1,0,0:0:0:0:
240,74,503985,2,0,L|339:54,1,95.6250036478044,2|0,0:0|0:0,0:0:0:0:
363,66,504285,5,0,0:0:0:0:
452,235,504510,1,0,0:0:0:0:
324,377,504735,1,0,0:0:0:0:
348,178,504885,2,0,L|385:324,1,127.500004863739,8|2,0:0|0:0,0:0:0:0:
269,237,505335,1,0,0:0:0:0:
137,313,505485,6,0,L|145:232,1,63.7500024318696
115,144,505785,1,2,0:0:0:0:
247,290,505935,2,0,L|255:209,1,63.7500024318696,0|8,0:0|0:0,0:0:0:0:
225,121,506235,1,0,0:0:0:0:
6,172,506385,2,0,L|15:48,1,95.6250036478044,2|0,0:0|0:0,0:0:0:0:
34,52,506685,6,0,L|148:36,1,95.6250036478044
312,118,507135,1,0,0:0:0:0:
425,188,507285,2,0,L|311:204,1,95.6250036478044,8|0,0:0|0:0,0:0:0:0:
147,122,507735,1,0,0:0:0:0:
395,48,507885,6,0,L|391:128,1,63.7500024318696
330,201,508185,1,2,0:0:0:0:
279,29,508335,2,0,L|275:109,1,63.7500024318696,0|8,0:0|0:0,0:0:0:0:
214,182,508635,1,0,0:0:0:0:
46,58,508785,2,0,L|158:81,1,95.6250036478044,2|0,0:0|0:0,0:0:0:0:
157,104,509085,5,0,0:0:0:0:
245,273,509310,1,0,0:0:0:0:
70,351,509535,1,0,0:0:0:0:
121,165,509685,2,0,L|132:308,1,127.500004863739,8|2,0:0|0:0,0:0:0:0:
45,124,510135,1,0,0:0:0:0:
247,184,510285,6,0,L|260:112,1,63.7500024318696,4|0,0:0|0:0,0:0:0:0:
235,14,510585,1,2,0:0:0:0:
350,205,510735,2,0,L|363:133,1,63.7500024318696,0|8,0:0|0:0,0:0:0:0:
338,35,511035,1,0,0:0:0:0:
453,226,511185,2,0,L|437:345,1,95.6250036478044,2|0,0:0|0:0,0:0:0:0:
412,348,511485,6,0,P|360:357|299:332,1,95.6250036478044
211,187,511935,1,0,0:0:0:0:
100,348,512085,2,0,P|152:357|213:332,1,95.6250036478044,8|0,0:0|0:0,0:0:0:0:
301,187,512535,1,0,0:0:0:0:
181,25,512685,6,0,L|172:103,1,63.7500024318696
121,183,512985,1,2,0:0:0:0:
287,24,513135,2,0,L|278:102,1,63.7500024318696,0|8,0:0|0:0,0:0:0:0:
227,182,513435,1,0,0:0:0:0:
393,23,513585,2,0,L|384:118,1,95.6250036478044,2|0,0:0|0:0,0:0:0:0:
391,156,513885,5,0,0:0:0:0:
377,346,514110,1,0,0:0:0:0:
505,204,514335,1,0,0:0:0:0:
264,196,514485,2,0,P|232:284|258:324,1,127.500004863739,8|2,0:0|0:0,0:0:0:0:
126,359,514935,1,0,0:0:0:0:
28,232,515085,6,0,L|36:145,1,63.7500024318696
1,64,515385,1,2,0:0:0:0:
144,209,515535,2,0,L|152:122,1,63.7500024318696,0|8,0:0|0:0,0:0:0:0:
116,40,515835,1,0,0:0:0:0:
249,194,515985,2,0,L|344:183,1,95.6250036478044,2|0,0:0|0:0,0:0:0:0:
374,160,516285,6,0,B|383:110|383:110|361:40,1,95.6250036478044
241,286,516735,1,0,0:0:0:0:
410,329,516885,2,0,B|457:311|457:311|507:257,1,95.6250036478044,8|0,0:0|0:0,0:0:0:0:
234,276,517335,1,0,0:0:0:0:
227,266,517485,6,0,L|148:262,1,63.7500024318696,2|0,0:0|0:0,0:0:0:0:
6,290,517785,2,0,L|69:293,1,63.7500024318696,2|0,0:0|0:0,0:0:0:0:
221,187,518085,2,0,L|142:183,1,63.7500024318696,2|0,0:0|0:0,0:0:0:0:
0,365,518385,2,0,L|95:369,1,95.6250036478044,2|0,0:0|0:0,0:0:0:0:
125,358,518685,5,2,0:0:0:0:
317,304,518910,1,2,0:0:0:0:
153,116,519135,1,2,0:0:0:0:
194,293,519285,6,0,B|160:263|174:205|174:205|190:144|152:115,1,193.374991147995,2|0,0:0|0:0,0:0:0:0:
118,90,519885,6,0,L|121:35,3,42.5,0|0|0|0,3:0|3:0|3:0|3:0,3:0:0:0:
66,177,520185,2,0,L|63:232,3,42.5,0|0|0|0,3:0|3:0|3:0|3:0,3:0:0:0:
127,307,520485,5,2,3:0:0:0:
188,272,520560,1,2,3:0:0:0:
256,291,520635,1,2,3:0:0:0:
319,327,520710,1,2,3:0:0:0:
390,335,520785,2,0,P|426:332|464:310,1,68,8|0,3:0|3:0,3:0:0:0:
512,208,520935,1,2,3:0:0:0:
512,136,521010,1,2,3:0:0:0:
479,73,521085,6,0,B|451:41|451:41|372:22,1,101.999996887207,4|0,0:0|0:0,0:0:0:0:
102,123,521385,2,0,B|130:155|130:155|209:174,1,101.999996887207,8|0,0:0|0:0,0:0:0:0:
292,12,521685,2,0,L|279:118,1,101.999996887207,2|0,0:3|0:0,0:0:0:0:
299,347,521985,2,0,L|312:241,1,101.999996887207,8|0,0:0|0:0,0:0:0:0:
359,186,522210,5,0,0:0:0:0:
373,172,522285,2,0,P|421:190|451:232,1,101.999996887207
214,247,522585,1,8,0:0:0:0:
323,39,522735,1,0,0:0:0:0:
304,29,522810,1,0,0:0:0:0:
285,38,522885,2,0,B|259:59|259:59|241:197,1,152.999995330811,2|0,0:3|0:0,0:0:0:0:
75,67,523185,2,0,L|201:82,1,101.999996887207,8|0,0:0|0:0,0:0:0:0:
63,220,523485,5,0,0:0:0:0:
