osu file format v14

[General]
AudioFilename: audio.mp3
AudioLeadIn: 0
PreviewTime: 48945
Countdown: 0
SampleSet: Soft
StackLeniency: 0.2
Mode: 0
LetterboxInBreaks: 0
WidescreenStoryboard: 1

[Editor]
DistanceSpacing: 1
BeatDivisor: 4
GridSize: 4
TimelineZoom: 1.5

[Metadata]
Title:Shunkan Everlasting
TitleUnicode:瞬間エヴァーラスティング
Artist:senya
ArtistUnicode:senya
Creator:Naotoshi
Version:Mo's Insane
Source:東方Project
Tags:mo -mo- lukas [_l_u_k_a_s_] touhou yuuhei satellite c92 comiket ヒロシゲ36号 ~ Neo Super-Express 少女秘封倶楽部 童祭 ~ Innocent Treasures Moment
BeatmapID:1401096
BeatmapSetID:657870

[Difficulty]
HPDrainRate:6
CircleSize:4
OverallDifficulty:7.5
ApproachRate:9
SliderMultiplier:1.6
SliderTickRate:1

[Events]
//Background and Video events
0,0,"blog7_4.jpg",0,0
//Break Periods
//Storyboard Layer 0 (Background)
//Storyboard Layer 1 (Fail)
//Storyboard Layer 2 (Pass)
//Storyboard Layer 3 (Foreground)
//Storyboard Sound Samples

[TimingPoints]
1036,363.636363636364,4,2,80,50,1,0
1036,-142.857142857143,4,2,80,50,0,0
12672,-100,4,2,80,80,0,0
24308,-142.857142857143,4,2,80,80,0,0
34490,-100,4,2,80,80,0,0
35945,-200,4,2,80,80,0,0
36036,-200,4,2,80,10,0,0
37399,-100,4,2,80,80,0,1
47581,-80,4,2,80,80,0,1
49036,-100,4,2,80,50,0,0
50490,-100,4,2,80,80,0,1
54854,-142.857142857143,4,2,80,80,0,1
57763,-100,4,2,80,80,0,1
60672,-100,4,2,80,80,0,0
70854,-80,4,2,80,80,0,0
72126,-83.3333333333333,4,2,80,80,0,0
72217,-83.3333333333333,4,2,80,10,0,0
73763,-100,4,2,80,80,0,0
85399,-142.857142857143,4,2,80,80,0,0
95581,-200,4,2,80,80,0,0
97036,-100,4,2,80,80,0,0
98490,-100,4,2,80,80,0,1
108672,-80,4,2,80,80,0,1
110126,-100,4,2,80,80,0,0
111581,-100,4,2,80,80,0,1
115945,-142.857142857143,4,2,80,80,0,1
118854,-100,4,2,80,80,0,1
121763,-100,4,2,80,80,0,0
143581,-80,4,2,80,80,0,0
144854,-83.3333333333333,4,2,80,80,0,0
144945,-83.3333333333333,4,2,80,10,0,0
146490,-142.857142857143,4,2,80,70,0,0
158126,-142.857142857143,4,2,80,50,0,0
159581,-100,4,2,80,80,0,1
163945,-142.857142857143,4,2,80,80,0,1
166854,-100,4,2,80,80,0,1
169763,-100,4,2,80,80,0,0
170126,-100,4,2,80,72,0,0
170490,-100,4,2,80,64,0,0
170854,-100,4,2,80,56,0,0
171217,-100,4,2,80,48,0,0
171581,-100,4,2,80,40,0,0
171945,-100,4,2,80,32,0,0
172308,-100,4,2,80,24,0,0
172672,-100,4,2,80,80,0,0

[Colours]
Combo1 : 213,168,149
Combo2 : 239,113,65
Combo3 : 17,189,103
Combo4 : 254,217,5

[HitObjects]
115,135,1036,6,0,P|154:96|165:42,2,111.999996582031,2|0|0,0:0|0:0|0:0,0:0:0:0:
397,249,2490,2,0,P|358:288|347:342,2,111.999996582031,2|0|0,0:0|0:0|0:0,0:0:0:0:
124,337,3945,6,0,L|141:226,1,111.999996582031,2|0,0:0|0:0,0:0:0:0:
252,53,4672,2,0,L|260:108,1,55.9999982910157,2|0,0:0|0:0,0:0:0:0:
153,148,5036,2,0,L|161:92,1,55.9999982910157
285,202,5399,6,0,L|229:193,1,55.9999982910157,2|0,0:0|0:0,0:0:0:0:
190,301,5763,2,0,L|245:292,1,55.9999982910157
374,370,6126,1,2,0:0:0:0:
374,370,6490,1,0,0:0:0:0:
323,308,6672,1,0,0:0:0:0:
218,358,6854,6,0,P|164:371|110:358,2,111.999996582031,2|0|0,0:0|0:0|0:0,0:0:0:0:
294,26,8308,2,0,P|347:12|401:25,2,111.999996582031,2|0|0,0:0|0:0|0:0,0:0:0:0:
105,187,9763,6,0,L|214:211,1,111.999996582031,2|0,0:0|0:0,0:0:0:0:
435,147,10490,2,0,L|380:159,1,55.9999982910157,2|0,0:0|0:0,0:0:0:0:
296,230,10854,2,0,L|350:242,1,55.9999982910157
276,130,11217,6,0,L|263:75,1,55.9999982910157,2|0,0:0|0:0,0:0:0:0:
197,147,11581,2,0,L|184:201,1,55.9999982910157
137,84,11945,1,2,0:0:0:0:
137,84,12308,1,0,0:0:0:0:
115,180,12490,1,0,0:0:0:0:
271,138,12672,6,0,L|191:147,1,80,4|0,1:2|0:0,0:0:0:0:
251,233,13036,2,0,L|331:242,1,80,8|0,0:0|0:0,0:0:0:0:
245,340,13399,1,0,1:0:0:0:
245,340,13763,1,8,0:0:0:0:
329,279,13945,1,0,0:0:0:0:
448,377,14126,6,0,P|482:307|467:230,2,160,0|8|0,1:0|0:0|1:0,0:0:0:0:
448,377,15217,1,8,0:0:0:0:
386,292,15399,1,0,0:0:0:0:
283,356,15581,6,0,P|205:364|139:322,1,160,0|8,1:0|0:0,0:0:0:0:
139,322,16308,2,0,L|160:244,1,80,0|0,1:0|0:0,0:0:0:0:
57,164,16672,2,0,L|78:242,1,80,8|0,0:0|0:0,0:0:0:0:
214,147,17036,6,0,L|132:139,1,80,0|0,1:0|0:0,0:0:0:0:
179,241,17399,2,0,L|258:233,1,80,8|0,0:0|0:0,0:0:0:0:
330,309,17763,1,0,1:0:0:0:
330,309,18126,1,8,0:0:0:0:
415,249,18308,1,0,0:0:0:0:
328,155,18490,6,0,L|313:76,1,80,4|0,1:2|0:0,0:0:0:0:
425,20,18854,2,0,L|410:98,1,80,8|0,0:0|0:0,0:0:0:0:
467,194,19217,1,0,1:0:0:0:
467,194,19581,1,8,0:0:0:0:
402,125,19763,1,0,0:0:0:0:
295,220,19945,6,0,P|218:211|169:151,2,160,0|8|0,1:0|0:0|1:0,0:0:0:0:
295,220,21036,1,8,0:0:0:0:
267,120,21217,1,0,0:0:0:0:
154,186,21399,6,0,B|142:293|142:293|172:335,1,160,4|8,1:2|0:0,0:0:0:0:
173,336,22126,2,0,L|252:342,1,80,4|0,1:1|0:0,0:0:0:0:
317,244,22490,2,0,L|237:250,1,80,8|0,0:0|0:0,0:0:0:0:
119,255,22854,6,0,L|81:241,3,40,4|0|0|0,1:2|3:0|3:0|3:0,0:0:0:0:
107,168,23217,2,0,L|73:144,1,40,8|0,3:2|3:0,0:0:0:0:
117,80,23399,2,0,L|91:48,1,40,0|0,3:0|3:0,0:0:0:0:
169,17,23581,5,0,1:2:0:0:
185,28,23671,1,0,3:0:0:0:
199,42,23762,1,0,3:0:0:0:
210,59,23853,1,0,3:0:0:0:
219,77,23944,1,8,3:2:0:0:
224,96,24035,1,0,3:0:0:0:
225,116,24126,1,0,3:0:0:0:
223,136,24217,1,0,3:0:0:0:
218,155,24308,5,6,1:2:0:0:
380,105,24672,1,8,0:0:0:0:
318,160,24854,2,0,P|298:110|313:57,1,111.999996582031,0|0,1:0|1:0,0:0:0:0:
380,105,25399,1,8,0:0:0:0:
451,257,25763,5,2,1:2:0:0:
289,299,26126,1,8,0:0:0:0:
351,244,26308,2,0,P|371:294|356:347,1,111.999996582031,0|0,1:0|1:0,0:0:0:0:
289,299,26853,1,8,0:0:0:0:
139,362,27217,6,0,L|150:278,1,83.9999974365235,2|0,1:2|0:0,0:0:0:0:
192,273,27581,2,0,L|184:217,1,55.9999982910157,8|0,0:0|0:0,0:0:0:0:
266,238,27945,2,0,L|255:154,1,83.9999974365235,2|0,1:2|0:0,0:0:0:0:
213,149,28309,2,0,L|220:93,1,55.9999982910157,8|0,0:0|0:0,0:0:0:0:
304,97,28672,6,0,L|293:13,2,83.9999974365235,2|0|0,1:2|0:0|0:0,0:0:0:0:
318,208,29399,2,0,L|290:211,3,27.9999991455078,0|0|0|0,3:0|3:0|3:0|3:0,0:0:0:0:
257,238,29763,2,0,L|229:235,3,27.9999991455078,0|0|0|0,3:0|3:0|3:0|3:0,0:0:0:0:
196,261,30126,5,6,1:2:0:0:
140,108,30490,1,8,0:0:0:0:
191,42,30672,2,0,P|220:86|217:141,1,111.999996582031,0|0,1:0|1:0,0:0:0:0:
140,108,31217,1,8,0:0:0:0:
211,260,31581,5,2,1:2:0:0:
364,191,31945,1,8,0:0:0:0:
366,107,32127,2,0,P|314:123|283:169,1,111.999996582031,0|0,1:0|1:0,0:0:0:0:
364,191,32672,1,8,0:0:0:0:
193,88,33036,6,0,B|138:93|138:93|110:83,2,83.9999974365235,4|0|0,1:2|0:0|0:0,0:0:0:0:
319,130,33763,2,0,B|374:135|374:135|401:125,2,83.9999974365235,4|0|0,1:1|0:0|0:0,0:0:0:0:
189,184,34490,6,0,L|109:193,1,80,4|0,1:2|1:0,0:0:0:0:
323,227,34854,2,0,L|402:236,1,80,8|0,0:0|1:0,0:0:0:0:
187,274,35217,5,4,1:1:0:0:
326,299,35399,1,0,1:0:0:0:
156,355,35581,1,8,0:0:0:0:
346,383,35763,1,0,1:0:0:0:
256,284,35945,6,0,B|228:223|256:168|256:168|283:113|256:53,1,240,4|0,1:2|0:0,0:0:0:0:
256,52,37399,6,0,P|216:58|186:83,1,80,6|0,1:2|0:0,0:0:0:0:
337,178,37763,2,0,P|352:141|347:102,1,80,8|0,0:0|0:0,0:0:0:0:
237,171,38126,1,2,1:2:0:0:
239,182,38217,1,0,0:0:0:0:
317,273,38399,1,2,0:0:0:0:
319,262,38490,1,8,0:0:0:0:
415,177,38672,1,0,0:0:0:0:
417,188,38763,1,0,0:0:0:0:
419,199,38854,6,0,P|416:238|398:274,1,80,2|0,1:2|0:0,0:0:0:0:
280,159,39217,2,0,P|315:141|355:139,1,80,8|0,0:0|0:0,0:0:0:0:
292,259,39581,1,2,1:2:0:0:
281,261,39672,1,0,0:0:0:0:
172,193,39854,1,2,0:0:0:0:
183,195,39945,1,8,0:0:0:0:
88,279,40126,1,0,0:0:0:0:
86,268,40217,1,0,0:0:0:0:
84,257,40308,6,0,L|70:178,1,80,2|0,1:2|0:0,0:0:0:0:
185,209,40672,2,0,L|199:130,1,80,8|0,0:0|0:0,0:0:0:0:
300,0,41036,1,2,1:2:0:0:
129,61,41217,1,2,0:0:0:0:
303,99,41399,1,8,0:0:0:0:
199,130,41580,1,0,0:0:0:0:
313,192,41763,6,0,L|343:217,3,40,2|0|0|0,1:2|3:0|3:0|3:0,0:0:0:0:
391,155,42126,2,0,L|426:171,1,40,8|0,3:2|3:0,0:0:0:0:
470,104,42308,2,0,L|508:110,1,40,0|0,3:0|3:0,0:0:0:0:
504,27,42490,5,2,1:2:0:0:
484,22,42580,1,0,3:0:0:0:
464,21,42671,1,0,3:0:0:0:
444,21,42762,1,0,3:0:0:0:
424,24,42853,1,8,3:2:0:0:
405,30,42944,1,0,3:0:0:0:
387,38,43035,1,0,3:0:0:0:
369,48,43126,1,0,3:0:0:0:
354,60,43217,6,0,P|315:69|275:65,1,80,6|0,1:2|0:0,0:0:0:0:
148,179,43581,2,0,P|187:175|226:185,1,80,8|0,0:0|0:0,0:0:0:0:
390,241,43945,1,2,1:2:0:0:
388,252,44036,1,0,0:0:0:0:
293,345,44218,1,2,0:0:0:0:
291,334,44308,1,8,0:0:0:0:
220,225,44491,1,0,0:0:0:0:
218,236,44582,1,0,0:0:0:0:
216,247,44672,6,0,P|195:280|159:297,1,80,6|0,1:2|0:0,0:0:0:0:
89,164,45036,2,0,P|128:165|160:188,1,80,8|0,0:0|0:0,0:0:0:0:
18,253,45399,2,0,P|0:217|6:177,1,80,6|0,1:1|0:0,0:0:0:0:
11,167,45672,1,0,0:0:0:0:
18,157,45763,1,8,0:0:0:0:
108,74,45945,1,0,0:0:0:0:
165,215,46126,5,6,1:2:0:0:
169,219,46308,1,0,1:0:0:0:
233,114,46490,1,8,0:0:0:0:
284,253,46672,1,0,0:0:0:0:
326,69,46854,1,6,1:1:0:0:
369,253,47036,1,0,0:0:0:0:
416,114,47217,1,8,0:0:0:0:
479,219,47399,1,0,0:0:0:0:
512,55,47581,6,0,B|451:65|406:31|406:31|371:47,1,150,4|4,1:2|1:1,0:0:0:0:
272,172,48126,2,0,B|333:182|378:148|378:148|413:164,1,150,4|4,1:2|1:1,0:0:0:0:
460,293,48672,2,0,B|436:282|436:282|407:304|366:298,1,100,4|4,1:2|1:1,0:0:0:0:
164,365,49036,5,4,1:3:0:0:
348,298,49399,1,4,1:3:0:0:
214,230,49763,5,4,1:3:0:0:
308,178,49945,1,4,1:3:0:0:
204,126,50126,1,4,1:3:0:0:
308,74,50308,1,4,1:3:0:0:
138,25,50490,6,0,P|103:43|77:74,1,80,6|0,1:2|0:0,0:0:0:0:
224,141,50854,2,0,P|233:102|227:63,1,80,8|0,0:0|0:0,0:0:0:0:
121,172,51217,1,2,1:2:0:0:
123,183,51308,1,0,0:0:0:0:
211,276,51490,1,0,0:0:0:0:
213,265,51581,1,8,0:0:0:0:
299,169,51763,1,0,0:0:0:0:
301,180,51854,1,0,0:0:0:0:
303,191,51945,6,0,P|263:198|225:187,1,80,2|0,1:2|0:0,0:0:0:0:
316,99,52308,2,0,P|355:91|393:102,1,80,8|0,0:0|0:0,0:0:0:0:
341,252,52672,1,2,1:2:0:0:
507,206,52854,1,2,0:0:0:0:
389,328,53036,1,8,0:0:0:0:
502,296,53217,1,0,0:0:0:0:
407,165,53399,6,0,L|371:146,3,40,2|0|0|0,1:2|3:0|3:0|3:0,0:0:0:0:
327,211,53763,2,0,L|287:201,1,40,8|0,3:2|3:0,0:0:0:0:
261,276,53945,2,0,L|220:277,1,40,0|0,3:0|3:0,0:0:0:0:
214,355,54126,5,2,1:2:0:0:
232,363,54216,1,0,3:0:0:0:
251,369,54307,1,0,3:0:0:0:
270,372,54398,1,0,3:0:0:0:
290,373,54489,1,8,3:2:0:0:
310,372,54580,1,0,3:0:0:0:
330,368,54671,1,0,3:0:0:0:
349,361,54762,1,0,3:0:0:0:
366,352,54854,5,6,1:2:0:0:
389,175,55217,1,8,0:0:0:0:
322,124,55399,2,0,P|305:176|325:231,1,111.999996582031,0|0,1:0|1:0,0:0:0:0:
389,175,55945,1,8,0:0:0:0:
246,265,56308,5,6,1:2:0:0:
185,108,56672,1,8,0:0:0:0:
160,188,56854,1,0,1:0:0:0:
135,268,57036,1,4,1:1:0:0:
110,348,57217,5,0,1:0:0:0:
107,250,57399,1,8,1:2:0:0:
188,206,57581,1,0,1:0:0:0:
185,108,57763,6,0,P|107:100|41:143,1,160,6|8,1:2|0:0,0:0:0:0:
188,206,58308,1,0,0:0:0:0:
199,210,58399,1,0,0:0:0:0:
210,213,58490,2,0,P|249:216|286:203,1,80,6|0,1:1|0:0,0:0:0:0:
227,56,58854,2,0,P|224:95|237:132,1,80,8|0,0:0|0:0,0:0:0:0:
361,191,59217,5,6,1:2:0:0:
365,195,59399,1,0,1:2:0:0:
204,214,59581,1,8,1:2:0:0:
200,218,59763,1,0,1:2:0:0:
223,384,59945,5,6,1:1:0:0:
388,361,60126,1,0,1:2:0:0:
200,218,60308,1,8,1:2:0:0:
365,195,60490,1,8,1:2:0:0:
223,384,60672,6,0,L|147:356,1,80,6|2,1:2|0:0,0:0:0:0:
138,348,60945,1,0,0:0:0:0:
129,339,61036,1,8,0:0:0:0:
92,226,61217,2,0,L|101:187,2,40,2|0|2,0:0|0:0|1:2,0:0:0:0:
60,348,61581,1,0,0:0:0:0:
189,290,61763,1,8,0:0:0:0:
191,278,61854,1,0,0:0:0:0:
193,266,61945,2,0,L|189:226,1,40
120,151,62126,6,0,L|239:138,1,120,2|0,1:2|0:0,0:0:0:0:
252,121,62490,2,0,L|331:133,1,80,8|0,0:0|0:0,0:0:0:0:
458,196,62854,2,0,P|428:255|388:201,1,160,2|8,1:2|0:0,0:0:0:0:
389,188,63308,1,0,0:0:0:0:
393,176,63399,2,0,L|405:137,1,40
441,47,63581,5,2,1:2:0:0:
429,51,63672,1,0,0:0:0:0:
339,104,63854,1,2,0:0:0:0:
327,100,63945,1,8,0:0:0:0:
238,23,64126,1,0,0:0:0:0:
226,27,64217,1,0,0:0:0:0:
214,31,64308,6,0,L|176:44,3,40,2|0|2|0,1:2|0:0|0:0|0:0,0:0:0:0:
165,121,64672,2,0,L|125:113,3,40,8|0|2|0,0:0|0:0|0:0|0:0,0:0:0:0:
72,60,65036,6,0,B|83:144|83:144|70:177,1,120,2|0,1:2|0:0,0:0:0:0:
44,207,65399,2,0,L|133:241,1,80
273,167,65763,2,0,B|200:122|200:122|165:121,1,120,2|0,1:2|0:0,0:0:0:0:
132,144,66126,1,0,0:0:0:0:
171,247,66308,1,0,0:0:0:0:
190,254,66399,1,0,0:0:0:0:
209,261,66490,6,0,B|254:239|254:239|363:247,1,160,6|8,1:2|0:0,0:0:0:0:
397,146,67036,1,2,0:0:0:0:
386,141,67126,1,0,0:0:0:0:
374,136,67217,2,0,L|294:130,1,80,2|0,1:2|0:0,0:0:0:0:
363,247,67581,2,0,L|443:253,1,80,8|0,0:0|0:0,0:0:0:0:
346,353,67945,6,0,L|266:347,1,80,6|2,1:2|0:0,0:0:0:0:
243,355,68217,1,0,0:0:0:0:
220,362,68308,2,0,L|183:346,1,40,8|0,0:0|0:0,0:0:0:0:
150,255,68490,2,0,B|155:215|155:215|177:182,2,80,2|6|0,0:0|1:1|0:0,0:0:0:0:
282,320,69036,1,8,0:0:0:0:
301,306,69126,1,0,0:0:0:0:
319,290,69217,2,0,L|316:250,1,40
230,198,69399,5,6,1:2:0:0:
211,206,69489,1,0,0:0:0:0:
192,212,69581,1,2,1:2:0:0:
172,215,69671,1,0,0:0:0:0:
153,216,69763,1,8,0:2:0:0:
133,214,69853,1,0,0:0:0:0:
113,210,69944,1,0,0:0:0:0:
94,203,70035,1,0,0:0:0:0:
70,182,70126,6,0,L|109:177,1,40,2|0,1:2|0:0,0:0:0:0:
150,112,70308,2,0,L|189:116,1,40,2|0,0:2|0:0,0:0:0:0:
259,176,70490,2,0,L|298:171,1,40,8|0,0:0|0:0,0:0:0:0:
347,86,70672,2,0,L|386:90,1,40,2|0,0:2|0:0,0:0:0:0:
488,126,70854,6,0,B|503:187|473:222|473:222|495:266,1,150,4|4,1:2|1:1,0:0:0:0:
366,384,71399,2,0,B|351:323|381:288|381:288|359:244,1,150,4|4,1:2|1:1,0:0:0:0:
246,208,71945,2,0,L|238:256,1,50,4|0,1:2|0:0,0:0:0:0:
239,331,72126,6,0,B|255:293|238:257|238:257|261:229|261:229|235:160|257:103,1,239.999992675781,4|0,1:2|0:0,0:0:0:0:
257,105,73763,6,0,L|178:91,1,80,4|0,1:2|0:0,0:0:0:0:
126,199,74126,2,0,L|205:185,1,80,8|0,0:0|0:0,0:0:0:0:
161,293,74490,1,0,1:0:0:0:
161,293,74854,1,8,0:0:0:0:
250,239,75036,1,0,0:0:0:0:
333,355,75217,6,0,P|410:352|459:291,2,160,0|8|0,1:0|0:0|1:0,0:0:0:0:
241,313,76126,2,0,L|246:273,1,40
322,283,76308,2,0,L|316:243,1,40,8|0,0:0|0:0,0:0:0:0:
256,201,76490,2,0,L|261:161,1,40
342,100,76672,6,0,B|228:79|228:79|187:95,1,160,0|8,1:0|0:0,0:0:0:0:
187,95,77399,2,0,L|203:173,1,80,0|0,1:0|0:0,0:0:0:0:
93,223,77763,2,0,L|109:145,1,80,8|0,0:0|0:0,0:0:0:0:
245,248,78126,6,0,L|167:264,1,80,0|0,1:0|0:0,0:0:0:0:
244,329,78490,2,0,L|322:345,1,80,8|0,0:0|0:0,0:0:0:0:
440,303,78854,1,0,1:0:0:0:
440,303,79217,1,8,0:0:0:0:
374,222,79399,1,0,0:0:0:0:
269,291,79581,6,0,L|190:277,1,80,4|0,1:2|0:0,0:0:0:0:
93,192,79945,2,0,L|171:178,1,80,8|0,0:0|0:0,0:0:0:0:
92,292,80308,1,0,1:0:0:0:
92,292,80672,1,8,0:0:0:0:
11,202,80854,1,0,0:0:0:0:
107,109,81036,6,0,P|182:125|216:195,2,160,0|8|0,1:0|0:0|1:0,0:0:0:0:
11,153,81945,2,0,L|16:193,1,40
92,183,82127,2,0,L|86:223,1,40,8|0,0:0|0:0,0:0:0:0:
26,265,82309,2,0,L|31:305,1,40
85,357,82490,6,0,B|202:367|202:367|235:340,1,160,4|8,1:2|0:0,0:0:0:0:
235,340,83217,2,0,L|221:261,1,80,4|0,1:1|0:0,0:0:0:0:
331,191,83581,2,0,L|317:269,1,80,8|0,0:0|0:0,0:0:0:0:
250,184,83945,5,4,1:2:0:0:
250,184,84672,2,0,L|215:163,3,40
185,182,85036,2,0,L|150:161,3,40
114,164,85399,5,6,1:2:0:0:
269,99,85763,1,8,0:0:0:0:
270,15,85945,2,0,P|321:34|350:81,1,111.999996582031,0|0,1:0|1:0,0:0:0:0:
269,99,86490,1,8,0:0:0:0:
385,220,86854,5,2,1:2:0:0:
217,220,87217,1,8,0:0:0:0:
158,281,87399,2,0,P|208:303|262:291,1,111.999996582031,0|0,1:0|1:0,0:0:0:0:
217,220,87945,1,8,0:0:0:0:
368,371,88308,6,0,L|357:287,1,83.9999974365235,2|0,1:2|0:0,0:0:0:0:
315,282,88672,2,0,L|323:226,1,55.9999982910157,8|0,0:0|0:0,0:0:0:0:
241,247,89036,2,0,L|252:163,1,83.9999974365235,2|0,1:2|0:0,0:0:0:0:
294,158,89400,2,0,L|287:102,1,55.9999982910157,8|0,0:0|0:0,0:0:0:0:
203,106,89763,6,0,L|214:22,2,83.9999974365235,2|0|2,1:2|0:0|1:2,0:0:0:0:
189,217,90490,2,0,L|217:220,3,27.9999991455078,0|0|0|0,3:0|3:0|3:0|3:0,0:0:0:0:
250,247,90854,2,0,L|278:244,3,27.9999991455078,0|0|0|0,3:0|3:0|3:0|3:0,0:0:0:0:
311,270,91217,5,6,1:2:0:0:
395,124,91581,1,8,0:0:0:0:
464,173,91763,2,0,P|479:121|460:70,1,111.999996582031,0|0,1:0|1:0,0:0:0:0:
395,124,92308,1,8,0:0:0:0:
280,247,92672,5,2,1:2:0:0:
140,153,93036,1,8,0:0:0:0:
89,220,93218,2,0,P|58:174|63:120,1,111.999996582031,0|0,1:0|1:0,0:0:0:0:
140,153,93763,1,8,0:0:0:0:
319,88,94126,6,0,B|374:93|374:93|402:83,2,83.9999974365235,4|0|0,1:2|0:0|0:0,0:0:0:0:
193,130,94853,2,0,B|138:135|138:135|111:125,2,83.9999974365235,4|0|0,1:1|0:0|0:0,0:0:0:0:
289,185,95581,6,0,L|294:224,3,40,6|0|0|0,1:2|0:0|0:0|0:0,0:0:0:0:
223,245,96308,2,0,L|217:284,3,40,2|0|0|0,0:0|0:0|0:0|0:0,0:0:0:0:
295,350,97036,6,0,B|337:327|337:327|366:350|406:346,1,120,6|6,1:2|1:1,0:0:0:0:
296,248,97581,2,0,B|281:236|281:236|260:234,1,40,6|0,1:2|0:0,0:0:0:0:
187,265,97763,5,4,1:3:0:0:
261,121,97945,1,4,1:3:0:0:
114,186,98126,1,4,1:3:0:0:
159,89,98308,1,4,1:3:0:0:
54,101,98490,6,0,P|40:138|37:178,1,80,6|0,1:2|0:0,0:0:0:0:
129,270,98854,2,0,P|142:232|145:192,1,80,8|0,0:0|0:0,0:0:0:0:
125,66,99217,1,2,1:2:0:0:
123,77,99308,1,0,0:0:0:0:
225,155,99490,1,2,0:0:0:0:
223,144,99581,1,8,0:0:0:0:
321,62,99763,1,0,0:0:0:0:
323,73,99854,1,0,0:0:0:0:
325,84,99945,6,0,P|286:88|248:77,1,80,2|0,1:2|0:0,0:0:0:0:
379,13,100308,2,0,P|418:9|456:20,1,80,8|0,0:0|0:0,0:0:0:0:
441,166,100672,1,2,1:2:0:0:
429,170,100763,1,0,0:0:0:0:
311,221,100945,1,2,0:0:0:0:
323,225,101036,1,8,0:0:0:0:
424,304,101217,1,0,0:0:0:0:
412,308,101308,1,0,0:0:0:0:
400,312,101399,6,0,L|322:295,1,80,2|0,1:2|0:0,0:0:0:0:
177,229,101763,2,0,L|255:212,1,80,8|0,0:0|0:0,0:0:0:0:
394,52,102126,1,2,1:2:0:0:
360,205,102308,1,2,0:0:0:0:
257,125,102490,1,8,0:0:0:0:
177,229,102672,1,0,0:0:0:0:
98,153,102854,6,0,L|105:113,3,40,2|0|0|0,1:2|3:0|3:0|3:0,0:0:0:0:
175,87,103217,2,0,L|192:50,1,40,8|0,3:2|3:0,0:0:0:0:
267,43,103399,2,0,L|293:11,1,40,0|0,3:0|3:0,0:0:0:0:
367,24,103581,5,2,1:2:0:0:
381,37,103671,1,0,3:0:0:0:
394,52,103762,1,0,3:0:0:0:
405,69,103853,1,0,3:0:0:0:
413,88,103945,1,8,3:2:0:0:
418,107,104036,1,0,3:0:0:0:
422,126,104126,1,0,3:0:0:0:
422,146,104217,1,0,3:0:0:0:
420,166,104308,6,0,P|420:205|431:244,1,80,6|0,1:2|0:0,0:0:0:0:
338,155,104672,2,0,P|303:134|265:125,1,80,8|0,0:0|0:0,0:0:0:0:
141,174,105036,1,2,1:2:0:0:
153,177,105126,1,0,0:0:0:0:
227,294,105308,1,2,0:0:0:0:
215,297,105398,1,8,0:0:0:0:
84,339,105581,1,0,0:0:0:0:
81,327,105671,1,0,0:0:0:0:
78,315,105763,6,0,P|80:275|98:239,1,80,6|0,1:2|0:0,0:0:0:0:
242,243,106126,2,0,P|206:260|166:263,1,80,8|0,0:0|0:0,0:0:0:0:
267,175,106490,2,0,P|305:185|336:210,1,80,6|0,1:1|0:0,0:0:0:0:
343,220,106763,1,0,0:0:0:0:
347,231,106854,1,8,0:0:0:0:
440,154,107036,1,0,0:0:0:0:
344,38,107217,5,6,1:2:0:0:
340,42,107399,1,0,1:0:0:0:
259,128,107581,1,8,0:0:0:0:
174,3,107763,1,0,0:0:0:0:
108,140,107945,1,6,1:1:0:0:
254,42,108126,1,0,0:0:0:0:
187,178,108308,1,8,0:0:0:0:
102,52,108490,1,0,0:0:0:0:
0,148,108672,6,0,B|46:129|46:129|88:156|142:140,1,150,4|4,1:2|1:1,0:0:0:0:
268,251,109217,2,0,B|222:232|222:232|180:259|126:243,1,150,4|4,1:2|1:1,0:0:0:0:
51,356,109763,2,0,B|78:345|78:345|107:363|146:352,1,100,4|4,1:2|1:1,0:0:0:0:
348,365,110126,5,4,1:3:0:0:
164,298,110489,1,4,1:3:0:0:
298,230,110853,5,4,1:3:0:0:
204,178,111035,1,4,1:3:0:0:
308,126,111216,1,4,1:3:0:0:
204,74,111398,1,4,1:3:0:0:
360,49,111581,6,0,L|390:123,1,80,6|0,1:2|0:0,0:0:0:0:
275,223,111945,2,0,L|298:146,1,80,8|0,0:0|0:0,0:0:0:0:
398,227,112308,1,2,1:2:0:0:
408,233,112399,1,0,0:0:0:0:
301,303,112581,1,2,0:0:0:0:
291,309,112672,1,8,0:0:0:0:
177,249,112854,1,0,0:0:0:0:
170,238,112945,1,0,0:0:0:0:
163,227,113036,6,0,P|168:188|186:152,1,80,2|0,1:2|0:0,0:0:0:0:
285,65,113399,2,0,P|280:104|262:140,1,80,8|0,0:0|0:0,0:0:0:0:
80,97,113763,1,2,1:2:0:0:
163,227,113945,1,2,0:0:0:0:
262,140,114126,1,8,0:0:0:0:
346,226,114308,1,0,0:0:0:0:
349,124,114490,6,0,L|342:85,3,40,2|0|0|0,1:2|3:0|3:0|3:0,0:0:0:0:
267,86,114854,2,0,L|250:50,1,40,8|0,3:2|3:0,0:0:0:0:
177,70,115036,2,0,L|151:39,1,40,0|0,3:0|3:0,0:0:0:0:
85,78,115217,5,2,1:2:0:0:
80,97,115307,1,0,3:0:0:0:
77,116,115398,1,0,3:0:0:0:
77,136,115489,1,0,3:0:0:0:
80,156,115580,1,8,3:2:0:0:
86,175,115671,1,0,3:0:0:0:
94,193,115762,1,0,3:0:0:0:
105,210,115853,1,0,3:0:0:0:
119,224,115945,5,6,1:2:0:0:
191,80,116308,1,8,0:0:0:0:
260,128,116490,2,0,P|274:75|253:24,1,111.999996582031,0|0,1:0|1:0,0:0:0:0:
191,80,117036,1,8,0:0:0:0:
252,266,117399,5,6,1:2:0:0:
327,108,117763,1,8,0:0:0:0:
352,188,117945,1,0,1:0:0:0:
377,268,118127,1,4,1:1:0:0:
402,348,118308,5,0,1:0:0:0:
405,250,118490,1,8,1:2:0:0:
324,206,118672,1,0,1:0:0:0:
327,108,118854,6,0,P|405:100|471:143,1,160,6|8,1:2|0:0,0:0:0:0:
324,206,119399,1,0,0:0:0:0:
313,210,119490,1,0,0:0:0:0:
302,213,119581,2,0,P|263:216|226:203,1,80,6|0,1:1|0:0,0:0:0:0:
285,56,119945,2,0,P|288:95|275:132,1,80,8|0,0:0|0:0,0:0:0:0:
151,191,120308,5,6,1:2:0:0:
147,195,120490,1,0,1:2:0:0:
308,214,120672,1,8,1:2:0:0:
312,218,120854,1,0,1:2:0:0:
289,384,121036,5,6,1:1:0:0:
124,361,121217,1,0,1:2:0:0:
312,218,121399,1,8,1:2:0:0:
147,195,121581,1,8,1:2:0:0:
289,384,121763,6,0,L|367:368,1,80,6|2,1:2|0:0,0:0:0:0:
377,362,122036,1,0,0:0:0:0:
386,355,122126,1,8,0:0:0:0:
446,242,122308,1,2,0:0:0:0:
443,230,122399,1,0,0:0:0:0:
440,218,122490,2,0,B|424:143|424:143|432:100,1,120,2|0,1:2|0:0,0:0:0:0:
453,55,122854,2,0,L|373:64,1,80,8|0,0:0|0:0,0:0:0:0:
254,56,123217,6,0,B|276:90|276:90|269:169,1,120,2|0,1:2|0:0,0:0:0:0:
234,204,123581,2,0,L|308:234,1,80,8|0,0:0|0:0,0:0:0:0:
407,355,123945,1,2,1:2:0:0:
251,301,124126,1,2,0:0:0:0:
355,296,124308,1,10,0:0:0:0:
206,366,124489,1,2,0:0:0:0:
77,321,124672,6,0,L|64:201,1,120,2|0,1:2|0:0,0:0:0:0:
31,177,125036,2,0,L|50:99,1,80,8|0,0:0|0:0,0:0:0:0:
139,18,125399,6,0,L|150:137,1,120,2|0,1:2|0:0,0:0:0:0:
164,167,125763,1,8,0:0:0:0:
258,98,125945,1,0,0:0:0:0:
273,262,126126,6,0,L|312:267,3,40,2|0|0|0,1:2|3:0|3:0|3:0,0:0:0:0:
343,202,126490,2,0,L|381:196,1,40,8|0,3:2|3:0,0:0:0:0:
395,125,126672,2,0,L|431:109,1,40,2|0,3:2|3:0,0:0:0:0:
424,36,126854,5,2,1:2:0:0:
405,33,126944,1,0,3:0:0:0:
385,32,127035,1,0,3:0:0:0:
365,34,127126,1,0,3:0:0:0:
345,38,127217,1,8,3:2:0:0:
327,45,127308,1,0,3:0:0:0:
309,54,127399,1,0,3:0:0:0:
293,66,127490,1,0,3:0:0:0:
278,80,127581,6,0,L|238:85,3,40,6|0|0|0,1:2|0:0|0:0|0:0,0:0:0:0:
217,170,127945,2,0,L|179:155,3,40,8|0|0|0,0:0|0:0|0:0|0:0,0:0:0:0:
142,249,128308,1,2,1:2:0:0:
126,235,128399,1,0,0:0:0:0:
110,221,128490,1,2,0:0:0:0:
94,207,128581,1,0,0:0:0:0:
78,193,128672,2,0,L|66:113,1,80,8|0,0:0|0:0,0:0:0:0:
135,7,129036,5,6,1:2:0:0:
154,26,129126,1,0,0:0:0:0:
173,46,129217,1,2,0:0:0:0:
192,66,129308,1,0,0:0:0:0:
211,87,129399,2,0,L|250:94,1,40,8|0,0:0|0:0,0:0:0:0:
374,36,129581,6,0,L|464:15,2,80,0|4|0,0:0|1:1|0:0,0:0:0:0:
350,52,130036,1,0,0:0:0:0:
347,80,130126,2,0,L|357:169,1,80,8|0,0:0|0:0,0:0:0:0:
393,307,130490,6,0,L|353:313,3,40,6|0|2|0,1:2|0:0|1:0|0:0,0:0:0:0:
291,274,130854,2,0,L|251:268,3,40,8|0|0|0,0:0|0:0|0:0|0:0,0:0:0:0:
202,322,131217,2,0,L|162:328,3,40,2|0|2|0,1:2|0:0|0:0|0:0,0:0:0:0:
99,364,131581,2,0,L|59:358,3,40,8|0|0|0,0:0|0:0|0:0|0:0,0:0:0:0:
12,295,131945,6,0,L|30:259,1,40,6|0,1:2|0:0,0:0:0:0:
97,291,132126,2,0,L|126:263,1,40,0|0,1:0|0:0,0:0:0:0:
127,186,132308,2,0,L|163:169,1,40,0|0,1:0|0:0,0:0:0:0:
194,237,132490,2,0,L|234:234,1,40,0|0,1:0|0:0,0:0:0:0:
285,290,132672,6,0,L|323:278,1,40,0|0,1:0|0:0,0:0:0:0:
304,208,132854,2,0,L|336:184,1,40,0|0,1:0|0:0,0:0:0:0:
412,197,133036,2,0,L|434:163,1,40,8|0,1:2|0:0,0:0:0:0:
374,122,133217,2,0,L|383:82,1,40,0|0,1:0|0:0,0:0:0:0:
328,31,133399,5,6,1:2:0:0:
221,139,133581,1,2,0:0:0:0:
213,148,133672,1,0,0:0:0:0:
205,157,133763,2,0,L|126:141,1,80,8|0,0:0|0:0,0:0:0:0:
12,47,134126,2,0,B|48:27|48:27|126:34,1,120,2|0,1:2|0:0,0:0:0:0:
162,60,134490,2,0,L|236:30,1,80,8|2,0:0|0:0,0:0:0:0:
396,26,134854,6,0,P|344:72|314:10,1,160,2|8,1:2|0:0,0:0:0:0:
470,6,135399,1,0,0:0:0:0:
471,17,135490,1,0,0:0:0:0:
473,28,135581,2,0,L|477:67,1,40,2|0,1:2|0:0,0:0:0:0:
426,118,135763,2,0,L|421:157,1,40,2|0,0:0|0:0,0:0:0:0:
361,199,135945,1,8,0:0:0:0:
362,210,136036,1,0,0:0:0:0:
364,221,136127,2,0,L|368:260,1,40
419,327,136308,6,0,B|339:341|339:341|303:325,1,120,2|0,1:2|0:0,0:0:0:0:
276,297,136672,1,8,0:0:0:0:
172,360,136854,1,2,0:0:0:0:
67,301,137036,1,2,1:2:0:0:
69,289,137126,1,0,0:0:0:0:
71,277,137217,2,0,L|80:238,1,40,2|0,0:0|0:0,0:0:0:0:
164,171,137399,1,8,0:0:0:0:
232,252,137581,1,0,0:0:0:0:
296,174,137763,6,0,L|328:150,1,40,2|0,1:2|3:0,0:0:0:0:
387,194,137945,2,0,L|426:189,1,40,2|0,3:2|3:0,0:0:0:0:
455,256,138126,2,0,L|491:272,1,40,8|0,0:0|3:0,0:0:0:0:
483,345,138308,2,0,L|506:377,1,40,2|0,3:2|3:0,0:0:0:0:
378,308,138490,6,0,L|382:268,1,40,2|0,1:2|3:0,0:0:0:0:
303,326,138672,2,0,L|307:365,1,40,2|0,3:2|3:0,0:0:0:0:
231,296,138854,2,0,L|235:256,1,40,8|0,0:0|3:0,0:0:0:0:
156,314,139036,2,0,L|160:353,1,40,2|0,3:2|3:0,0:0:0:0:
86,284,139217,6,0,B|101:247|101:247|130:219,1,80,6|0,1:2|0:0,0:0:0:0:
154,204,139490,1,0,0:0:0:0:
182,205,139581,2,0,L|261:199,1,80,8|0,0:0|0:0,0:0:0:0:
369,264,139945,1,2,1:2:0:0:
387,255,140036,1,0,0:0:0:0:
405,247,140126,1,2,0:0:0:0:
423,239,140217,1,0,0:0:0:0:
441,229,140308,2,0,L|426:190,1,40,8|0,0:0|0:0,0:0:0:0:
485,146,140490,2,0,L|453:119,1,40,2|0,0:0|0:0,0:0:0:0:
353,125,140672,5,6,1:2:0:0:
299,38,140854,1,2,0:0:0:0:
280,44,140945,1,0,0:0:0:0:
260,49,141036,2,0,L|221:59,1,40,8|0,0:0|0:0,0:0:0:0:
153,137,141217,2,0,L|191:147,1,40,2|0,0:0|0:0,0:0:0:0:
319,204,141399,5,6,1:1:0:0:
199,250,141581,1,2,1:2:0:0:
365,324,141763,1,8,0:0:0:0:
245,370,141945,1,0,0:0:0:0:
429,383,142126,6,0,L|435:303,1,80,6|0,1:2|1:0,0:0:0:0:
460,287,142399,1,0,0:0:0:0:
475,263,142490,2,0,L|459:184,1,80,8|0,0:0|0:0,0:0:0:0:
335,109,142854,6,0,L|360:226,1,120,6|0,1:1|0:0,0:0:0:0:
341,246,143217,2,0,L|331:325,1,80,8|0,0:0|0:0,0:0:0:0:
213,282,143581,6,0,B|170:263|170:263|126:293|71:280,1,150,6|6,1:2|1:1,0:0:0:0:
0,167,144126,2,0,B|43:148|43:148|87:178|142:165,1,150,6|6,1:2|1:1,0:0:0:0:
191,46,144672,2,0,B|172:28|172:28|148:22,1,50,6|0,1:2|0:0,0:0:0:0:
79,28,144854,6,0,B|122:26|152:56|152:56|194:52|228:25|228:25|266:34|303:26,1,239.999992675781,6|0,1:2|0:0,0:0:0:0:
303,26,146490,6,0,L|321:90,1,55.9999982910157,2|0,0:0|0:0,0:0:0:0:
389,112,146854,2,0,L|407:176,1,55.9999982910157,2|0,0:0|0:0,0:0:0:0:
475,198,147217,2,0,L|493:262,3,55.9999982910157,2|2|2|2,0:0|0:0|0:0|0:0,0:0:0:0:
404,166,147945,6,0,L|340:184,1,55.9999982910157,2|0,0:0|0:0,0:0:0:0:
318,252,148309,2,0,L|254:270,1,55.9999982910157,2|0,0:0|0:0,0:0:0:0:
232,338,148672,2,0,L|168:356,3,55.9999982910157,2|2|2|2,0:0|0:0|0:0|0:0,0:0:0:0:
264,267,149399,6,0,L|246:203,1,55.9999982910157,2|0,0:0|0:0,0:0:0:0:
178,181,149763,2,0,L|160:117,1,55.9999982910157,2|0,0:0|0:0,0:0:0:0:
92,95,150126,2,0,L|74:31,3,55.9999982910157,2|2|2|2,0:0|0:0|0:0|0:0,0:0:0:0:
163,127,150854,6,0,L|227:145,1,55.9999982910157,2|0,0:0|0:0,0:0:0:0:
249,213,151218,2,0,L|313:231,1,55.9999982910157,2|0,0:0|0:0,0:0:0:0:
335,299,151581,2,0,L|399:317,1,55.9999982910157,2|2,0:0|0:0,0:0:0:0:
497,275,151945,2,0,L|443:259,1,55.9999982910157,2|2,0:0|0:0,0:0:0:0:
335,299,152308,6,0,L|321:244,1,55.9999982910157,2|0,0:0|0:0,0:0:0:0:
246,225,152672,2,0,L|232:170,1,55.9999982910157,2|0,0:0|0:0,0:0:0:0:
284,114,153036,2,0,L|270:59,1,55.9999982910157,2|0,0:0|0:0,0:0:0:0:
199,32,153399,1,2,0:0:0:0:
143,85,153581,6,0,L|171:195,1,111.999996582031,2|0,0:0|0:0,0:0:0:0:
215,67,154126,2,0,L|229:122,1,55.9999982910157,2|0,0:0|0:0,0:0:0:0:
287,48,154490,2,0,L|301:103,1,55.9999982910157,2|0,0:0|0:0,0:0:0:0:
385,142,154854,2,0,L|371:87,1,55.9999982910157,2|0,0:0|0:0,0:0:0:0:
467,183,155217,6,0,L|453:238,1,55.9999982910157,2|0,0:0|0:0,0:0:0:0:
405,294,155581,1,2,0:0:0:0:
334,313,155763,1,2,0:0:0:0:
269,280,155945,1,2,0:0:0:0:
202,251,156126,1,2,0:0:0:0:
131,269,156308,1,2,0:0:0:0:
87,327,156490,1,2,0:0:0:0:
194,365,156672,5,0,0:0:0:0:
164,365,158126,5,4,1:3:0:0:
348,298,158489,1,4,1:3:0:0:
214,230,158853,5,4,1:3:0:0:
308,178,159035,1,4,1:3:0:0:
204,126,159216,1,4,1:3:0:0:
308,74,159398,1,4,1:3:0:0:
168,14,159581,6,0,P|140:41|123:77,1,80,6|0,1:2|0:0,0:0:0:0:
169,210,159945,2,0,P|197:183|214:147,1,80,8|0,0:0|0:0,0:0:0:0:
82,167,160308,1,2,1:2:0:0:
80,179,160399,1,0,0:0:0:0:
147,288,160581,1,2,0:0:0:0:
145,276,160672,1,8,0:0:0:0:
253,207,160854,1,0,0:0:0:0:
255,219,160945,1,0,0:0:0:0:
257,231,161036,6,0,P|295:240|335:234,1,80,2|0,1:2|0:0,0:0:0:0:
450,172,161399,2,0,P|411:162|371:168,1,80,8|0,0:0|0:0,0:0:0:0:
384,310,161763,1,2,1:2:0:0:
266,151,161945,1,2,0:0:0:0:
280,340,162126,1,8,0:0:0:0:
211,246,162308,1,0,0:0:0:0:
182,340,162490,6,0,L|142:334,3,40,2|0|0|0,1:2|3:0|3:0|3:0,0:0:0:0:
142,262,162854,2,0,L|104:245,1,40,8|0,3:2|3:0,0:0:0:0:
123,176,163036,2,0,L|91:150,1,40,0|0,3:0|3:0,0:0:0:0:
126,88,163217,5,2,1:2:0:0:
144,81,163307,1,0,3:0:0:0:
164,76,163398,1,0,3:0:0:0:
184,74,163489,1,0,3:0:0:0:
204,74,163580,1,8,3:2:0:0:
223,76,163671,1,0,3:0:0:0:
243,81,163762,1,0,3:0:0:0:
261,88,163853,1,0,3:0:0:0:
279,97,163945,5,4,1:2:0:0:
400,214,164308,1,8,0:0:0:0:
330,260,164490,2,0,P|373:293|428:293,1,111.999996582031,0|0,1:0|1:0,0:0:0:0:
400,214,165036,1,8,0:0:0:0:
246,265,165399,5,6,1:2:0:0:
185,108,165763,1,8,0:0:0:0:
160,188,165945,1,0,1:0:0:0:
135,268,166127,1,4,1:1:0:0:
110,348,166308,5,0,1:0:0:0:
107,250,166490,1,8,1:2:0:0:
188,206,166672,1,0,1:0:0:0:
185,108,166854,6,0,P|107:100|41:143,1,160,6|8,1:2|0:0,0:0:0:0:
188,206,167399,1,0,0:0:0:0:
199,210,167490,1,0,0:0:0:0:
210,213,167581,2,0,P|249:216|286:203,1,80,6|0,1:1|0:0,0:0:0:0:
227,56,167945,2,0,P|224:95|237:132,1,80,8|0,0:0|0:0,0:0:0:0:
361,191,168308,5,6,1:2:0:0:
365,195,168490,1,0,1:2:0:0:
204,214,168672,1,8,1:2:0:0:
200,218,168854,1,0,1:2:0:0:
223,384,169036,5,6,1:1:0:0:
388,361,169217,1,0,1:2:0:0:
200,218,169399,1,8,1:2:0:0:
365,195,169581,1,8,1:2:0:0:
177,52,169763,5,2,0:0:0:0:
256,192,169854,12,2,172672,0:0:0:0:
