osu file format v14

[General]
AudioFilename: audio.mp3
AudioLeadIn: 0
PreviewTime: 48945
Countdown: 0
SampleSet: Soft
StackLeniency: 0.7
Mode: 0
LetterboxInBreaks: 0
WidescreenStoryboard: 0

[Editor]
Bookmarks: 12636,24272,35909,37363,49000,50454,60636,72272,73727,83909,85363,97000,98454,110090,111545,115909,121727,133363,145000,146454,156636,158090,159545,169727,181363,193000
DistanceSpacing: 1.3
BeatDivisor: 4
GridSize: 8
TimelineZoom: 1.5

[Metadata]
Title:Shunkan Everlasting
TitleUnicode:瞬間エヴァーラスティング
Artist:senya
ArtistUnicode:senya
Creator:Naotoshi
Version:Lunatic
Source:東方Project
Tags:mo -mo- lukas [_l_u_k_a_s_] touhou yuuhei satellite c92 comiket ヒロシゲ36号 ~ Neo Super-Express 少女秘封倶楽部 童祭 ~ Innocent Treasures Moment
BeatmapID:1393407
BeatmapSetID:657870

[Difficulty]
HPDrainRate:6.5
CircleSize:4.2
OverallDifficulty:8
ApproachRate:9.2
SliderMultiplier:1
SliderTickRate:1

[Events]
//Background and Video events
0,0,"blog7_4.jpg",0,0
//Break Periods
//Storyboard Layer 0 (Background)
//Storyboard Layer 1 (Fail)
//Storyboard Layer 2 (Pass)
//Storyboard Layer 3 (Foreground)
//Storyboard Sound Samples

[TimingPoints]
1036,363.636363636364,4,2,80,50,1,0
6126,-100,4,2,80,80,0,0
6490,-100,4,2,80,50,0,0
12672,-66.6666666666667,4,2,80,80,0,0
36036,-66.6666666666667,4,2,80,10,0,0
37399,-71.4285714285714,4,2,80,80,0,0
47581,-58.8235294117647,4,2,80,80,0,0
49036,-71.4285714285714,4,2,80,50,0,0
50490,-66.6666666666667,4,2,80,80,0,0
60672,-58.8235294117647,4,2,80,80,0,1
72217,-58.8235294117647,4,2,80,10,0,1
73036,-58.8235294117647,4,2,80,10,0,0
73763,-66.6666666666667,4,2,80,80,0,0
84672,-100,4,2,80,80,0,0
85036,-80,4,2,80,80,0,0
85217,-66.6666666666667,4,2,80,80,0,0
96945,-66.6666666666667,4,2,80,80,0,0
97036,-66.6666666666667,4,2,80,80,0,0
108672,-58.8235294117647,4,2,80,80,0,0
121763,-58.8235294117647,4,2,80,80,0,1
132308,-56.8181818181818,4,2,80,80,0,1
132672,-54.9450549450549,4,2,80,80,0,1
133036,-53.1914893617021,4,2,80,80,0,1
143581,-66.6666666666667,4,2,80,80,0,1
144945,-66.6666666666667,4,2,80,10,0,1
145581,-66.6666666666667,4,2,80,10,0,0
146490,-133.333333333333,4,2,80,35,0,0
158126,-66.6666666666667,4,2,80,50,0,0
159581,-66.6666666666667,4,2,80,80,0,0
170126,-66.6666666666667,4,2,80,72,0,0
170490,-66.6666666666667,4,2,80,64,0,0
170854,-66.6666666666667,4,2,80,56,0,0
171217,-66.6666666666667,4,2,80,48,0,0
171581,-66.6666666666667,4,2,80,40,0,0
171945,-66.6666666666667,4,2,80,32,0,0
172308,-66.6666666666667,4,2,80,24,0,0
172672,-66.6666666666667,4,2,80,80,0,0

[Colours]
Combo1 : 213,168,149
Combo2 : 239,113,65
Combo3 : 17,189,103
Combo4 : 254,217,5

[HitObjects]
222,236,672,6,0,L|215:286,1,50
183,166,1036,6,0,P|294:144|296:145,2,100,2|0|0,0:0|0:0|0:0,0:0:0:0:
260,268,2126,2,0,L|248:212,1,50,0|0,0:0|0:0,0:0:0:0:
337,321,2490,2,0,P|395:331|444:305,2,100,2|0|0,0:0|0:0|0:0,0:0:0:0:
249,219,3581,1,0,0:0:0:0:
377,242,3763,1,0,0:0:0:0:
294,131,3945,6,0,P|235:127|182:146,1,100,2|0,0:0|0:0,0:0:0:0:
115,224,4672,2,0,L|119:279,1,50,2|0,0:0|0:0,0:0:0:0:
20,193,5036,2,0,L|12:248,1,50,0|0,0:0|0:0,0:0:0:0:
83,116,5399,5,2,0:0:0:0:
146,64,5581,1,0,0:0:0:0:
227,66,5763,1,0,0:0:0:0:
302,97,5945,1,0,0:0:0:0:
374,211,6126,1,2,0:0:0:0:
382,238,6490,2,0,L|386:178,1,50,0|0,0:0|0:0,0:0:0:0:
309,300,6854,6,0,P|259:296|216:272,2,100,2|0|0,0:0|0:0|0:0,0:0:0:0:
286,162,7945,2,0,L|288:228,1,50,0|0,0:0|0:0,0:0:0:0:
170,185,8308,2,0,P|134:160|69:159,2,100,2|0|0,0:0|0:0|0:0,0:0:0:0:
95,292,9399,2,0,L|97:229,1,50,0|0,0:0|0:0,0:0:0:0:
199,355,9763,6,0,L|309:362,1,100,2|0,0:0|0:0,0:0:0:0:
453,254,10490,2,0,L|396:263,1,50,2|0,0:0|0:0,0:0:0:0:
289,178,10854,2,0,L|359:185,1,50,0|0,0:0|0:0,0:0:0:0:
448,140,11217,2,0,L|456:76,2,50,2|0|0,0:0|0:0|0:0,0:0:0:0:
365,53,11763,1,0,0:0:0:0:
202,133,11945,1,2,0:0:0:0:
202,133,12308,1,0,0:0:0:0:
122,73,12490,1,0,0:0:0:0:
164,219,12672,6,0,L|154:316,1,75.0000028610231,4|0,1:2|0:0,0:0:0:0:
303,147,13036,2,0,L|313:244,1,75.0000028610231,8|0,0:0|0:0,0:0:0:0:
156,293,13399,2,0,L|146:390,1,75.0000028610231,0|0,1:0|0:0,0:0:0:0:
242,296,13763,1,8,0:0:0:0:
319,350,13945,1,0,0:0:0:0:
464,253,14126,6,0,P|408:245|370:252,1,75.0000028610231,0|0,1:0|0:0,0:0:0:0:
361,111,14490,2,0,P|343:145|319:173,1,75.0000028610231,8|0,0:0|0:0,0:0:0:0:
461,88,14854,2,0,P|482:140|507:169,1,75.0000028610231,0|0,1:0|0:0,0:0:0:0:
390,247,15217,1,8,0:0:0:0:
319,173,15399,1,0,0:0:0:0:
235,335,15581,6,0,L|248:245,1,75.0000028610231,0|0,1:0|0:0,0:0:0:0:
141,138,15945,2,0,L|154:230,1,75.0000028610231,8|0,0:0|0:0,0:0:0:0:
245,143,16308,1,0,1:0:0:0:
128,37,16490,1,0,0:0:0:0:
257,33,16672,1,8,0:0:0:0:
141,138,16854,1,0,0:0:0:0:
335,115,17036,6,0,P|389:118|442:134,1,75.0000028610231,0|0,1:0|0:0,0:0:0:0:
414,283,17399,2,0,P|377:290|340:291,1,75.0000028610231,8|0,0:0|0:0,0:0:0:0:
217,261,17763,2,0,P|174:259|142:261,2,75.0000028610231,0|0|8,1:0|0:0|0:0,0:0:0:0:
280,175,18308,1,0,0:0:0:0:
194,45,18490,6,0,L|196:153,1,75.0000028610231,4|0,1:2|0:0,0:0:0:0:
274,250,18854,2,0,P|282:193|272:142,1,75.0000028610231,8|0,0:0|0:0,0:0:0:0:
105,175,19217,2,0,P|104:212|111:249,1,75.0000028610231,0|0,1:0|0:0,0:0:0:0:
261,341,19581,1,8,0:0:0:0:
199,209,19763,1,0,0:0:0:0:
101,354,19945,6,0,P|34:363|-2:357,1,75.0000028610231,0|0,1:0|0:0,0:0:0:0:
187,332,20308,2,0,P|224:332|260:340,1,75.0000028610231,8|0,0:0|0:0,0:0:0:0:
60,267,20672,2,0,L|74:192,1,75.0000028610231,0|0,1:0|0:0,0:0:0:0:
193,105,21036,1,8,0:0:0:0:
175,218,21217,1,0,0:0:0:0:
85,57,21399,6,0,P|22:45|-11:45,1,75.0000028610231,4|0,1:2|0:0,0:0:0:0:
193,105,21763,2,0,P|256:93|289:93,1,75.0000028610231,8|0,0:0|0:0,0:0:0:0:
375,186,22126,1,4,1:1:0:0:
252,195,22308,1,0,0:0:0:0:
370,81,22490,1,8,0:0:0:0:
467,132,22672,1,0,0:0:0:0:
266,92,22854,5,4,1:2:0:0:
230,81,22944,1,0,3:0:0:0:
192,79,23035,1,0,3:0:0:0:
155,89,23126,1,0,3:0:0:0:
123,109,23217,1,8,3:2:0:0:
99,138,23308,1,0,3:0:0:0:
83,172,23399,1,0,3:0:0:0:
79,209,23490,1,0,3:0:0:0:
95,243,23581,5,0,1:0:0:0:
123,212,23672,1,0,3:0:0:0:
159,189,23763,1,0,3:0:0:0:
199,176,23855,1,0,3:0:0:0:
240,176,23945,1,8,3:2:0:0:
281,188,24035,1,0,3:0:0:0:
317,210,24126,1,0,3:0:0:0:
345,242,24217,1,0,3:0:0:0:
352,282,24308,5,6,1:2:0:0:
101,245,24672,1,8,0:2:0:0:
197,269,24854,1,0,1:2:0:0:
172,366,25217,1,0,1:0:0:0:
268,342,25399,1,8,0:0:0:0:
397,375,25763,5,2,1:2:0:0:
244,246,26126,1,8,0:0:0:0:
268,342,26309,1,0,1:0:0:0:
147,271,26672,1,0,1:0:0:0:
171,175,26854,1,8,0:0:0:0:
206,352,27217,5,2,1:2:0:0:
388,240,27581,1,8,0:0:0:0:
319,311,27763,1,0,0:0:0:0:
460,310,28126,1,0,0:0:0:0:
487,215,28308,1,8,0:0:0:0:
330,119,28672,5,2,1:2:0:0:
487,215,29036,1,8,0:0:0:0:
416,146,29218,1,0,0:0:0:0:
326,223,29399,5,0,3:0:0:0:
303,228,29489,1,0,3:0:0:0:
279,230,29580,1,0,3:0:0:0:
256,228,29672,1,0,3:0:0:0:
233,224,29762,1,0,3:0:0:0:
210,219,29853,1,0,3:0:0:0:
187,218,29944,1,0,3:0:0:0:
164,222,30035,1,0,3:0:0:0:
142,230,30126,5,6,1:2:0:0:
188,311,30490,1,8,0:0:0:0:
292,138,30672,1,0,1:0:0:0:
174,82,31036,1,0,1:0:0:0:
278,255,31218,1,8,0:0:0:0:
136,202,31581,5,2,1:2:0:0:
80,112,31945,1,8,0:0:0:0:
253,216,32127,1,0,1:0:0:0:
309,98,32490,1,0,1:0:0:0:
136,202,32673,1,8,0:0:0:0:
189,60,33036,5,4,1:2:0:0:
317,93,33399,1,0,0:0:0:0:
155,147,33763,1,4,1:1:0:0:
345,180,34126,1,0,0:0:0:0:
135,241,34490,5,4,1:2:0:0:
340,274,34672,1,0,1:0:0:0:
266,84,34854,1,8,0:0:0:0:
236,260,35036,1,0,1:0:0:0:
363,45,35217,5,4,1:1:0:0:
424,212,35399,1,0,1:0:0:0:
266,84,35581,1,8,0:0:0:0:
458,11,35763,1,0,1:0:0:0:
282,226,35945,5,4,1:2:0:0:
162,145,37399,6,0,P|237:133|256:134,1,69.9999978637696,6|0,1:2|0:0,0:0:0:0:
365,202,37763,1,8,0:0:0:0:
341,194,37854,1,2,0:0:0:0:
469,103,38036,1,2,0:0:0:0:
445,111,38127,1,2,1:2:0:0:
346,32,38308,1,0,0:0:0:0:
346,32,38399,1,2,0:0:0:0:
346,32,38490,2,0,P|279:31|255:38,1,69.9999978637696,8|0,0:0|0:0,0:0:0:0:
173,138,38854,6,0,P|123:134|89:124,1,69.9999978637696,2|0,1:2|0:0,0:0:0:0:
5,70,39217,1,8,0:0:0:0:
20,45,39308,1,2,0:0:0:0:
30,200,39490,1,2,0:0:0:0:
12,174,39581,1,2,1:2:0:0:
184,190,39763,1,2,0:0:0:0:
184,190,39854,1,2,0:0:0:0:
184,190,39945,2,0,P|243:178|279:176,1,69.9999978637696,8|0,0:0|0:0,0:0:0:0:
407,226,40308,6,0,P|433:280|436:314,1,69.9999978637696,2|0,1:2|0:0,0:0:0:0:
318,353,40672,2,0,L|230:348,1,69.9999978637696,8|0,0:0|0:0,0:0:0:0:
130,244,41036,1,2,1:2:0:0:
49,367,41217,1,0,0:0:0:0:
49,367,41308,1,0,0:0:0:0:
49,367,41399,2,0,P|50:309|38:274,1,69.9999978637696,8|0,0:0|0:0,0:0:0:0:
29,142,41763,5,2,1:2:0:0:
40,109,41853,1,0,3:0:0:0:
63,83,41944,1,0,3:0:0:0:
95,68,42035,1,0,3:0:0:0:
129,66,42126,1,8,3:2:0:0:
159,83,42217,1,0,3:0:0:0:
192,92,42308,1,0,3:0:0:0:
227,92,42399,1,0,3:0:0:0:
260,82,42490,5,2,1:2:0:0:
290,63,42581,1,0,3:0:0:0:
324,55,42672,1,0,3:0:0:0:
358,57,42763,1,0,3:0:0:0:
389,71,42854,1,8,3:2:0:0:
403,102,42945,1,0,3:0:0:0:
392,135,43037,1,0,3:0:0:0:
362,153,43126,1,0,3:0:0:0:
327,146,43217,5,6,1:2:0:0:
308,263,43399,1,0,0:0:0:0:
224,175,43581,1,8,0:0:0:0:
205,145,43672,1,2,0:1:0:0:
150,277,43854,1,2,0:1:0:0:
172,253,43945,2,0,P|182:286|180:321,1,69.9999978637696,2|0,1:2|0:0,0:0:0:0:
49,327,44308,1,8,0:0:0:0:
68,365,44399,1,2,0:1:0:0:
54,214,44581,1,2,0:1:0:0:
79,193,44672,6,0,P|82:139|72:103,1,69.9999978637696,6|0,1:2|0:0,0:0:0:0:
63,98,44945,1,0,0:0:0:0:
37,84,45036,1,8,0:0:0:0:
140,17,45217,1,0,0:0:0:0:
276,110,45399,2,0,P|332:119|367:105,1,69.9999978637696,6|0,1:1|0:0,0:0:0:0:
374,103,45672,1,2,0:0:0:0:
414,92,45763,2,0,L|407:175,1,69.9999978637696,8|0,0:0|0:0,0:0:0:0:
263,312,46126,5,6,1:2:0:0:
474,248,46308,1,0,1:0:0:0:
237,198,46490,2,0,P|186:218|163:241,1,69.9999978637696,8|0,0:0|0:0,0:0:0:0:
58,359,46854,5,2,1:2:0:0:
0,179,47036,1,0,0:0:0:0:
174,227,47217,1,8,0:0:0:0:
87,65,47399,1,0,0:0:0:0:
298,111,47581,6,0,P|364:121|410:113,1,85.0000016212464,4|0,1:2|0:0,0:0:0:0:
473,77,47854,2,0,P|480:110|458:191,1,85.0000016212464,4|0,1:1|0:0,0:0:0:0:
396,217,48126,2,0,P|384:252|389:321,1,85.0000016212464,4|0,1:2|0:0,0:0:0:0:
443,363,48399,2,0,P|399:384|331:369,1,85.0000016212464,4|0,1:1|0:0,0:0:0:0:
292,321,48672,2,0,L|223:318,1,42.5000008106232,4|0,1:2|0:0,0:0:0:0:
156,360,48854,2,0,L|89:356,1,42.5000008106232,4|0,1:1|0:0,0:0:0:0:
70,280,49036,5,4,1:3:0:0:
307,147,49399,1,4,1:3:0:0:
64,61,49763,2,0,L|99:93,1,34.9999989318848,4|0,1:3|0:0,0:0:0:0:
191,236,49945,2,0,L|190:175,1,34.9999989318848,4|0,1:3|0:0,0:0:0:0:
191,21,50126,2,0,L|168:67,1,34.9999989318848,4|0,1:3|0:0,0:0:0:0:
64,194,50308,2,0,L|111:174,1,34.9999989318848,4|0,1:3|0:0,0:0:0:0:
267,128,50490,6,0,P|322:121|369:133,1,75.0000028610231,6|0,1:2|0:0,0:0:0:0:
408,281,50854,1,8,0:0:0:0:
409,247,50945,1,2,0:0:0:0:
221,357,51126,1,2,0:0:0:0:
215,317,51217,1,2,1:2:0:0:
301,222,51399,1,2,0:0:0:0:
301,222,51490,1,0,0:0:0:0:
301,222,51581,2,0,P|307:265|297:322,1,75.0000028610231,8|0,0:0|0:0,0:0:0:0:
170,156,51945,6,0,P|118:150|76:161,1,75.0000028610231,2|0,1:2|0:0,0:0:0:0:
271,83,52308,2,0,P|308:90|345:86,1,75.0000028610231,8|0,0:0|0:0,0:0:0:0:
185,60,52672,1,2,1:2:0:0:
419,27,52854,1,2,0:0:0:0:
259,165,53036,1,8,0:0:0:0:
185,60,53217,1,0,0:0:0:0:
351,157,53399,5,2,1:2:0:0:
353,194,53489,1,0,3:0:0:0:
339,228,53580,1,0,3:0:0:0:
312,254,53671,1,0,3:0:0:0:
277,266,53762,1,8,3:2:0:0:
240,262,53853,1,0,3:0:0:0:
208,242,53944,1,0,3:0:0:0:
188,212,54035,1,0,3:0:0:0:
151,194,54126,5,2,1:2:0:0:
125,232,54216,1,0,3:0:0:0:
126,278,54307,1,0,3:0:0:0:
158,312,54398,1,0,3:0:0:0:
203,325,54490,1,8,3:2:0:0:
246,309,54580,1,0,3:0:0:0:
292,300,54671,1,0,3:0:0:0:
338,309,54762,1,0,3:0:0:0:
379,331,54853,5,6,1:2:0:0:
396,130,55217,1,8,0:0:0:0:
438,246,55399,1,0,1:0:0:0:
245,122,55763,1,0,1:0:0:0:
222,236,55945,1,8,0:0:0:0:
20,123,56308,5,6,1:2:0:0:
222,236,56672,1,8,0:0:0:0:
108,259,56854,1,0,1:0:0:0:
230,209,57036,1,4,1:1:0:0:
93,240,57217,1,0,1:0:0:0:
87,28,57399,5,8,1:2:0:0:
0,143,57581,1,0,1:0:0:0:
108,259,57763,2,0,P|179:283|204:284,1,75.0000028610231,6|0,1:2|0:0,0:0:0:0:
338,232,58126,1,8,0:2:0:0:
302,237,58217,1,2,0:0:0:0:
418,358,58399,1,2,0:2:0:0:
380,351,58490,2,0,P|314:351|293:359,1,75.0000028610231,6|0,1:1|0:0,0:0:0:0:
271,370,58763,1,2,0:2:0:0:
233,380,58854,2,0,L|132:366,1,75.0000028610231,8|0,0:0|0:0,0:0:0:0:
50,315,59217,5,6,1:2:0:0:
212,169,59399,1,0,1:2:0:0:
9,117,59581,1,8,1:2:0:0:
136,250,59763,1,0,1:2:0:0:
167,36,59945,5,6,1:1:0:0:
345,182,60127,1,0,1:2:0:0:
136,250,60309,1,8,1:2:0:0:
258,104,60491,1,8,1:2:0:0:
59,43,60672,5,6,1:2:0:0:
18,194,60854,1,0,0:0:0:0:
173,145,61036,1,8,0:0:0:0:
88,134,61217,1,2,0:0:0:0:
88,134,61308,1,0,0:0:0:0:
88,134,61399,2,0,L|119:250,1,85.0000016212464,2|0,1:2|0:0,0:0:0:0:
35,343,61763,1,8,0:0:0:0:
214,246,61945,2,0,L|220:189,1,42.5000008106232,2|0,0:0|0:0,0:0:0:0:
149,354,62126,6,0,P|218:344|259:356,1,85.0000016212464,2|0,1:2|0:0,0:0:0:0:
304,283,62399,2,0,L|397:274,1,85.0000016212464,2|0,0:0|0:0,0:0:0:0:
463,325,62672,1,2,0:0:0:0:
480,290,62763,1,0,0:0:0:0:
470,249,62854,2,0,P|454:197|465:148,1,85.0000016212464,2|0,1:2|0:0,0:0:0:0:
347,61,63217,1,8,0:0:0:0:
483,60,63399,1,0,0:0:0:0:
345,181,63581,5,2,1:2:0:0:
303,170,63671,1,0,0:0:0:0:
261,166,63762,1,2,0:0:0:0:
219,167,63853,1,2,0:0:0:0:
177,175,63945,2,0,L|137:219,1,42.5000008106232,8|0,0:0|0:0,0:0:0:0:
65,178,64126,1,2,0:0:0:0:
39,203,64217,2,0,L|51:271,1,42.5000008106232,0|2,0:0|1:2,0:0:0:0:
88,329,64399,5,0,0:0:0:0:
116,338,64489,1,2,0:0:0:0:
146,342,64580,1,0,0:0:0:0:
176,339,64671,1,8,0:0:0:0:
206,332,64762,1,0,0:0:0:0:
236,325,64853,1,2,0:0:0:0:
266,328,64944,1,0,0:0:0:0:
292,338,65036,6,0,L|366:340,1,42.5000008106232,2|0,1:2|0:0,0:0:0:0:
419,262,65217,1,0,0:0:0:0:
416,216,65308,2,0,P|404:174|384:135,1,85.0000016212464,2|0,0:0|0:0,0:0:0:0:
249,175,65580,1,0,0:0:0:0:
231,225,65671,1,0,0:0:0:0:
236,278,65763,2,0,L|160:303,1,42.5000008106232,2|0,1:2|0:0,0:0:0:0:
63,229,65945,1,0,0:0:0:0:
45,182,66036,2,0,L|62:114,1,42.5000008106232,2|0,0:0|0:0,0:0:0:0:
157,79,66217,1,0,0:0:0:0:
193,50,66308,2,2,L|187:-3,1,42.5000008106232
261,109,66490,6,0,B|350:146|344:70|446:115,1,170.000003242493,6|8,1:2|0:0,0:0:0:0:
401,267,67036,1,2,0:0:0:0:
401,267,67126,1,0,0:0:0:0:
401,267,67217,2,0,L|384:156,1,85.0000016212464,2|0,1:2|0:0,0:0:0:0:
307,35,67581,2,0,P|249:25|197:37,1,85.0000016212464,8|0,0:0|0:0,0:0:0:0:
120,118,67945,5,6,1:2:0:0:
14,47,68126,2,0,L|1:108,1,42.5000008106232
8,221,68308,1,10,0:0:0:0:
28,272,68399,1,0,0:0:0:0:
20,327,68490,2,0,P|83:337|137:322,1,85.0000016212464,0|6,0:0|1:1,0:0:0:0:
221,269,68763,1,2,0:0:0:0:
254,252,68854,2,0,L|306:263,1,42.5000008106232,0|0,0:0|0:0,0:0:0:0:
372,194,69036,1,10,0:0:0:0:
393,221,69126,1,0,0:0:0:0:
404,258,69217,2,0,L|403:318,1,42.5000008106232,0|0,0:0|0:0,0:0:0:0:
289,356,69399,5,6,1:2:0:0:
249,339,69489,1,0,0:0:0:0:
208,332,69580,1,2,1:2:0:0:
165,337,69671,1,0,0:0:0:0:
126,351,69763,2,0,L|58:345,1,42.5000008106232,8|0,0:0|0:0,0:0:0:0:
5,190,69945,2,0,L|-8:249,1,42.5000008106232,0|0,0:0|0:0,0:0:0:0:
112,232,70126,5,2,1:2:0:0:
158,189,70216,1,0,0:0:0:0:
170,128,70307,1,2,3:2:0:0:
132,79,70398,1,0,0:0:0:0:
80,48,70490,2,0,L|114:-7,1,42.5000008106232,8|0,0:0|0:0,0:0:0:0:
264,82,70672,2,0,L|220:19,1,42.5000008106232,2|0,0:2|0:0,0:0:0:0:
369,103,70854,6,0,P|379:146|374:220,1,85.0000016212464,4|0,1:2|0:0,0:0:0:0:
282,243,71126,2,0,L|272:327,1,85.0000016212464,4|0,1:1|0:0,0:0:0:0:
146,342,71399,2,0,L|136:257,1,85.0000016212464,4|0,1:1|0:0,0:0:0:0:
38,201,71672,2,0,P|38:158|48:117,1,85.0000016212464,4|0,1:2|0:0,0:0:0:0:
152,40,71945,2,0,L|170:-15,1,42.5000008106232,4|0,1:2|0:0,0:0:0:0:
190,177,72126,6,0,B|271:209|349:146|349:146|387:169|397:207|397:207|466:154|507:199|507:199|480:199|451:219,1,425.000008106232,4|0,1:2|0:0,0:0:0:0:
499,276,73763,6,0,L|487:378,1,75.0000028610231,4|0,1:2|0:0,0:0:0:0:
389,306,74126,2,0,P|344:293|306:295,1,75.0000028610231,8|0,0:0|0:0,0:0:0:0:
231,336,74490,2,0,P|146:359|126:356,1,75.0000028610231,0|0,1:0|0:0,0:0:0:0:
39,257,74854,1,8,0:0:0:0:
169,267,75036,1,0,0:0:0:0:
97,156,75217,6,0,P|42:145|1:155,1,75.0000028610231,0|0,1:0|0:0,0:0:0:0:
161,81,75581,2,0,P|216:69|262:80,1,75.0000028610231,8|0,0:0|0:0,0:0:0:0:
328,166,75945,1,0,1:0:0:0:
216,150,76126,1,0,0:0:0:0:
330,67,76308,1,8,0:0:0:0:
256,232,76490,1,0,0:0:0:0:
422,191,76672,6,0,P|429:228|423:265,1,75.0000028610231,0|0,1:0|0:0,0:0:0:0:
256,232,77036,2,0,P|314:225|346:230,1,75.0000028610231,8|0,0:0|0:0,0:0:0:0:
194,300,77399,2,0,P|151:303|113:298,1,75.0000028610231,0|0,1:0|0:0,0:0:0:0:
300,315,77763,1,8,0:0:0:0:
159,211,77945,1,0,0:0:0:0:
299,79,78126,5,0,1:0:0:0:
107,117,78308,1,0,0:0:0:0:
234,166,78490,2,0,P|244:229|235:271,1,75.0000028610231,8|0,0:0|0:0,0:0:0:0:
29,150,78854,2,0,P|26:107|36:71,2,75.0000028610231,0|0|8,1:0|0:0|0:0,0:0:0:0:
124,209,79399,1,0,0:0:0:0:
181,71,79581,6,0,P|256:61|286:70,1,75.0000028610231,4|0,1:2|0:0,0:0:0:0:
333,7,79945,2,0,P|343:82|330:112,1,75.0000028610231,8|0,0:0|0:0,0:0:0:0:
393,159,80308,2,0,P|318:169|290:164,1,75.0000028610231,0|0,1:0|0:0,0:0:0:0:
201,224,80672,1,8,0:0:0:0:
237,145,80854,1,0,0:0:0:0:
104,146,81036,6,0,P|43:147|13:156,1,75.0000028610231,0|0,1:0|0:0,0:0:0:0:
38,295,81399,2,0,P|67:241|75:211,1,75.0000028610231,8|0,0:0|0:0,0:0:0:0:
194,307,81763,1,0,1:0:0:0:
164,223,81945,1,0,0:0:0:0:
288,301,82126,1,8,0:0:0:0:
114,353,82308,1,0,0:0:0:0:
259,219,82490,6,0,P|264:169|252:114,1,75.0000028610231,4|0,1:2|0:0,0:0:0:0:
132,32,82854,2,0,P|128:74|135:110,1,75.0000028610231,8|0,0:0|0:0,0:0:0:0:
283,51,83217,1,4,1:1:0:0:
352,148,83399,1,0,0:0:0:0:
183,176,83581,1,8,0:0:0:0:
283,51,83763,1,0,0:0:0:0:
409,228,83945,5,4,1:2:0:0:
272,287,84672,6,0,L|313:280,3,25,2|0|0|0,0:0|0:0|0:0|0:0,0:0:0:0:
200,336,85036,2,0,L|160:327,1,31.25,2|0,0:0|0:0,0:0:0:0:
379,296,85217,2,0,L|397:250,1,37.5000014305115,2|0,0:0|0:0,0:0:0:0:
186,212,85399,5,6,1:2:0:0:
3,136,85763,1,8,0:0:0:0:
94,74,85945,1,0,1:0:0:0:
186,212,86308,1,0,1:0:0:0:
294,180,86490,1,8,0:0:0:0:
386,318,86854,5,2,1:2:0:0:
294,180,87217,1,8,0:0:0:0:
269,298,87399,1,0,1:0:0:0:
418,210,87762,1,0,1:0:0:0:
371,95,87945,1,8,0:0:0:0:
145,268,88308,5,2,1:2:0:0:
294,180,88672,1,8,0:0:0:0:
177,160,88854,1,0,0:0:0:0:
123,370,89217,1,0,0:0:0:0:
231,338,89399,1,8,0:0:0:0:
84,229,89763,5,2,1:2:0:0:
251,96,90126,1,8,0:0:0:0:
300,204,90308,1,0,0:0:0:0:
194,265,90490,5,0,3:0:0:0:
172,274,90580,1,0,3:0:0:0:
149,279,90671,1,0,3:0:0:0:
126,277,90762,1,0,3:0:0:0:
103,272,90853,1,0,3:0:0:0:
80,267,90944,1,0,3:0:0:0:
57,267,91035,1,0,3:0:0:0:
34,271,91126,1,0,3:0:0:0:
12,279,91217,5,6,1:2:0:0:
151,195,91581,1,8,0:0:0:0:
65,354,91763,1,0,1:0:0:0:
137,297,92126,1,0,1:0:0:0:
51,138,92308,1,8,0:0:0:0:
183,214,92672,5,2,1:2:0:0:
221,72,93036,1,8,0:0:0:0:
307,231,93218,1,0,1:0:0:0:
235,288,93581,1,0,1:0:0:0:
321,129,93763,1,8,0:0:0:0:
138,178,94126,5,4,1:2:0:0:
354,230,94490,1,0,0:0:0:0:
206,96,94854,1,4,1:1:0:0:
422,148,95218,1,0,0:0:0:0:
192,269,95581,5,6,1:2:0:0:
256,192,95672,12,0,96945,0:0:0:0:
341,201,97036,6,0,L|445:186,1,75.0000028610231,6|0,1:2|0:0,0:0:0:0:
372,292,97308,2,0,L|268:277,1,75.0000028610231,6|0,1:1|0:0,0:0:0:0:
253,200,97581,2,0,L|255:151,1,37.5000014305115,6|0,1:2|0:0,0:0:0:0:
208,347,97763,5,4,1:3:0:0:
163,130,97945,1,4,1:3:0:0:
2,276,98126,1,4,1:3:0:0:
168,248,98308,1,4,1:3:0:0:
32,143,98490,6,0,L|47:48,1,75.0000028610231,6|0,1:2|0:0,0:0:0:0:
176,76,98854,1,8,0:0:0:0:
209,62,98945,1,2,0:0:0:0:
313,161,99126,1,2,0:0:0:0:
280,152,99217,1,2,1:2:0:0:
420,86,99399,1,2,0:0:0:0:
420,86,99490,1,2,0:0:0:0:
420,86,99581,2,0,P|439:159|438:173,1,75.0000028610231,8|0,0:0|0:0,0:0:0:0:
328,275,99945,6,0,L|418:270,1,75.0000028610231,2|0,1:2|0:0,0:0:0:0:
248,349,100308,1,8,0:0:0:0:
211,338,100399,1,2,0:0:0:0:
203,222,100581,1,2,0:0:0:0:
240,211,100672,1,2,1:2:0:0:
118,292,100854,1,2,0:0:0:0:
118,292,100945,1,2,0:0:0:0:
118,292,101036,2,0,L|52:306,1,37.5000014305115,8|0,0:0|0:0,0:0:0:0:
80,141,101217,2,0,L|41:133,1,37.5000014305115,2|0,0:0|0:0,0:0:0:0:
177,197,101399,6,0,P|188:135|181:96,1,75.0000028610231,2|0,1:2|0:0,0:0:0:0:
138,36,101672,1,2,0:0:0:0:
172,16,101763,2,0,P|221:18|266:42,1,75.0000028610231,8|0,0:0|0:0,0:0:0:0:
360,185,102126,1,2,1:2:0:0:
382,6,102308,1,2,0:0:0:0:
243,135,102490,1,8,0:0:0:0:
466,171,102672,1,0,0:0:0:0:
319,298,102854,5,2,1:2:0:0:
284,311,102944,1,0,3:0:0:0:
246,312,103035,1,0,3:0:0:0:
209,306,103126,1,0,3:0:0:0:
173,297,103217,1,8,3:2:0:0:
136,289,103308,1,0,3:0:0:0:
99,285,103399,1,0,3:0:0:0:
62,290,103490,1,0,3:0:0:0:
28,305,103581,6,0,L|31:365,1,37.5000014305115,2|0,1:2|3:0,0:0:0:0:
90,145,103763,2,0,L|93:189,1,37.5000014305115,0|0,3:0|3:0,0:0:0:0:
194,320,103945,2,0,L|189:267,1,37.5000014305115,8|0,3:2|3:0,0:0:0:0:
246,178,104126,2,0,L|243:141,1,37.5000014305115,0|0,3:0|3:0,0:0:0:0:
363,262,104308,6,0,P|409:260|448:269,1,75.0000028610231,6|0,1:2|0:0,0:0:0:0:
313,351,104672,1,8,0:0:0:0:
280,343,104763,1,2,0:0:0:0:
217,242,104945,1,2,0:0:0:0:
249,235,105036,2,0,P|270:170|267:146,1,75.0000028610231,2|0,1:2|0:0,0:0:0:0:
177,70,105399,1,8,0:0:0:0:
148,92,105490,2,0,P|152:129|169:163,1,75.0000028610231,2|0,0:0|0:0,0:0:0:0:
135,244,105763,6,0,P|78:252|37:236,1,75.0000028610231,6|0,1:2|0:0,0:0:0:0:
51,126,106036,1,2,0:0:0:0:
75,96,106126,2,0,P|132:88|173:104,1,75.0000028610231,8|0,0:0|0:0,0:0:0:0:
274,152,106490,1,6,1:1:0:0:
259,26,106672,1,2,0:0:0:0:
259,26,106763,1,0,0:0:0:0:
259,26,106854,1,8,0:0:0:0:
183,173,107036,1,0,0:0:0:0:
364,157,107217,5,6,1:2:0:0:
231,107,107399,1,0,1:0:0:0:
463,121,107581,2,0,P|468:166|450:224,1,75.0000028610231,8|0,0:0|0:0,0:0:0:0:
383,344,107945,1,6,1:1:0:0:
195,245,108126,1,2,0:0:0:0:
195,245,108217,1,0,0:0:0:0:
195,245,108308,2,0,P|262:244|287:238,1,75.0000028610231,8|0,0:0|0:0,0:0:0:0:
101,348,108672,6,0,L|88:246,1,85.0000016212464,4|0,1:2|0:0,0:0:0:0:
30,191,108945,2,0,L|67:80,1,85.0000016212464,4|0,1:1|0:0,0:0:0:0:
148,88,109217,2,0,P|217:97|268:83,1,85.0000016212464,4|0,1:2|0:0,0:0:0:0:
316,45,109490,2,0,P|379:35|427:45,1,85.0000016212464,4|0,1:1|0:0,0:0:0:0:
462,101,109763,2,0,L|458:177,1,42.5000008106232,4|0,1:2|0:0,0:0:0:0:
376,208,109945,2,0,L|371:156,1,42.5000008106232,4|0,1:1|0:0,0:0:0:0:
300,291,110126,5,4,1:3:0:0:
277,321,110490,1,4,1:3:0:0:
255,353,110854,2,0,L|247:282,1,42.5000008106232,4|0,1:3|0:0,0:0:0:0:
157,185,111036,2,0,L|216:224,1,42.5000008106232,4|0,1:3|0:0,0:0:0:0:
340,188,111217,2,0,L|299:225,1,42.5000008106232,4|0,1:3|0:0,0:0:0:0:
149,305,111399,2,0,L|74:303,1,42.5000008106232,4|0,1:3|0:0,0:0:0:0:
28,169,111581,6,0,L|36:81,1,85.0000016212464,6|0,1:2|0:0,0:0:0:0:
176,81,111945,1,8,0:0:0:0:
154,62,112036,1,2,0:0:0:0:
183,183,112217,1,2,0:0:0:0:
162,205,112308,2,0,P|169:248|163:290,1,85.0000016212464,2|0,1:2|0:0,0:0:0:0:
179,313,112581,1,2,0:0:0:0:
214,328,112672,2,0,P|270:322|308:327,1,85.0000016212464,8|0,0:0|0:0,0:0:0:0:
429,221,113036,6,0,P|436:154|425:122,1,85.0000016212464,2|0,1:2|0:0,0:0:0:0:
342,108,113308,1,2,0:0:0:0:
317,90,113399,2,0,L|229:105,1,85.0000016212464,8|0,0:0|0:0,0:0:0:0:
130,234,113763,1,2,1:2:0:0:
295,192,113945,1,2,0:0:0:0:
112,128,114126,1,8,0:0:0:0:
149,343,114308,1,0,0:0:0:0:
328,259,114490,5,2,1:2:0:0:
350,249,114580,1,0,3:0:0:0:
375,247,114671,1,0,3:0:0:0:
399,255,114762,1,0,3:0:0:0:
418,270,114853,5,8,3:2:0:0:
438,228,114945,1,0,3:0:0:0:
447,182,115036,1,0,3:0:0:0:
445,135,115127,1,0,3:0:0:0:
420,92,115217,5,2,1:2:0:0:
364,101,115307,1,0,3:0:0:0:
308,110,115398,1,0,3:0:0:0:
253,119,115489,1,0,3:0:0:0:
198,129,115580,5,8,3:2:0:0:
162,74,115672,1,0,3:0:0:0:
99,65,115763,1,0,3:0:0:0:
44,99,115854,1,0,3:0:0:0:
24,160,115945,5,6,1:2:0:0:
124,266,116308,1,8,0:0:0:0:
111,172,116490,1,0,1:0:0:0:
192,123,116854,1,0,1:0:0:0:
205,217,117036,1,8,0:0:0:0:
323,192,117399,5,6,1:2:0:0:
273,270,117762,1,8,0:0:0:0:
153,264,117944,1,0,1:0:0:0:
294,291,118126,1,4,1:1:0:0:
130,290,118308,1,0,1:0:0:0:
323,192,118490,5,8,1:2:0:0:
204,96,118672,1,0,1:0:0:0:
56,214,118854,2,0,P|93:209|146:196,1,85.0000016212464,6|0,1:2|0:0,0:0:0:0:
303,125,119217,1,8,0:0:0:0:
295,157,119308,1,2,0:0:0:0:
455,152,119490,1,2,0:0:0:0:
476,177,119581,2,0,P|480:245|467:276,1,85.0000016212464,6|0,1:1|0:0,0:0:0:0:
331,329,119945,2,0,P|326:292|337:235,1,85.0000016212464,8|0,0:0|0:0,0:0:0:0:
433,368,120308,5,6,1:2:0:0:
210,366,120490,1,0,1:2:0:0:
319,157,120672,1,8,1:2:0:0:
331,329,120854,1,0,1:2:0:0:
217,161,121036,6,0,L|174:194,1,42.5000008106232,6|0,1:1|0:0,0:0:0:0:
419,164,121217,2,0,L|456:204,1,42.5000008106232,0|0,1:2|0:0,0:0:0:0:
313,45,121399,2,0,L|312:-7,1,42.5000008106232,8|0,1:2|0:0,0:0:0:0:
316,214,121581,1,8,1:2:0:0:
308,256,121672,1,0,0:0:0:0:
286,296,121763,6,0,P|210:318|170:308,1,85.0000016212464,6|0,1:2|0:0,0:0:0:0:
100,335,122036,2,0,P|118:258|147:228,1,85.0000016212464,2|0,0:0|0:0,0:0:0:0:
211,191,122308,2,0,L|223:232,1,42.5000008106232,2|0,0:0|0:0,0:0:0:0:
127,140,122490,2,0,P|189:99|235:100,1,85.0000016212464,2|0,1:2|0:0,0:0:0:0:
303,146,122763,2,0,P|369:160|415:147,1,85.0000016212464,2|0,0:0|0:0,0:0:0:0:
469,79,123036,2,0,L|466:30,1,42.5000008106232,2|0,0:0|0:0,0:0:0:0:
369,68,123217,6,0,L|349:203,1,127.50000243187,2|0,1:2|0:0,0:0:0:0:
384,284,123581,1,8,0:0:0:0:
200,241,123763,1,0,0:0:0:0:
165,256,123854,1,0,0:0:0:0:
142,289,123945,2,0,L|92:284,1,42.5000008106232,2|0,1:2|0:0,0:0:0:0:
158,165,124126,2,0,L|208:160,1,42.5000008106232,2|0,0:0|0:0,0:0:0:0:
225,322,124308,2,0,L|232:389,1,42.5000008106232,10|0,0:0|0:0,0:0:0:0:
16,364,124490,2,0,L|20:321,1,42.5000008106232,2|0,0:0|0:0,0:0:0:0:
116,193,124672,6,0,P|117:135|43:152,1,127.50000243187,2|0,1:2|0:0,0:0:0:0:
10,194,125036,1,8,0:0:0:0:
217,240,125217,2,0,L|280:222,1,42.5000008106232,0|0,0:0|0:0,0:0:0:0:
346,164,125399,2,0,P|407:172|457:200,1,85.0000016212464,2|0,1:2|0:0,0:0:0:0:
456,278,125672,2,0,P|414:336|412:375,1,85.0000016212464,2|0,0:0|0:0,0:0:0:0:
334,298,125945,2,0,L|293:310,1,42.5000008106232,2|0,0:0|0:0,0:0:0:0:
206,348,126126,6,0,L|153:343,1,42.5000008106232,2|0,1:2|3:0,0:0:0:0:
108,274,126308,2,0,L|3:289,1,85.0000016212464,0|8,3:0|3:2,0:0:0:0:
43,181,126581,1,2,3:0:0:0:
75,156,126672,1,0,3:0:0:0:
102,128,126763,2,0,L|96:56,2,42.5000008106232,0|2|0,3:0|1:2|0:0,0:0:0:0:
253,159,127036,1,0,3:0:0:0:
253,159,127126,1,0,3:0:0:0:
253,159,127217,2,0,L|316:150,1,42.5000008106232,8|0,3:2|3:0,0:0:0:0:
416,224,127399,2,0,L|349:218,1,42.5000008106232,0|0,3:0|3:0,0:0:0:0:
264,301,127581,5,6,1:2:0:0:
236,312,127672,1,0,0:0:0:0:
202,322,127763,2,0,L|149:318,1,42.5000008106232,0|0,0:0|0:0,0:0:0:0:
133,180,127945,1,8,0:0:0:0:
165,203,128036,2,0,L|239:187,1,42.5000008106232,0|0,0:0|0:0,0:0:0:0:
326,135,128217,1,0,0:0:0:0:
357,105,128308,1,2,1:2:0:0:
363,62,128399,1,0,0:0:0:0:
337,27,128490,1,2,0:0:0:0:
294,21,128581,1,0,0:0:0:0:
266,54,128672,6,0,L|214:66,1,42.5000008106232,8|0,0:0|0:0,0:0:0:0:
53,118,128854,2,0,L|120:131,1,42.5000008106232,0|0,0:0|0:0,0:0:0:0:
217,205,129036,5,6,1:2:0:0:
199,243,129126,1,0,0:0:0:0:
207,284,129217,1,2,0:0:0:0:
236,313,129308,1,0,0:0:0:0:
278,320,129399,1,8,0:0:0:0:
315,303,129490,1,0,0:0:0:0:
354,334,129581,6,0,L|475:332,1,85.0000016212464,0|4,0:0|1:1,0:0:0:0:
423,181,129945,1,0,0:0:0:0:
413,135,130036,1,0,0:0:0:0:
393,97,130126,2,0,L|342:87,1,42.5000008106232,8|0,0:0|0:0,0:0:0:0:
223,175,130308,2,0,L|290:160,1,42.5000008106232,0|0,0:0|0:0,0:0:0:0:
141,123,130490,5,6,1:2:0:0:
126,155,130580,1,0,0:0:0:0:
124,190,130672,1,2,1:0:0:0:
136,223,130762,1,0,0:0:0:0:
149,255,130853,1,8,1:2:0:0:
152,291,130944,1,0,0:0:0:0:
143,325,131036,2,0,L|90:335,1,42.5000008106232,0|0,3:0|0:0,0:0:0:0:
264,280,131217,5,2,1:2:0:0:
299,257,131308,1,0,0:0:0:0:
340,245,131399,1,2,0:0:0:0:
382,245,131490,1,0,0:0:0:0:
423,258,131581,1,8,0:0:0:0:
458,281,131672,2,0,L|513:275,1,42.5000008106232,0|0,0:0|0:0,0:0:0:0:
454,173,131854,1,0,0:0:0:0:
456,130,131945,6,0,L|466:66,1,42.5000008106232,6|0,1:2|0:0,0:0:0:0:
271,59,132126,2,0,L|284:110,1,42.5000008106232,0|0,1:0|0:0,0:0:0:0:
413,191,132308,6,0,L|420:130,1,44.0000013427735,0|0,1:0|0:0,0:0:0:0:
232,70,132490,2,0,L|249:129,1,44.0000013427735,0|0,1:0|0:0,0:0:0:0:
344,248,132672,5,0,1:0:0:0:
358,255,132763,1,0,1:2:0:0:
374,265,132854,2,0,L|383:198,1,45.5000015274048,0|0,1:0|0:0,0:0:0:0:
202,127,133036,6,0,L|190:81,1,46.9999992828369,8|0,1:2|0:0,0:0:0:0:
331,278,133217,2,0,L|325:325,1,46.9999992828369,0|0,1:0|0:0,0:0:0:0:
132,287,133399,2,0,L|202:260,1,46.9999992828369,6|0,1:2|0:0,0:0:0:0:
109,125,133581,5,2,0:0:0:0:
237,323,133763,1,8,0:0:0:0:
311,110,133945,1,0,0:0:0:0:
138,259,134126,2,0,P|84:265|58:263,1,46.9999992828369,2|0,1:2|0:0,0:0:0:0:
14,183,134308,1,0,0:0:0:0:
26,148,134399,2,0,P|38:100|39:81,1,46.9999992828369,2|8,0:0|0:0,0:0:0:0:
179,93,134581,1,2,0:0:0:0:
197,122,134672,2,0,P|201:145|208:167,1,46.9999992828369
278,316,134854,6,0,B|377:353|371:288|478:333,1,187.999997131348,2|8,1:2|0:0,0:0:0:0:
502,302,135308,1,2,0:0:0:0:
329,224,135490,1,2,0:0:0:0:
319,188,135581,2,0,P|262:183|223:190,1,93.9999985656739,2|2,1:2|0:0,0:0:0:0:
169,355,135945,5,8,1:2:0:0:
121,330,136036,1,0,0:0:0:0:
67,341,136126,2,0,L|-13:329,1,46.9999992828369,0|0,0:0|0:0,0:0:0:0:
205,202,136308,6,0,P|260:236|282:283,1,93.9999985656739,2|0,1:2|0:0,0:0:0:0:
120,158,136672,2,0,L|117:83,1,46.9999992828369,8|0,0:0|0:0,0:0:0:0:
202,62,136854,2,0,P|230:25|272:5,1,93.9999985656739,2|0,0:0|1:2,0:0:0:0:
385,87,137126,2,0,P|328:103|266:88,1,93.9999985656739,2|0,0:0|0:0,0:0:0:0:
453,16,137399,2,0,L|482:78,1,46.9999992828369,8|0,0:0|0:0,0:0:0:0:
432,165,137581,2,0,L|425:220,1,46.9999992828369,0|0,0:0|0:0,0:0:0:0:
248,254,137763,6,0,L|265:317,1,46.9999992828369,2|0,1:2|0:2,0:0:0:0:
160,181,137945,2,0,L|96:198,1,46.9999992828369,2|0,3:2|0:0,0:0:0:0:
227,82,138126,2,0,L|210:19,1,46.9999992828369,8|0,0:0|0:0,0:0:0:0:
315,155,138308,2,0,L|379:138,1,46.9999992828369,2|0,3:2|0:0,0:0:0:0:
103,187,138490,6,0,L|149:175,1,46.9999992828369,2|0,1:2|0:0,0:0:0:0:
249,293,138672,2,0,L|237:248,1,46.9999992828369,2|0,3:2|0:0,0:0:0:0:
349,136,138854,2,0,L|304:149,1,46.9999992828369,8|0,0:0|0:0,0:0:0:0:
203,30,139036,2,0,L|216:76,1,46.9999992828369,2|0,3:2|0:0,0:0:0:0:
323,231,139217,5,6,1:2:0:0:
365,252,139307,1,0,0:0:0:0:
412,252,139398,1,2,0:0:0:0:
455,233,139489,1,0,0:0:0:0:
485,198,139581,2,0,L|488:142,1,46.9999992828369,8|0,0:0|0:0,0:0:0:0:
367,67,139763,2,0,L|377:133,1,46.9999992828369
227,199,139945,5,2,1:2:0:0:
194,209,140036,1,0,0:0:0:0:
164,216,140126,2,0,L|155:160,1,46.9999992828369,2|0,0:0|0:0,0:0:0:0:
50,232,140308,1,8,0:0:0:0:
67,261,140399,1,0,0:0:0:0:
91,288,140490,2,0,L|90:344,1,46.9999992828369,2|0,0:0|0:0,0:0:0:0:
289,215,140672,5,6,1:2:0:0:
308,251,140762,1,0,0:0:0:0:
306,293,140853,1,2,0:0:0:0:
282,328,140944,1,0,0:0:0:0:
245,350,141036,6,0,L|299:356,1,46.9999992828369,8|0,0:0|0:0,0:0:0:0:
428,308,141217,2,0,L|385:328,1,46.9999992828369,2|0,0:0|0:0,0:0:0:0:
444,204,141399,6,0,L|461:125,1,46.9999992828369,6|0,1:1|0:0,0:0:0:0:
294,128,141581,2,0,L|311:207,1,46.9999992828369,2|0,1:2|0:0,0:0:0:0:
377,59,141763,2,0,P|335:29|263:22,1,93.9999985656739,8|0,0:0|0:0,0:0:0:0:
191,109,142126,6,0,L|119:108,1,46.9999992828369,6|0,1:2|0:0,0:0:0:0:
70,184,142308,1,2,1:2:0:0:
45,215,142399,2,0,L|54:271,1,46.9999992828369,0|8,0:0|0:0,0:0:0:0:
187,260,142581,1,2,0:2:0:0:
158,285,142672,2,0,L|153:347,1,46.9999992828369,0|0,0:0|0:0,0:0:0:0:
278,326,142854,6,0,P|342:307|409:315,1,93.9999985656739,6|0,1:1|0:0,0:0:0:0:
488,355,143126,2,0,L|480:227,1,93.9999985656739,2|0,0:0|0:0,0:0:0:0:
397,191,143399,1,2,0:0:0:0:
409,138,143490,1,0,0:0:0:0:
419,86,143581,6,0,L|328:67,1,75.0000028610231,6|0,1:2|0:0,0:0:0:0:
213,170,143854,2,0,L|125:185,1,75.0000028610231,6|0,1:1|0:0,0:0:0:0:
309,268,144126,2,0,L|393:291,1,75.0000028610231,6|0,1:2|0:0,0:0:0:0:
214,342,144399,2,0,P|193:296|191:244,1,75.0000028610231,6|0,1:1|0:0,0:0:0:0:
74,268,144672,2,0,L|61:329,1,37.5000014305115,6|0,1:2|0:0,0:0:0:0:
0,169,144854,6,0,B|133:101|134:219|209:194|255:171|255:171|194:143,1,300.000011444092,6|0,1:2|0:0,0:0:0:0:
183,94,146490,6,0,L|224:71,1,37.5000014305115,2|0,0:0|0:0,0:0:0:0:
315,65,146854,2,0,L|314:112,1,37.5000014305115,2|0,0:0|0:0,0:0:0:0:
274,193,147217,2,0,L|233:168,3,37.5000014305115,2|2|2|2,0:0|0:0|0:0|0:0,0:0:0:0:
117,202,147945,6,0,L|157:226,1,37.5000014305115,2|0,0:0|0:0,0:0:0:0:
208,301,148309,2,0,L|166:323,1,37.5000014305115,2|0,0:0|0:0,0:0:0:0:
76,330,148672,2,0,L|77:281,3,37.5000014305115,2|2|2|2,0:0|0:0|0:0|0:0,0:0:0:0:
181,201,149399,6,0,L|149:220,1,37.5000014305115,2|2,0:0|0:0,0:0:0:0:
240,320,149763,2,0,L|199:295,1,37.5000014305115,2|0,0:0|0:0,0:0:0:0:
280,229,150126,2,0,L|281:192,3,37.5000014305115,2|0|0|0,0:0|0:0|0:0|0:0,0:0:0:0:
371,329,150854,6,0,L|330:352,1,37.5000014305115,2|0,0:0|0:0,0:0:0:0:
239,357,151218,2,0,L|240:310,1,37.5000014305115,2|0,0:0|0:0,0:0:0:0:
312,247,151581,2,0,L|280:228,3,37.5000014305115,2|2|2|2,0:0|0:0|0:0|0:0,0:0:0:0:
167,221,152308,6,0,L|126:244,1,37.5000014305115,2|0,0:0|0:0,0:0:0:0:
35,249,152672,2,0,L|36:202,1,37.5000014305115,2|0,0:0|0:0,0:0:0:0:
76,120,153035,2,0,L|117:145,1,37.5000014305115,2|0,0:0|0:0,0:0:0:0:
209,96,153399,1,2,0:0:0:0:
300,156,153581,2,0,L|380:116,1,75.0000028610231,2|0,0:0|0:0,0:0:0:0:
392,228,154126,6,0,L|391:275,1,37.5000014305115,2|0,0:0|0:0,0:0:0:0:
351,356,154490,2,0,L|310:331,1,37.5000014305115,2|0,0:0|0:0,0:0:0:0:
258,257,154854,2,0,L|302:232,1,37.5000014305115,2|0,0:0|0:0,0:0:0:0:
166,284,155217,6,0,L|123:260,1,37.5000014305115,2|0,0:0|0:0,0:0:0:0:
117,171,155581,1,2,0:0:0:0:
42,219,155763,1,2,0:0:0:0:
36,130,155945,1,2,0:0:0:0:
117,82,156126,1,2,0:0:0:0:
39,42,156308,1,2,0:0:0:0:
117,171,156490,1,2,0:0:0:0:
122,66,158126,5,4,1:3:0:0:
319,103,158490,1,4,1:3:0:0:
142,151,158854,2,0,L|195:168,1,37.5000014305115,4|0,1:3|0:0,0:0:0:0:
359,210,159036,2,0,L|313:224,1,37.5000014305115,4|0,1:3|0:0,0:0:0:0:
179,343,159217,1,4,1:3:0:0:
218,322,159308,1,0,3:0:0:0:
261,317,159399,1,4,1:3:0:0:
304,324,159490,1,4,1:3:0:0:
345,339,159581,6,0,P|415:345|437:340,1,75.0000028610231,6|0,1:2|0:0,0:0:0:0:
278,215,159945,1,8,0:0:0:0:
277,176,160036,1,2,0:0:0:0:
393,208,160217,1,2,0:0:0:0:
392,247,160308,1,2,1:2:0:0:
473,147,160490,1,2,0:0:0:0:
473,147,160581,1,2,0:0:0:0:
473,147,160672,2,0,P|421:118|381:117,1,75.0000028610231,8|0,0:0|0:0,0:0:0:0:
277,176,161036,6,0,P|243:188|182:183,1,75.0000028610231,2|0,1:2|0:0,0:0:0:0:
17,130,161399,2,0,P|56:117|118:124,1,75.0000028610231,8|0,0:0|0:0,0:0:0:0:
225,289,161763,1,2,1:2:0:0:
71,203,161945,1,2,0:0:0:0:
228,96,162126,1,8,0:0:0:0:
138,264,162308,1,0,0:0:0:0:
308,350,162490,5,2,1:2:0:0:
359,363,162580,1,0,3:0:0:0:
406,339,162671,1,0,3:0:0:0:
426,289,162762,1,0,3:0:0:0:
408,240,162854,5,8,3:2:0:0:
379,210,162944,1,0,3:0:0:0:
382,169,163035,1,0,3:0:0:0:
417,144,163126,1,0,3:0:0:0:
457,155,163217,5,2,1:2:0:0:
405,193,163307,1,0,3:0:0:0:
343,211,163398,1,0,3:0:0:0:
279,208,163490,1,0,3:0:0:0:
222,177,163582,5,8,3:2:0:0:
181,232,163673,1,0,3:0:0:0:
200,300,163764,1,0,3:0:0:0:
267,315,163855,1,0,3:0:0:0:
317,268,163945,5,4,1:2:0:0:
441,253,164308,1,8,0:0:0:0:
470,348,164490,1,0,1:0:0:0:
328,255,164854,1,0,1:0:0:0:
286,338,165036,1,8,0:0:0:0:
375,328,165399,5,6,1:2:0:0:
409,167,165763,1,8,0:0:0:0:
482,248,165945,1,0,1:0:0:0:
276,205,166126,2,0,L|318:202,1,37.5000014305115,4|0,1:1|0:0,0:0:0:0:
444,75,166308,2,0,L|395:75,1,37.5000014305115,0|0,1:0|0:0,0:0:0:0:
219,36,166490,2,0,L|154:44,1,37.5000014305115,8|0,1:2|0:0,0:0:0:0:
105,220,166672,2,0,L|167:233,1,37.5000014305115,0|0,1:0|0:0,0:0:0:0:
288,365,166854,5,6,1:2:0:0:
259,167,167036,1,0,0:0:0:0:
141,346,167217,1,8,0:0:0:0:
115,355,167308,1,2,0:0:0:0:
283,269,167490,1,2,0:0:0:0:
313,267,167581,2,0,L|407:270,1,75.0000028610231,6|0,1:1|0:0,0:0:0:0:
445,327,167854,1,2,0:0:0:0:
472,326,167945,2,0,P|485:291|484:254,1,75.0000028610231,8|0,0:0|0:0,0:0:0:0:
352,348,168308,5,6,1:2:0:0:
248,148,168490,1,0,1:2:0:0:
502,133,168672,1,8,1:2:0:0:
295,249,168854,1,0,1:2:0:0:
406,12,169036,5,6,1:1:0:0:
181,21,169218,1,0,1:2:0:0:
295,249,169399,1,12,1:2:0:0:
292,12,169582,1,8,1:2:0:0:
293,133,169763,5,4,0:1:0:0:
256,192,169854,12,0,172672,0:0:0:0:
