osu file format v14

[General]
AudioFilename: audio.mp3
AudioLeadIn: 0
PreviewTime: 48945
Countdown: 0
SampleSet: Soft
StackLeniency: 0.7
Mode: 0
LetterboxInBreaks: 0
WidescreenStoryboard: 1

[Editor]
Bookmarks: 12636,24272,35909,37363,49000,50454,60636,72272,73727,83909,85363,97000,98454,100644,110090,111545,115909,121036,121727,133363,145000,146454,156636,158090,159545,169727,181363,193000
DistanceSpacing: 1.3
BeatDivisor: 4
GridSize: 4
TimelineZoom: 1.5

[Metadata]
Title:Shunkan Everlasting
TitleUnicode:瞬間エヴァーラスティング
Artist:senya
ArtistUnicode:senya
Creator:Naotoshi
Version:Lukas' Advanced
Source:東方Project
Tags:mo -mo- lukas [_l_u_k_a_s_] touhou yuuhei satellite c92 comiket ヒロシゲ36号 ~ Neo Super-Express 少女秘封倶楽部 童祭 ~ Innocent Treasures Moment
BeatmapID:1407548
BeatmapSetID:657870

[Difficulty]
HPDrainRate:5
CircleSize:3.4
OverallDifficulty:6
ApproachRate:6
SliderMultiplier:0.8
SliderTickRate:1

[Events]
//Background and Video events
0,0,"blog7_4.jpg",0,0
//Break Periods
2,146490,156672
//Storyboard Layer 0 (Background)
//Storyboard Layer 1 (Fail)
//Storyboard Layer 2 (Pass)
//Storyboard Layer 3 (Foreground)
//Storyboard Sound Samples

[TimingPoints]
1036,363.636363636364,4,2,80,50,1,0
6126,-100,4,2,80,80,0,0
6490,-100,4,2,80,50,0,0
12644,-83.3333333333333,4,2,80,50,0,0
12672,-83.3333333333333,4,2,80,80,0,0
36036,-83.3333333333333,4,2,80,10,0,0
36672,-83.3333333333333,4,2,80,60,0,0
37371,-71.4285714285714,4,2,80,10,0,0
37399,-66.6666666666667,4,2,80,80,0,0
49036,-71.4285714285714,4,2,80,50,0,0
50462,-66.6666666666667,4,2,80,50,0,0
50490,-66.6666666666667,4,2,80,80,0,0
60672,-62.5,4,2,80,80,0,1
72217,-62.5,4,2,80,10,0,1
72245,-62.5,4,2,80,10,0,1
73036,-62.5,4,2,80,10,0,0
73735,-66.6666666666667,4,2,80,10,0,0
73763,-83.3333333333333,4,2,80,80,0,0
84644,-100,4,2,80,80,0,0
85008,-80,4,2,80,80,0,0
85189,-83.3333333333333,4,2,80,80,0,0
96917,-66.6666666666667,4,2,80,80,0,0
97008,-66.6666666666667,4,2,80,80,0,0
121763,-58.8235294117647,4,2,80,80,0,1
132308,-56.8181818181818,4,2,80,80,0,1
132672,-54.9450549450549,4,2,80,80,0,1
133036,-53.1914893617021,4,2,80,80,0,1
143581,-51.2820512820513,4,2,80,80,0,1
144945,-66.6666666666667,4,2,80,10,0,1
144973,-66.6666666666667,4,2,80,10,0,1
145581,-66.6666666666667,4,2,80,10,0,0
146462,-133.333333333333,4,2,80,10,0,0
146490,-133.333333333333,4,2,80,35,0,0
158098,-66.6666666666667,4,2,80,35,0,0
158126,-66.6666666666667,4,2,80,50,0,0
159581,-66.6666666666667,4,2,80,80,0,0
170126,-66.6666666666667,4,2,80,72,0,0
170490,-66.6666666666667,4,2,80,64,0,0
170854,-66.6666666666667,4,2,80,56,0,0
171217,-66.6666666666667,4,2,80,48,0,0
171581,-66.6666666666667,4,2,80,40,0,0
171945,-66.6666666666667,4,2,80,32,0,0
172308,-66.6666666666667,4,2,80,24,0,0
172672,-66.6666666666667,4,2,80,80,0,0

[Colours]
Combo1 : 213,168,149
Combo2 : 239,113,65
Combo3 : 17,189,103
Combo4 : 254,217,5

[HitObjects]
30,252,672,6,0,L|78:243,1,40,0|0,0:0|0:0,0:0:0:0:
121,246,1036,6,0,P|111:299|118:332,2,80,2|0|0,0:0|0:0|0:0,0:0:0:0:
197,175,2126,2,0,L|241:172,1,40,0|0,0:0|0:0,0:0:0:0:
275,207,2490,2,0,B|284:244|284:244|271:302,2,80,2|0|0,0:0|0:0|0:0,0:0:0:0:
237,110,3581,2,0,P|230:75|230:56,1,40,0|0,0:0|0:0,0:0:0:0:
249,22,3945,6,0,L|342:18,1,80,2|0,0:0|0:0,0:0:0:0:
415,76,4672,2,0,L|431:167,1,80,2|0,0:0|0:0,0:0:0:0:
391,252,5399,2,0,L|312:260,1,80,2|0,0:0|0:0,0:0:0:0:
222,205,6126,1,2,0:0:0:0:
222,205,6490,2,0,L|215:160,1,40,0|0,0:0|0:0,0:0:0:0:
192,118,6854,6,0,L|196:31,2,80,2|0|0,0:0|0:0|0:0,0:0:0:0:
164,218,7945,2,0,L|122:221,1,40,0|0,0:0|0:0,0:0:0:0:
76,200,8308,2,0,B|69:174|69:174|76:104,2,80,2|0|0,0:0|0:0|0:0,0:0:0:0:
148,274,9399,2,0,P|162:307|163:319,1,40,0|0,0:0|0:0,0:0:0:0:
182,359,9763,6,0,L|274:354,1,80,2|0,0:0|0:0,0:0:0:0:
358,315,10490,2,0,P|361:289|363:220,1,80,2|0,0:0|0:0,0:0:0:0:
289,162,11217,2,0,P|255:169|293:113,1,160,2|2,0:0|0:0,0:0:0:0:
373,49,12308,2,0,P|385:71|389:94,1,40,0|0,0:0|0:0,0:0:0:0:
403,146,12672,6,0,L|395:261,1,95.9999970703126,4|8,1:2|0:0,0:0:0:0:
289,306,13399,2,0,L|282:210,1,95.9999970703126,0|8,1:0|0:0,0:0:0:0:
273,147,13945,1,0,0:0:0:0:
273,147,14126,6,0,B|221:160|221:160|162:151,1,95.9999970703126,0|8,1:0|0:0,0:0:0:0:
201,30,14854,2,0,B|253:17|253:17|312:26,1,95.9999970703126,0|8,1:0|0:0,0:0:0:0:
349,53,15399,1,0,0:0:0:0:
349,53,15581,6,0,P|334:114|341:152,1,95.9999970703126,0|8,1:0|0:0,0:0:0:0:
334,270,16308,2,0,P|300:258|270:258,1,47.9999985351563,0|0,1:0|0:0,0:0:0:0:
235,291,16672,2,0,P|201:303|171:304,1,47.9999985351563,8|0,0:0|0:0,0:0:0:0:
135,271,17036,2,0,L|127:168,2,95.9999970703126,0|8|0,1:0|0:0|1:0,0:0:0:0:
36,194,18126,2,0,P|22:159|20:127,1,47.9999985351563,8|0,0:0|0:0,0:0:0:0:
26,86,18490,6,0,L|138:79,1,95.9999970703126,4|8,1:2|0:0,0:0:0:0:
234,27,19217,2,0,L|344:31,1,95.9999970703126,0|8,1:0|0:0,0:0:0:0:
392,35,19763,1,0,0:0:0:0:
392,35,19945,6,0,B|410:94|410:94|399:147,1,95.9999970703126,0|8,1:0|0:0,0:0:0:0:
298,195,20672,2,0,B|280:254|280:254|286:287,1,95.9999970703126,0|8,1:0|0:0,0:0:0:0:
311,344,21217,1,0,0:0:0:0:
311,344,21399,6,0,L|204:336,1,95.9999970703126,4|8,1:2|0:0,0:0:0:0:
99,288,22126,2,0,L|86:225,1,47.9999985351563,4|0,1:1|0:0,0:0:0:0:
47,194,22490,2,0,L|56:146,1,47.9999985351563,8|0,0:0|0:0,0:0:0:0:
65,84,22854,6,0,B|154:104|201:75|247:45|353:82,1,287.999991210938,4|8,1:2|3:2,0:0:0:0:
424,179,24308,6,0,P|447:236|442:286,1,95.9999970703126,6|8,1:2|0:2,0:0:0:0:
359,360,25036,2,0,L|249:370,1,95.9999970703126,0|8,0:0|0:0,0:0:0:0:
216,327,25581,2,0,P|159:325|107:337,1,95.9999970703126
58,331,26126,2,0,P|49:301|52:272,1,47.9999985351563,8|0,0:0|1:0,0:0:0:0:
102,248,26490,2,0,P|117:194|108:134,1,95.9999970703126,0|8,0:0|0:0,0:0:0:0:
70,37,27217,6,0,L|177:34,1,95.9999970703126,2|8,1:2|0:0,0:0:0:0:
220,66,27763,1,0,0:0:0:0:
220,66,27945,2,0,L|315:68,1,95.9999970703126,0|8,0:0|0:0,0:0:0:0:
426,126,28672,2,0,P|411:191|425:238,1,95.9999970703126,2|8,1:2|0:0,0:0:0:0:
447,280,29217,1,0,0:0:0:0:
447,280,29399,2,0,L|329:290,1,95.9999970703126,0|0,3:0|3:0,0:0:0:0:
237,353,30126,6,0,P|214:296|219:246,1,95.9999970703126,6|8,1:2|0:0,0:0:0:0:
155,151,30854,2,0,L|265:161,1,95.9999970703126,0|8,0:0|0:0,0:0:0:0:
302,194,31399,2,0,L|412:184,1,95.9999970703126,0|0,0:0|0:0,0:0:0:0:
456,165,31944,2,0,P|480:169|511:180,1,47.9999985351563,8|0,0:0|1:0,0:0:0:0:
498,240,32308,2,0,P|499:287|485:333,1,95.9999970703126,0|8,0:0|0:0,0:0:0:0:
359,329,33035,6,0,L|263:331,1,95.9999970703126,4|0,1:2|0:0,0:0:0:0:
210,294,33581,1,0,0:0:0:0:
210,294,33763,2,0,B|196:246|196:246|208:201,1,95.9999970703126,4|0,1:1|0:0,0:0:0:0:
237,146,34308,1,0,0:0:0:0:
222,85,34490,1,4,1:2:0:0:
256,192,34581,12,4,35945,1:2:0:0:
58,59,36672,6,0,L|59:113,1,47.9999985351563
98,134,37036,2,0,L|106:195,1,47.9999985351563
140,211,37399,6,0,P|232:187|278:195,1,120.000004577637,6|8,1:2|0:0,0:0:0:0:
358,282,38126,2,0,P|450:306|490:302,1,120.000004577637,2|8,1:2|0:0,0:0:0:0:
506,233,38672,1,0,0:0:0:0:
506,233,38854,2,0,B|518:177|518:177|497:92,1,120.000004577637,2|8,1:2|0:0,0:0:0:0:
381,41,39581,2,0,B|368:94|368:94|384:164,1,120.000004577637,2|8,1:2|0:0,0:0:0:0:
415,236,40126,1,0,0:0:0:0:
415,236,40308,6,0,L|270:233,1,120.000004577637,2|8,1:2|0:0,0:0:0:0:
145,280,41036,1,2,1:2:0:0:
145,280,41217,1,0,0:0:0:0:
145,280,41399,2,0,L|135:204,1,60.0000022888184,8|0,0:0|0:0,0:0:0:0:
126,143,41763,1,2,1:2:0:0:
210,30,42126,2,0,L|285:54,1,60.0000022888184,8|0,3:2|3:0,0:0:0:0:
337,13,42490,2,0,L|480:19,1,120.000004577637,2|8,1:2|3:2,0:0:0:0:
459,165,43217,6,0,P|483:257|476:308,1,120.000004577637,6|8,1:2|0:0,0:0:0:0:
371,367,43944,2,0,P|315:361|250:326,1,120.000004577637,2|8,1:2|0:0,0:0:0:0:
197,280,44490,1,0,0:0:0:0:
197,280,44672,2,0,B|185:224|185:224|206:146,1,120.000004577637,6|8,1:2|0:0,0:0:0:0:
324,92,45399,2,0,B|337:145|337:145|321:215,1,120.000004577637,6|8,1:1|0:0,0:0:0:0:
304,288,45945,1,0,0:0:0:0:
304,288,46126,6,0,P|386:310|431:285,1,120.000004577637,6|8,1:2|0:0,0:0:0:0:
488,266,46672,1,0,0:0:0:0:
488,266,46854,2,0,L|493:335,2,60.0000022888184,2|0|8,1:2|0:0|0:0,0:0:0:0:
449,199,47399,1,0,0:0:0:0:
449,199,47581,6,0,L|442:89,1,90.0000034332277,4|4,1:2|1:1,0:0:0:0:
351,60,48126,2,0,L|339:157,1,90.0000034332277,4|4,1:2|1:1,0:0:0:0:
262,218,48672,2,0,P|254:266|263:300,1,60.0000022888184,4|4,1:2|1:1,0:0:0:0:
286,349,49036,5,4,1:3:0:0:
132,339,49399,1,4,1:3:0:0:
46,220,49763,1,4,1:3:0:0:
81,149,49945,1,4,1:3:0:0:
44,81,50126,2,0,P|79:46|108:34,1,55.9999982910157,4|4,1:3|1:3,0:0:0:0:
152,94,50490,6,0,L|215:82,1,60.0000022888184,6|0,1:2|0:0,0:0:0:0:
289,90,50854,2,0,L|280:166,1,60.0000022888184,8|0,0:0|0:0,0:0:0:0:
263,225,51217,2,0,L|140:238,1,120.000004577637,2|8,1:2|0:0,0:0:0:0:
65,373,51945,6,0,L|197:385,1,120.000004577637,2|8,1:2|0:0,0:0:0:0:
336,346,52672,1,2,1:2:0:0:
336,346,52854,1,2,0:0:0:0:
336,346,53035,2,0,L|322:280,1,60.0000022888184,8|0,0:0|0:0,0:0:0:0:
335,209,53399,2,0,L|215:221,1,120.000004577637,2|8,1:2|3:2,0:0:0:0:
142,249,53945,1,0,3:0:0:0:
142,249,54126,2,0,P|75:248|27:225,1,120.000004577637,2|8,1:2|3:2,0:0:0:0:
64,73,54854,6,0,P|123:65|180:81,1,120.000004577637,6|8,1:2|0:0,0:0:0:0:
252,130,55399,1,0,1:0:0:0:
252,130,55581,2,0,L|380:122,1,120.000004577637,0|8,0:0|0:0,0:0:0:0:
499,31,56308,2,0,P|514:88|507:147,1,120.000004577637,6|8,1:2|0:0,0:0:0:0:
462,211,56853,1,0,1:0:0:0:
462,211,57035,2,0,L|397:211,1,60.0000022888184,4|0,1:1|1:0,0:0:0:0:
368,140,57399,1,8,1:2:0:0:
292,158,57581,1,0,1:0:0:0:
235,211,57763,6,0,B|219:283|219:283|239:347,1,120.000004577637,6|8,1:2|0:2,0:0:0:0:
314,362,58308,1,0,0:0:0:0:
314,362,58490,2,0,L|449:357,1,120.000004577637,6|8,1:1|0:0,0:0:0:0:
361,215,59217,6,0,P|337:209|293:211,1,60.0000022888184,6|0,1:2|1:2,0:0:0:0:
230,177,59581,2,0,P|212:200|193:235,1,60.0000022888184,8|0,1:2|1:2,0:0:0:0:
231,308,59945,1,6,1:1:0:0:
231,308,60126,1,0,1:2:0:0:
231,308,60308,2,0,P|223:330|201:368,1,60.0000022888184,8|8,1:2|1:2,0:0:0:0:
126,336,60672,6,0,L|118:188,2,128,6|8|2,1:2|0:0|1:2,0:0:0:0:
232,207,61763,2,0,L|219:144,1,64,8|2,0:0|0:0,0:0:0:0:
232,62,62126,2,0,P|169:70|110:47,1,128,2|8,1:2|0:0,0:0:0:0:
41,7,62672,1,2,0:0:0:0:
41,7,62854,1,2,1:2:0:0:
39,178,63217,2,0,L|102:169,1,64,8|0,0:0|0:0,0:0:0:0:
184,141,63581,2,0,B|324:153,2,128,2|8|2,1:2|0:0|1:2,0:0:0:0:
29,78,64672,1,8,0:0:0:0:
53,157,64854,1,2,0:0:0:0:
116,219,65036,6,0,B|120:347,1,128,2|8,1:2|0:0,0:0:0:0:
202,361,65581,1,0,0:0:0:0:
202,361,65763,2,0,P|258:349|354:353,1,128,2|8,1:2|0:0,0:0:0:0:
410,364,66308,1,2,0:0:0:0:
410,364,66490,6,0,L|402:228,1,128,6|8,1:2|0:0,0:0:0:0:
397,152,67036,1,2,0:0:0:0:
397,152,67217,2,0,L|335:166,1,64,2|0,1:2|0:0,0:0:0:0:
264,211,67581,2,0,L|202:199,1,64,8|0,0:0|0:0,0:0:0:0:
123,228,67944,2,0,P|143:124|123:80,1,128,6|10,1:2|0:0,0:0:0:0:
81,43,68490,1,0,0:0:0:0:
81,43,68672,1,6,1:1:0:0:
247,40,69035,2,0,P|243:76|255:103,1,64,10|0,0:0|0:0,0:0:0:0:
324,145,69399,6,0,P|336:221|312:281,2,128,6|8|2,1:2|0:0|1:2,0:0:0:0:
190,44,70490,1,8,0:0:0:0:
92,179,70854,2,0,B|123:231|107:286|107:286,1,96,4|4,1:2|1:2,0:0:0:0:
198,359,71399,2,0,B|250:390|305:374|305:374,1,96,4|4,1:2|1:2,0:0:0:0:
379,288,71945,1,4,1:2:0:0:
335,217,72126,1,4,1:2:0:0:
440,144,73763,6,0,L|431:260,1,95.9999970703126,4|8,1:2|0:0,0:0:0:0:
307,240,74490,2,0,L|301:130,1,95.9999970703126,0|8,1:0|0:0,0:0:0:0:
276,86,75036,1,0,0:0:0:0:
276,86,75217,2,0,P|232:110|172:113,1,95.9999970703126,0|8,1:0|0:0,0:0:0:0:
76,174,75945,2,0,P|47:226|40:272,1,95.9999970703126,0|8,1:0|0:0,0:0:0:0:
65,318,76490,1,0,0:0:0:0:
118,350,76672,6,0,P|171:334|223:333,1,95.9999970703126,0|8,1:0|0:0,0:0:0:0:
334,351,77399,2,0,P|346:317|347:289,1,47.9999985351563,0|0,1:0|0:0,0:0:0:0:
304,259,77763,2,0,P|292:225|290:200,1,47.9999985351563,8|0,0:0|0:0,0:0:0:0:
309,153,78127,2,0,L|378:151,2,47.9999985351563,0|0|8,1:0|0:0|0:0,0:0:0:0:
228,99,78854,1,0,1:0:0:0:
158,202,79217,2,0,P|144:167|142:145,1,47.9999985351563,8|0,0:0|0:0,0:0:0:0:
136,94,79581,6,0,L|245:81,1,95.9999970703126,4|8,1:2|0:0,0:0:0:0:
340,21,80308,2,0,L|442:30,1,95.9999970703126,0|8,1:0|0:0,0:0:0:0:
495,49,80854,1,0,0:0:0:0:
495,49,81036,6,0,B|516:102|516:102|503:158,1,95.9999970703126,0|8,1:0|0:0,0:0:0:0:
413,223,81763,2,0,L|402:287,1,47.9999985351563,2|0,1:2|0:0,0:0:0:0:
376,325,82126,2,0,L|321:346,1,47.9999985351563,8|0,0:0|0:0,0:0:0:0:
281,314,82490,6,0,L|276:213,1,95.9999970703126,4|8,1:2|0:0,0:0:0:0:
201,118,83217,2,0,L|195:174,1,47.9999985351563,4|0,1:1|0:0,0:0:0:0:
144,201,83581,2,0,L|152:260,1,47.9999985351563,8|0,0:0|0:0,0:0:0:0:
162,310,83945,6,0,B|257:328|257:328|364:312,1,191.999994140625,4|2,1:2|0:0,0:0:0:0:
466,91,85399,6,0,L|473:203,1,95.9999970703126,6|8,1:2|0:0,0:0:0:0:
428,304,86127,2,0,P|389:330|332:333,1,95.9999970703126,0|8,0:0|0:0,0:0:0:0:
288,300,86672,2,0,P|249:274|195:270,1,95.9999970703126
139,257,87217,2,0,L|127:205,1,47.9999985351563,8|0,0:0|1:0,0:0:0:0:
76,174,87581,2,0,P|100:112|124:75,1,95.9999970703126,0|8,0:0|0:0,0:0:0:0:
240,84,88308,6,0,B|288:72|288:72|352:77,1,95.9999970703126,2|8,1:2|0:0,0:0:0:0:
389,107,88854,1,0,0:0:0:0:
389,107,89036,2,0,L|382:214,1,95.9999970703126,0|8,0:0|0:0,0:0:0:0:
300,296,89763,2,0,P|252:289|203:318,1,95.9999970703126,2|8,1:2|0:0,0:0:0:0:
165,352,90308,1,0,0:0:0:0:
104,337,90490,2,0,P|91:269|95:230,1,95.9999970703126,0|8,3:0|3:2,0:0:0:0:
133,115,91217,6,0,P|190:92|232:101,1,95.9999970703126,6|8,1:2|0:0,0:0:0:0:
276,210,91945,2,0,P|336:221|369:213,1,95.9999970703126,0|8,0:0|0:0,0:0:0:0:
422,180,92490,2,0,L|436:283,1,95.9999970703126
420,335,93035,2,0,P|387:333|357:336,1,47.9999985351563,8|0,0:0|1:0,0:0:0:0:
318,366,93399,2,0,P|271:372|213:356,1,95.9999970703126,0|8,0:0|0:0,0:0:0:0:
127,281,94126,6,0,P|123:198|118:170,1,95.9999970703126,4|0,1:2|0:0,0:0:0:0:
97,127,94672,1,0,0:0:0:0:
117,67,94854,2,0,B|165:55|165:55|227:61,1,95.9999970703126,4|0,1:1|0:0,0:0:0:0:
271,89,95399,1,0,0:0:0:0:
326,117,95581,2,0,L|329:325,1,191.999994140625,6|0,1:2|0:0,0:0:0:0:
487,99,97036,6,0,B|508:195,2,90.0000034332277,6|6|6,1:2|1:1|1:2,0:0:0:0:
408,95,97763,2,0,L|342:104,1,60.0000022888184,4|4,1:3|1:3,0:0:0:0:
344,190,98126,1,4,1:3:0:0:
344,190,98308,1,4,1:3:0:0:
344,190,98490,6,0,P|288:210|213:182,1,120.000004577637,6|8,1:2|0:0,0:0:0:0:
189,38,99217,2,0,P|134:20|62:44,1,120.000004577637,2|8,1:2|0:0,0:0:0:0:
60,113,99763,1,0,0:0:0:0:
60,113,99945,2,0,B|72:166|72:166|60:235,1,120.000004577637,2|8,1:2|0:0,0:0:0:0:
127,371,100672,2,0,B|180:358|180:358|249:371,1,120.000004577637,2|8,1:2|0:0,0:0:0:0:
322,377,101217,1,2,0:0:0:0:
322,377,101399,6,0,L|325:251,1,120.000004577637,2|8,1:2|0:0,0:0:0:0:
385,112,102127,2,0,L|317:119,2,60.0000022888184,2|2|8,1:2|0:0|0:0,0:0:0:0:
463,112,102672,1,0,0:0:0:0:
463,112,102854,1,2,1:2:0:0:
367,235,103217,2,0,L|294:231,1,60.0000022888184,8|0,3:2|3:0,0:0:0:0:
242,186,103581,2,0,L|103:193,1,120.000004577637,2|8,1:2|3:2,0:0:0:0:
88,344,104308,6,0,P|180:320|216:331,1,120.000004577637,6|8,1:2|0:0,0:0:0:0:
354,358,105036,2,0,P|330:266|341:230,1,120.000004577637,2|8,1:2|0:0,0:0:0:0:
366,172,105581,1,0,0:0:0:0:
366,172,105763,2,0,P|274:196|238:185,1,120.000004577637,6|8,1:2|0:0,0:0:0:0:
135,85,106491,2,0,P|159:177|148:213,1,120.000004577637,6|8,1:1|0:0,0:0:0:0:
118,268,107036,1,0,0:0:0:0:
118,268,107217,6,0,L|245:262,1,120.000004577637,6|8,1:2|0:0,0:0:0:0:
308,228,107763,1,0,0:0:0:0:
308,228,107945,2,0,L|316:292,2,60.0000022888184,6|2|8,1:1|0:0|0:0,0:0:0:0:
283,153,108490,1,0,0:0:0:0:
283,153,108672,2,0,B|371:135|371:135|418:153|470:142,2,180.000006866455,4|4|4,1:2|1:2|1:2,0:0:0:0:
204,148,109945,1,4,1:1:0:0:
204,148,110126,5,4,1:3:0:0:
98,41,110490,1,4,1:3:0:0:
1,142,110854,1,4,1:3:0:0:
48,206,111036,1,4,1:3:0:0:
12,274,111217,2,0,L|25:344,1,60.0000022888184,4|4,1:3|1:3,0:0:0:0:
97,356,111581,6,0,L|165:352,1,60.0000022888184,6|0,1:2|0:0,0:0:0:0:
227,319,111945,2,0,L|295:323,1,60.0000022888184,8|0,0:0|0:0,0:0:0:0:
364,330,112308,2,0,B|371:294|371:294|356:206,1,120.000004577637,2|8,1:2|0:0,0:0:0:0:
440,79,113036,6,0,L|316:91,1,120.000004577637,2|8,1:2|0:0,0:0:0:0:
164,89,113763,2,0,L|155:156,1,60.0000022888184,2|2,1:2|0:0,0:0:0:0:
132,222,114126,2,0,L|146:285,1,60.0000022888184,8|0,0:0|0:0,0:0:0:0:
205,330,114490,2,0,P|257:350|325:318,1,120.000004577637,2|8,1:2|3:2,0:0:0:0:
380,285,115036,1,0,3:0:0:0:
380,285,115217,2,0,L|392:165,1,120.000004577637,2|8,1:2|3:2,0:0:0:0:
305,34,115945,6,0,P|229:50|177:38,1,120.000004577637,6|8,1:2|0:0,0:0:0:0:
111,31,116490,1,0,1:0:0:0:
32,43,116672,2,0,L|24:174,1,120.000004577637,0|8,0:0|0:0,0:0:0:0:
78,309,117399,2,0,P|154:325|206:313,1,120.000004577637,6|8,1:2|0:0,0:0:0:0:
260,269,117945,1,0,1:0:0:0:
340,269,118126,2,0,L|347:149,1,120.000004577637,4|8,1:1|1:2,0:0:0:0:
343,70,118672,1,0,1:0:0:0:
343,70,118854,6,0,L|163:83,2,180.000006866455,6|0|8,1:2|0:0|0:0,0:0:0:0:
477,148,120308,6,0,L|476:224,1,60.0000022888184,6|0,1:2|1:2,0:0:0:0:
443,280,120672,2,0,L|355:268,1,60.0000022888184,8|0,1:2|1:2,0:0:0:0:
314,234,121036,2,0,L|226:246,1,60.0000022888184,6|0,1:1|1:2,0:0:0:0:
196,294,121399,2,0,L|108:282,1,60.0000022888184,8|8,1:2|1:2,0:0:0:0:
54,263,121763,6,0,L|54:123,1,136.000002593994,6|8,1:2|0:0,0:0:0:0:
198,24,122490,2,0,L|198:160,1,136.000002593994,2|8,1:2|0:0,0:0:0:0:
199,248,123036,1,2,0:0:0:0:
199,248,123217,2,0,B|260:236|260:236|339:248,1,136.000002593994,2|8,1:2|0:0,0:0:0:0:
505,288,123945,2,0,L|489:372,2,68.0000012969971,2|2|10,1:2|0:0|0:0,0:0:0:0:
493,200,124490,1,2,0:0:0:0:
493,200,124672,6,0,L|345:184,1,136.000002593994,2|8,1:2|0:0,0:0:0:0:
297,116,125217,1,0,0:0:0:0:
218,75,125399,2,0,L|70:91,1,136.000002593994,2|8,1:2|0:0,0:0:0:0:
32,163,125945,1,2,0:0:0:0:
32,163,126126,2,0,B|16:223|16:223|32:299,1,136.000002593994,2|8,1:2|3:2,0:0:0:0:
200,345,126853,2,0,L|200:205,1,136.000002593994,2|8,1:2|3:2,0:0:0:0:
290,56,127581,6,0,L|442:40,2,136.000002593994,6|8|2,1:2|0:0|1:2,0:0:0:0:
207,57,128490,1,2,0:0:0:0:
134,115,128672,1,8,0:0:0:0:
273,217,129036,2,0,L|297:357,1,136.000002593994,6|8,1:2|0:0,0:0:0:0:
462,304,129763,2,0,L|423:165,1,136.000002593994,4|8,1:1|0:0,0:0:0:0:
327,37,130490,5,6,1:2:0:0:
416,31,130672,1,2,1:0:0:0:
478,90,130854,2,0,P|439:136|366:147,1,136.000002593994,8|2,1:2|1:2,0:0:0:0:
179,75,131581,1,8,0:0:0:0:
188,162,131763,1,0,0:0:0:0:
133,231,131945,2,0,L|53:228,2,68.0000012969971,6|0|0,1:2|1:0|1:0,0:0:0:0:
196,296,132490,1,0,1:0:0:0:
278,248,132672,2,0,P|338:238|383:247,1,72.8000024438477,0|0,1:0|1:0,0:0:0:0:
438,279,133036,1,8,1:2:0:0:
326,120,133399,5,6,1:2:0:0:
326,120,133581,2,0,P|402:136|414:136,2,75.1999988525391,2|8|0,0:0|0:0|0:0,0:0:0:0:
233,86,134126,2,0,P|161:54|77:58,1,150.399997705078,2|8,1:2|0:0,0:0:0:0:
200,217,134854,2,0,P|48:229|88:301,1,300.799995410156,2|2,1:2|1:2,0:0:0:0:
277,281,135945,2,0,L|369:277,1,75.1999988525391,8|0,1:2|0:0,0:0:0:0:
446,303,136308,6,0,B|459:253|459:253|433:202|438:155,1,150.399997705078,2|8,1:2|0:0,0:0:0:0:
500,84,136854,2,0,P|458:23|380:16,1,150.399997705078,2|0,0:0|0:0,0:0:0:0:
318,84,137399,2,0,P|282:104|234:112,1,75.1999988525391,8|0,0:0|0:0,0:0:0:0:
150,113,137763,2,0,L|168:262,2,150.399997705078,2|8|2,1:2|0:0|1:2,0:0:0:0:
69,168,138672,1,2,3:2:0:0:
78,263,138854,1,8,0:0:0:0:
247,366,139217,6,0,L|422:344,1,150.399997705078,6|8,1:2|0:0,0:0:0:0:
495,177,139945,2,0,P|519:93|491:5,1,150.399997705078,2|8,1:2|0:0,0:0:0:0:
412,6,140490,1,2,0:0:0:0:
412,6,140672,2,0,L|232:18,1,150.399997705078,6|8,1:2|0:0,0:0:0:0:
106,135,141399,2,0,L|196:141,1,75.1999988525391,6|2,1:1|1:2,0:0:0:0:
268,184,141763,2,0,L|358:178,1,75.1999988525391,8|0,0:0|0:0,0:0:0:0:
427,130,142126,6,0,L|446:279,1,150.399997705078,6|8,1:2|0:0,0:0:0:0:
378,350,142672,1,0,0:0:0:0:
378,350,142854,2,0,B|321:335|321:335|230:348,1,150.399997705078,6|8,1:1|0:0,0:0:0:0:
134,328,143399,1,2,0:0:0:0:
134,328,143581,6,0,P|163:260|159:203,1,117.00000044632,6|6,1:2|1:1,0:0:0:0:
37,130,144126,2,0,P|45:85|93:15,1,117.00000044632,6|6,1:2|1:1,0:0:0:0:
234,21,144672,1,6,1:2:0:0:
234,20,144854,2,0,B|277:16|309:33|309:33|273:98|296:147|296:147|357:121|416:136,1,312.000001190186,6|0,1:2|0:0,0:0:0:0:
365,262,158126,6,0,L|302:274,1,60.0000022888184,4|0,1:3|0:0,0:0:0:0:
236,310,158490,2,0,L|171:299,1,60.0000022888184,4|0,1:3|0:0,0:0:0:0:
106,266,158854,2,0,B|25:288,2,60.0000022888184,4|4|4,1:3|1:3|1:3,0:0:0:0:
137,194,159399,1,4,1:3:0:0:
195,142,159581,6,0,L|256:134,1,60.0000022888184,6|0,1:2|0:0,0:0:0:0:
315,84,159945,2,0,L|375:97,1,60.0000022888184,8|0,0:0|0:0,0:0:0:0:
441,134,160308,2,0,B|445:184|445:184|503:248,1,120.000004577637,2|8,1:2|0:0,0:0:0:0:
359,319,161035,6,0,L|239:308,1,120.000004577637,2|8,1:2|0:0,0:0:0:0:
88,323,161763,2,0,P|100:294|96:260,1,60.0000022888184,2|2,1:2|0:0,0:0:0:0:
55,200,162126,2,0,P|43:171|47:137,1,60.0000022888184,8|0,0:0|0:0,0:0:0:0:
89,77,162490,2,0,L|209:65,1,120.000004577637,2|8,1:2|3:2,0:0:0:0:
286,69,163035,1,0,3:0:0:0:
286,69,163217,2,0,L|406:81,1,120.000004577637,2|8,1:2|3:2,0:0:0:0:
328,216,163944,6,0,P|344:273|337:332,1,120.000004577637,4|8,1:2|0:0,0:0:0:0:
256,331,164490,1,0,1:0:0:0:
185,372,164672,2,0,L|65:379,1,120.000004577637,0|8,0:0|0:0,0:0:0:0:
11,232,165399,2,0,P|4:172|20:115,1,120.000004577637,6|8,1:2|0:0,0:0:0:0:
101,100,165945,1,0,1:0:0:0:
155,38,166126,2,0,L|274:45,1,120.000004577637,4|8,1:1|1:2,0:0:0:0:
355,77,166671,1,0,1:0:0:0:
355,77,166854,6,0,L|368:256,2,180.000006866455,6|0|8,1:2|0:0|0:0,0:0:0:0:
194,123,168308,2,0,P|193:152|199:182,1,60.0000022888184,6|0,1:2|1:2,0:0:0:0:
261,230,168672,2,0,P|261:259|255:289,1,60.0000022888184,8|0,1:2|1:2,0:0:0:0:
222,360,169036,2,0,L|154:355,1,60.0000022888184,6|0,1:1|1:2,0:0:0:0:
123,287,169399,2,0,L|55:292,1,60.0000022888184,12|8,1:2|1:2,0:0:0:0:
11,232,169763,5,4,0:1:0:0:
256,192,169945,12,0,172672,0:0:0:0:
