osu file format v14

[General]
AudioFilename: audio.mp3
AudioLeadIn: 0
PreviewTime: 48945
Countdown: 0
SampleSet: Soft
StackLeniency: 0.7
Mode: 0
LetterboxInBreaks: 0
WidescreenStoryboard: 1

[Editor]
Bookmarks: 12636,24272,35909,37363,49000,50454,60636,72272,73727,83909,85363,97000,98454,100644,110090,111545,115909,121727,133363,145000,146454,156636,158090,159545,169727,181363,193000
DistanceSpacing: 1.3
BeatDivisor: 4
GridSize: 4
TimelineZoom: 1.5

[Metadata]
Title:Shunkan Everlasting
TitleUnicode:瞬間エヴァーラスティング
Artist:senya
ArtistUnicode:senya
Creator:Naotoshi
Version:Hard
Source:東方Project
Tags:mo -mo- lukas [_l_u_k_a_s_] touhou yuuhei satellite c92 comiket ヒロシゲ36号 ~ Neo Super-Express 少女秘封倶楽部 童祭 ~ Innocent Treasures Moment
BeatmapID:1414839
BeatmapSetID:657870

[Difficulty]
HPDrainRate:5.5
CircleSize:3.6
OverallDifficulty:6.4
ApproachRate:8
SliderMultiplier:1.5
SliderTickRate:1

[Events]
//Background and Video events
0,0,"blog7_4.jpg",0,0
//Break Periods
2,146490,156672
//Storyboard Layer 0 (Background)
//Storyboard Layer 1 (Fail)
//Storyboard Layer 2 (Pass)
//Storyboard Layer 3 (Foreground)
//Storyboard Sound Samples

[TimingPoints]
1036,363.636363636364,4,2,80,50,1,0
6126,-100,4,2,80,81,0,0
6490,-100,4,2,80,50,0,0
12644,-83.3333333333333,4,2,80,50,0,0
12672,-83.3333333333333,4,2,80,80,0,0
24280,-100,4,2,80,80,0,0
36036,-100,4,2,80,10,0,0
37371,-83.3333333333333,4,2,80,10,0,0
37399,-83.3333333333333,4,2,80,80,0,0
49036,-83.3333333333333,4,2,80,50,0,0
50462,-83.3333333333333,4,2,80,50,0,0
50490,-83.3333333333333,4,2,80,80,0,0
54826,-100,4,2,80,80,0,0
57735,-83.3333333333333,4,2,80,80,0,0
60672,-90.9090909090909,4,2,80,80,0,1
72126,-62.5,4,2,80,80,0,0
72217,-62.5,4,2,80,10,0,0
73735,-100,4,2,80,10,0,0
73763,-100,4,2,80,80,0,0
84644,-100,4,2,80,80,0,0
85008,-80,4,2,80,80,0,0
85189,-66.6666666666667,4,2,80,80,0,0
85371,-100,4,2,80,80,0,0
96917,-66.6666666666667,4,2,80,80,0,0
97008,-100,4,2,80,80,0,0
98462,-83.3333333333333,4,2,80,80,0,0
115917,-100,4,2,80,80,0,0
118826,-83.3333333333333,4,2,80,80,0,0
121763,-90.9090909090909,4,2,80,80,0,1
143581,-83.3333333333333,4,2,80,80,0,1
144854,-66.6666666666667,4,2,80,80,0,0
144945,-66.6666666666667,4,2,80,10,0,0
146462,-133.333333333333,4,2,80,10,0,0
146490,-133.333333333333,4,2,80,35,0,0
158098,-100,4,2,80,35,0,0
158126,-100,4,2,80,50,0,0
159553,-83.3333333333333,4,2,80,50,0,0
159581,-83.3333333333333,4,2,80,80,0,0
163917,-100,4,2,80,80,0,0
170126,-100,4,2,80,72,0,0
170490,-100,4,2,80,64,0,0
170854,-100,4,2,80,56,0,0
171217,-100,4,2,80,48,0,0
171581,-100,4,2,80,40,0,0
171945,-100,4,2,80,32,0,0
172308,-100,4,2,80,24,0,0
172672,-100,4,2,80,80,0,0

[Colours]
Combo1 : 213,168,149
Combo2 : 239,113,65
Combo3 : 17,189,103
Combo4 : 254,217,5

[HitObjects]
302,243,1036,6,0,P|379:259|466:233,2,150,2|0|0,0:0|0:0|0:0,0:0:0:0:
379,52,2126,2,0,L|382:139,1,75,0|0,0:0|0:0,0:0:0:0:
270,104,2490,2,0,P|193:94|121:118,2,150,2|0|0,0:0|0:0|0:0,0:0:0:0:
117,207,3581,2,0,P|114:266|133:310,1,75,0|0,0:0|0:0,0:0:0:0:
210,338,3945,6,0,P|284:312|364:321,1,150,2|0,0:0|0:0,0:0:0:0:
494,174,4672,2,0,P|500:137|495:100,1,75,2|0,0:0|0:0,0:0:0:0:
371,43,5036,2,0,P|365:79|372:116,1,75,0|0,0:0|0:0,0:0:0:0:
408,217,5399,1,2,0:0:0:0:
316,193,5581,1,0,0:0:0:0:
232,251,5763,2,0,P|168:255|125:246,1,75,0|0,0:0|0:0,0:0:0:0:
65,152,6126,2,0,B|134:112|134:112|190:171,1,150,2|0,0:0|0:0,0:0:0:0:
205,341,6854,6,0,P|283:344|367:324,1,150,2|0,0:0|0:0,0:0:0:0:
440,212,7581,1,0,0:0:0:0:
280,140,7945,2,0,P|270:183|280:238,1,75,0|0,0:0|0:0,0:0:0:0:
173,245,8308,6,0,P|169:159|196:75,1,150,2|0,0:0|0:0,0:0:0:0:
335,61,9036,1,0,0:0:0:0:
437,164,9399,2,0,P|488:160|517:143,1,75,0|0,0:0|0:0,0:0:0:0:
363,93,9763,2,0,P|334:151|377:255,1,150,2|0,0:0|0:0,0:0:0:0:
269,362,10490,2,0,P|224:350|161:349,1,75,2|0,0:0|0:0,0:0:0:0:
78,369,10854,1,0,0:0:0:0:
110,257,11036,1,0,0:0:0:0:
20,176,11217,6,0,L|13:89,2,75,2|0|0,0:0|0:0|0:0,0:0:0:0:
110,96,11763,1,0,0:0:0:0:
207,127,11945,1,2,0:0:0:0:
207,158,12672,6,0,P|289:164|323:152,1,89.9999972534181,4|0,1:2|0:0,0:0:0:0:
394,90,13036,2,0,L|413:204,1,89.9999972534181,8|0,0:0|0:0,0:0:0:0:
358,298,13399,2,0,B|267:319|272:259|163:296,1,179.999994506836,0|8,1:0|0:0,0:0:0:0:
134,201,13945,1,0,0:0:0:0:
25,289,14126,6,0,P|32:230|26:186,1,89.9999972534181,0|0,1:0|0:0,0:0:0:0:
77,84,14490,2,0,P|128:68|178:76,1,89.9999972534181,8|0,0:0|0:0,0:0:0:0:
274,143,14854,2,0,P|376:163|457:126,1,179.999994506836,0|8,1:0|0:0,0:0:0:0:
357,58,15399,1,0,0:0:0:0:
233,145,15581,6,0,P|237:220|264:264,1,89.9999972534181,0|0,1:0|0:0,0:0:0:0:
382,248,15945,2,0,P|437:232|494:238,1,89.9999972534181,8|0,0:0|0:0,0:0:0:0:
442,347,16308,1,0,1:0:0:0:
330,332,16490,1,0,0:0:0:0:
226,373,16672,2,0,P|174:360|137:362,1,89.9999972534181,8|0,0:0|0:0,0:0:0:0:
32,276,17036,6,0,P|7:175|39:89,1,179.999994506836,0|8,1:0|0:0,0:0:0:0:
207,53,17763,1,0,1:0:0:0:
349,161,18126,1,8,0:0:0:0:
232,168,18308,1,0,0:0:0:0:
296,260,18490,6,0,P|354:273|409:253,1,89.9999972534181,4|0,1:2|0:0,0:0:0:0:
456,136,18854,2,0,P|426:82|394:58,1,89.9999972534181,8|0,0:0|0:0,0:0:0:0:
265,118,19217,2,0,P|184:141|54:115,1,179.999994506836,0|8,1:0|0:0,0:0:0:0:
16,43,19763,1,0,0:0:0:0:
25,194,19945,6,0,P|25:271|17:305,1,89.9999972534181,0|0,1:0|0:0,0:0:0:0:
138,344,20308,2,0,P|197:329|242:324,1,89.9999972534181,8|0,0:0|0:0,0:0:0:0:
333,246,20672,2,0,P|255:208|140:212,1,179.999994506836,0|8,1:0|0:0,0:0:0:0:
197,100,21217,1,0,0:0:0:0:
331,135,21399,6,0,P|394:139|452:126,1,89.9999972534181,4|0,1:2|0:0,0:0:0:0:
289,48,21763,2,0,P|254:85|237:124,1,89.9999972534181,8|0,0:0|0:0,0:0:0:0:
296,232,22126,1,4,1:1:0:0:
210,318,22308,1,0,0:0:0:0:
98,238,22490,2,0,P|154:230|199:215,1,89.9999972534181,8|0,0:0|0:0,0:0:0:0:
327,273,22854,5,4,1:2:0:0:
341,282,22945,1,0,3:0:0:0:
353,294,23036,2,0,L|351:346,2,44.999998626709,0|0|8,3:0|3:0|3:2,0:0:0:0:
461,193,23399,1,0,3:0:0:0:
351,125,23581,2,0,L|351:80,2,44.999998626709,0|0|0,1:0|3:0|3:0,0:0:0:0:
247,175,23945,1,8,3:2:0:0:
227,172,24036,1,0,3:0:0:0:
205,168,24126,1,0,3:0:0:0:
97,232,24308,6,0,P|89:150|113:74,1,150,6|8,1:2|0:0,0:0:0:0:
205,60,24854,2,0,P|285:70|361:51,1,150,0|0,1:0|1:0,0:0:0:0:
436,111,25399,1,8,0:0:0:0:
336,216,25763,6,0,P|414:215|458:278,1,150,2|8,1:2|0:0,0:0:0:0:
398,354,26308,2,0,P|327:337|235:364,1,150,0|0,1:0|1:0,0:0:0:0:
152,324,26854,1,8,0:0:0:0:
26,229,27217,5,2,1:2:0:0:
162,159,27581,1,8,0:0:0:0:
78,89,27763,2,0,P|152:52|238:82,1,150
296,129,28308,1,8,0:0:0:0:
224,250,28672,6,0,P|307:269|376:239,1,150,2|8,1:2|0:0,0:0:0:0:
460,188,29217,1,0,0:0:0:0:
508,298,29399,2,0,L|508:346,2,37.5,0|0|0,3:0|3:0|3:0,0:0:0:0:
402,354,29763,1,0,3:0:0:0:
387,353,29854,1,0,3:0:0:0:
367,351,29945,1,0,3:0:0:0:
258,274,30126,6,0,P|192:255|104:296,1,150,6|8,1:2|0:0,0:0:0:0:
38,359,30672,2,0,P|10:277|50:196,1,150,0|0,1:0|1:0,0:0:0:0:
132,170,31217,2,0,P|141:115|130:81,1,75,8|0,0:0|0:0,0:0:0:0:
55,39,31581,5,2,1:2:0:0:
244,80,31945,1,8,0:0:0:0:
329,34,32126,2,0,P|410:55|483:28,1,150,0|0,1:0|1:0,0:0:0:0:
512,122,32672,1,8,0:0:0:0:
415,269,33036,6,0,P|359:275|295:231,1,112.5,4|0,1:2|0:0,0:0:0:0:
294,211,33399,2,0,L|328:119,1,75,8|0,0:0|0:0,0:0:0:0:
368,53,33763,2,0,P|423:53|468:85,1,112.5,4|0,1:0|0:0,0:0:0:0:
488,120,34126,2,0,L|454:212,1,75,8|0,0:0|0:0,0:0:0:0:
364,298,34490,6,0,P|307:309|269:310,1,75,4|0,1:2|1:0,0:0:0:0:
194,247,34854,2,0,P|209:212|218:176,1,75,8|0,0:0|1:0,0:0:0:0:
322,136,35217,2,0,P|348:162|369:193,1,75,4|0,1:1|1:0,0:0:0:0:
399,337,35581,1,8,0:0:0:0:
477,251,35763,1,0,1:0:0:0:
304,273,35945,1,4,1:2:0:0:
183,239,37399,6,0,P|223:205|294:195,1,89.9999972534181,6|0,1:2|0:0,0:0:0:0:
369,261,37763,2,0,P|426:273|485:279,1,89.9999972534181,8|0,0:0|0:0,0:0:0:0:
496,152,38126,2,0,P|462:87|346:97,1,179.999994506836,2|8,1:2|0:0,0:0:0:0:
262,98,38672,1,0,0:0:0:0:
144,23,38854,6,0,P|149:86|142:128,1,89.9999972534181,2|0,1:2|0:0,0:0:0:0:
59,199,39217,2,0,P|110:233|139:278,1,89.9999972534181,8|0,0:0|0:0,0:0:0:0:
90,360,39581,2,0,B|167:375|205:320|301:360,1,179.999994506836,2|8,1:2|0:0,0:0:0:0:
358,295,40126,1,0,0:0:0:0:
452,206,40308,6,0,P|456:130|445:106,1,89.9999972534181,2|0,1:2|0:0,0:0:0:0:
336,203,40672,2,0,L|234:202,1,89.9999972534181,8|0,0:0|0:0,0:0:0:0:
172,120,41036,1,2,1:2:0:0:
285,104,41217,1,0,0:0:0:0:
197,213,41399,2,0,P|188:275|209:329,1,89.9999972534181,8|0,0:0|0:0,0:0:0:0:
300,354,41763,6,0,L|303:293,2,44.999998626709,2|0|0,1:2|3:0|3:0,0:0:0:0:
404,275,42126,1,8,3:2:0:0:
423,271,42217,1,0,3:0:0:0:
442,268,42308,1,0,3:0:0:0:
502,360,42490,2,0,P|449:375|403:368,1,89.9999972534181,2|0,1:2|3:0,0:0:0:0:
363,258,42854,2,0,P|375:197|362:155,1,89.9999972534181,8|0,3:2|3:0,0:0:0:0:
268,82,43217,6,0,P|185:97|70:71,1,179.999994506836,6|8,1:2|0:0,0:0:0:0:
23,154,43763,1,0,0:0:0:0:
23,154,43854,1,0,0:0:0:0:
23,154,43945,2,0,P|44:218|38:253,1,89.9999972534181,2|0,1:2|0:0,0:0:0:0:
137,306,44308,2,0,P|197:288|233:292,1,89.9999972534181,8|0,0:0|0:0,0:0:0:0:
333,360,44672,6,0,P|349:282|308:185,1,179.999994506836,6|8,1:2|0:0,0:0:0:0:
215,169,45217,1,0,0:0:0:0:
309,70,45399,2,0,P|364:65|410:81,1,89.9999972534181,6|0,1:1|0:0,0:0:0:0:
428,97,45672,1,2,0:0:0:0:
450,130,45763,6,0,P|462:195|487:231,1,89.9999972534181,8|0,0:0|0:0,0:0:0:0:
392,310,46126,1,6,1:2:0:0:
301,239,46308,1,0,1:0:0:0:
196,351,46490,2,0,P|108:316|102:236,1,179.999994506836,8|6,0:0|1:1,0:0:0:0:
172,148,47036,1,0,0:0:0:0:
38,159,47217,2,0,P|9:204|8:264,1,89.9999972534181,8|0,0:0|0:0,0:0:0:0:
109,330,47581,6,0,P|182:342|245:324,2,134.999995880127,4|4|4,1:2|1:1|1:2,0:0:0:0:
174,163,48399,2,0,B|175:24,1,134.999995880127,4|4,1:1|1:2,0:0:0:0:
81,107,48854,1,4,1:1:0:0:
81,209,49036,5,4,1:3:0:0:
270,248,49399,1,4,1:3:0:0:
403,115,49763,1,4,1:3:0:0:
414,218,49945,1,4,1:3:0:0:
328,174,50126,2,0,P|266:156|225:164,1,89.9999972534181,4|4,1:3|1:3,0:0:0:0:
128,243,50490,6,0,P|105:180|94:138,1,89.9999972534181,6|0,1:2|0:0,0:0:0:0:
179,71,50854,2,0,P|232:51|298:49,1,89.9999972534181,8|0,0:0|0:0,0:0:0:0:
375,139,51217,2,0,P|466:129|508:51,1,179.999994506836,2|8,1:2|0:0,0:0:0:0:
402,39,51763,1,0,0:0:0:0:
294,136,51945,6,0,P|287:196|300:245,1,89.9999972534181,2|0,1:2|0:0,0:0:0:0:
394,310,52308,2,0,P|340:312|304:339,1,89.9999972534181,8|0,0:0|0:0,0:0:0:0:
189,314,52672,1,2,1:2:0:0:
75,355,52854,1,2,0:0:0:0:
124,229,53036,2,0,P|124:147|119:139,1,89.9999972534181,8|0,0:0|0:0,0:0:0:0:
17,82,53399,6,0,L|27:34,2,44.999998626709,2|0|0,1:2|3:0|3:0,0:0:0:0:
138,33,53763,1,8,3:2:0:0:
177,37,53854,1,0,3:0:0:0:
215,58,53945,1,0,3:0:0:0:
291,168,54126,2,0,P|373:219|459:198,1,179.999994506836,2|8,1:2|3:2,0:0:0:0:
313,330,54854,6,0,P|250:309|149:328,1,150,6|8,1:2|0:0,0:0:0:0:
64,383,55399,2,0,P|49:319|73:239,1,150,0|0,1:0|1:0,0:0:0:0:
167,193,55945,1,8,0:0:0:0:
43,60,56308,6,0,P|130:58|196:89,1,150,6|8,1:2|0:0,0:0:0:0:
268,157,56854,1,0,1:0:0:0:
168,215,57036,2,0,P|174:270|204:309,1,75,4|0,1:1|1:0,0:0:0:0:
297,292,57399,2,0,P|355:262|389:267,1,75,8|0,1:2|1:0,0:0:0:0:
468,322,57763,6,0,P|480:232|418:153,1,179.999994506836,6|8,1:2|0:0,0:0:0:0:
328,118,58308,1,2,0:0:0:0:
315,120,58399,1,0,0:2:0:0:
297,121,58490,2,0,P|238:124|195:115,1,89.9999972534181,2|0,1:1|0:0,0:0:0:0:
128,34,58854,2,0,P|102:75|92:119,1,89.9999972534181,8|0,0:0|0:0,0:0:0:0:
157,246,59217,5,0,1:0:0:0:
294,230,59399,1,0,1:0:0:0:
239,367,59581,2,0,P|175:346|131:343,1,89.9999972534181,8|0,1:2|1:0,0:0:0:0:
12,367,59945,1,0,1:2:0:0:
73,247,60126,1,0,1:2:0:0:
0,144,60308,2,0,P|7:90|29:44,1,89.9999972534181,8|0,1:2|1:2,0:0:0:0:
129,130,60672,5,6,1:2:0:0:
234,190,60854,1,0,2:0:0:0:
328,112,61036,2,0,P|399:119|449:177,1,123.75000377655,8|0,0:0|0:0,0:0:0:0:
441,189,61399,2,0,P|427:244|446:338,2,123.75000377655,2|0|2,1:2|0:0|0:0,0:0:0:0:
500,81,62126,6,0,P|431:58|391:65,1,82.5000025177003,2|0,1:2|0:0,0:0:0:0:
378,87,62399,2,0,P|321:103|228:93,1,123.75000377655,2|2,0:0|0:0,0:0:0:0:
169,41,62854,1,2,1:2:0:0:
77,205,63217,5,8,0:0:0:0:
184,242,63399,1,0,0:0:0:0:
93,323,63581,2,0,L|37:325,2,41.2500012588501,2|0|2,1:2|0:0|0:0,0:0:0:0:
197,361,63945,2,0,P|258:343|302:344,1,82.5000025177003,8|2,0:0|0:0,0:0:0:0:
396,361,64308,2,0,P|406:316|399:269,1,82.5000025177003,2|2,1:2|0:0,0:0:0:0:
330,195,64672,1,8,0:0:0:0:
329,184,64763,1,0,0:0:0:0:
328,173,64854,1,2,0:0:0:0:
343,54,65036,6,0,P|408:56|481:92,2,123.75000377655,2|2|0,1:2|0:0|0:0,0:0:0:0:
238,131,65763,2,0,P|181:151|103:138,1,123.75000377655,2|2,1:2|0:0,0:0:0:0:
98,114,66126,2,0,L|87:23,1,82.5000025177003,0|2,0:0|0:0,0:0:0:0:
2,128,66490,6,0,P|-7:207|39:293,1,165.000005035401,6|8,1:2|0:0,0:0:0:0:
154,287,67036,1,2,0:0:0:0:
170,284,67126,1,0,0:0:0:0:
193,281,67217,2,0,P|249:289|290:316,1,82.5000025177003,2|0,1:2|0:0,0:0:0:0:
379,366,67581,2,0,P|420:339|443:305,1,82.5000025177003,8|0,0:0|0:0,0:0:0:0:
433,179,67945,5,6,1:2:0:0:
359,250,68126,1,0,0:0:0:0:
259,164,68308,1,10,0:0:0:0:
263,145,68399,1,0,0:0:0:0:
268,124,68490,2,0,P|345:86|423:155,1,165.000005035401
476,229,69036,2,0,L|469:296,2,41.2500012588501,10|0|0,0:0|0:0|0:0,0:0:0:0:
349,295,69399,5,6,1:2:0:0:
329,283,69490,1,0,0:0:0:0:
306,279,69581,2,0,L|243:283,2,41.2500012588501,2|0|8,1:2|0:0|0:0,0:0:0:0:
211,355,69945,1,0,0:0:0:0:
143,263,70126,1,2,1:2:0:0:
146,241,70217,1,0,0:0:0:0:
155,216,70308,2,0,L|162:151,2,41.2500012588501,2|0|8,3:2|0:0|0:0,0:0:0:0:
85,103,70672,1,2,0:2:0:0:
252,133,70854,6,0,P|321:142|388:120,1,123.75000377655,4|4,1:2|1:1,0:0:0:0:
291,241,71399,1,4,1:2:0:0:
139,205,71672,1,4,1:2:0:0:
181,354,71945,1,4,1:2:0:0:
208,268,72126,5,4,1:2:0:0:
131,270,73763,6,0,P|198:239|228:239,1,75,4|0,1:2|0:0,0:0:0:0:
306,298,74126,2,0,L|402:278,1,75,8|0,0:0|0:0,0:0:0:0:
481,340,74490,2,0,P|493:255|440:175,1,150,0|8,1:0|0:0,0:0:0:0:
362,156,75036,1,0,0:0:0:0:
444,47,75217,6,0,P|393:42|343:58,1,75,0|0,1:0|0:0,0:0:0:0:
261,86,75581,2,0,L|184:74,1,75,8|0,0:0|0:0,0:0:0:0:
96,135,75945,1,0,1:0:0:0:
9,89,76126,1,0,0:0:0:0:
45,216,76308,2,0,P|48:268|38:299,1,75,8|0,0:0|0:0,0:0:0:0:
150,353,76672,6,0,B|226:331|222:372|308:349,2,150,0|8|0,1:0|0:0|1:0,0:0:0:0:
116,262,77581,1,0,0:0:0:0:
217,195,77763,2,0,P|276:203|316:189,1,75,8|0,0:0|0:0,0:0:0:0:
380,119,78126,2,0,L|398:34,1,75,0|0,1:0|0:0,0:0:0:0:
495,100,78490,2,0,L|513:186,1,75,8|0,0:0|0:0,0:0:0:0:
453,263,78854,1,0,1:0:0:0:
308,331,79217,5,8,0:0:0:0:
223,273,79399,1,0,0:0:0:0:
140,347,79581,2,0,P|82:361|41:354,1,75,4|0,1:2|0:0,0:0:0:0:
8,261,79945,2,0,P|23:201|17:170,1,75,8|0,0:0|0:0,0:0:0:0:
57,91,80308,2,0,P|139:73|210:105,1,150,0|8,1:0|0:0,0:0:0:0:
301,54,80854,1,0,0:0:0:0:
374,149,81036,6,0,P|418:97|425:80,1,75,0|0,1:0|0:0,0:0:0:0:
489,170,81399,2,0,P|469:211|462:258,1,75,8|0,0:0|0:0,0:0:0:0:
382,302,81763,1,0,1:0:0:0:
285,240,81945,1,0,0:0:0:0:
198,324,82126,2,0,P|175:267|180:234,1,75,8|0,0:0|0:0,0:0:0:0:
233,131,82490,6,0,P|313:98|397:116,2,150,4|8|4,1:2|0:0|1:1,0:0:0:0:
327,213,83399,1,0,0:0:0:0:
445,173,83581,2,0,P|466:113|462:83,1,75,8|0,0:0|0:0,0:0:0:0:
383,24,83945,5,4,1:2:0:0:
424,195,85399,6,0,P|348:183|263:228,1,150,6|8,1:2|0:0,0:0:0:0:
236,310,85945,2,0,P|183:256|178:162,1,150,0|0,1:0|1:0,0:0:0:0:
233,103,86490,1,8,0:0:0:0:
417,74,86854,6,0,P|449:143|415:223,1,150,2|8,1:2|0:0,0:0:0:0:
331,184,87399,2,0,P|259:171|188:223,1,150,0|0,1:0|1:0,0:0:0:0:
278,279,87945,1,8,0:0:0:0:
93,344,88308,5,2,1:2:0:0:
35,208,88672,1,8,0:0:0:0:
91,130,88854,2,0,P|177:108|252:143,1,150,0|0,1:2|0:0,0:0:0:0:
317,193,89399,1,8,0:0:0:0:
512,86,89763,6,0,P|451:51|346:79,1,150,2|8,1:2|0:0,0:0:0:0:
426,147,90308,1,0,0:0:0:0:
349,223,90490,2,0,L|359:279,2,37.5,0|0|0,3:0|3:0|3:0,0:0:0:0:
259,169,90854,1,0,3:0:0:0:
240,167,90944,1,0,3:0:0:0:
221,166,91035,1,0,3:0:0:0:
133,249,91217,6,0,P|105:168|139:92,1,150,6|8,1:2|0:0,0:0:0:0:
210,44,91763,2,0,P|145:5|48:34,1,150,0|0,1:0|1:0,0:0:0:0:
13,106,92308,2,0,P|20:164|13:184,1,75,8|0,0:0|0:0,0:0:0:0:
83,265,92672,6,0,P|159:259|232:282,1,150,2|8,1:2|0:0,0:0:0:0:
321,336,93217,2,0,P|364:270|431:222,1,150,0|0,1:0|1:0,0:0:0:0:
388,140,93763,2,0,P|376:87|379:59,1,75,8|0,0:0|0:0,0:0:0:0:
484,95,94126,6,0,P|493:154|468:211,1,112.5,4|0,1:2|0:0,0:0:0:0:
443,233,94490,2,0,P|379:228|355:236,1,75,8|0,0:2|0:0,0:0:0:0:
279,332,94854,2,0,P|233:319|191:268,1,112.5,4|0,1:2|0:0,0:0:0:0:
189,235,95217,2,0,L|218:165,1,75,8|0,0:0|0:0,0:0:0:0:
336,243,95581,5,6,1:2:0:0:
246,196,96308,1,2,0:0:0:0:
167,270,97036,6,0,P|118:254|55:260,2,112.5,6|6|6,1:2|1:1|1:2,0:0:0:0:
252,341,97763,1,4,1:3:0:0:
330,278,97945,1,4,1:3:0:0:
416,333,98126,2,0,P|429:263|422:235,1,75,4|4,1:3|1:3,0:0:0:0:
348,137,98490,6,0,P|367:78|402:44,1,89.9999972534181,6|0,1:2|0:0,0:0:0:0:
478,96,98854,2,0,P|499:162|495:211,1,89.9999972534181,8|0,0:0|0:0,0:0:0:0:
406,243,99217,2,0,P|320:242|234:298,1,179.999994506836,2|8,1:2|0:0,0:0:0:0:
184,363,99763,1,0,0:0:0:0:
88,257,99945,6,0,P|75:189|78:149,1,89.9999972534181,2|0,1:2|0:0,0:0:0:0:
195,92,100308,2,0,P|206:152|191:220,1,89.9999972534181,8|0,0:0|0:0,0:0:0:0:
307,216,100672,2,0,P|311:120|284:14,1,179.999994506836,2|8,1:2|0:0,0:0:0:0:
399,75,101217,1,2,0:0:0:0:
473,189,101399,6,0,P|480:247|471:296,1,89.9999972534181,2|0,1:2|0:0,0:0:0:0:
369,317,101763,2,0,P|315:306|273:314,1,89.9999972534181,8|0,0:0|0:0,0:0:0:0:
165,355,102126,1,2,1:2:0:0:
116,237,102308,1,2,0:0:0:0:
228,211,102490,2,0,P|238:163|227:96,1,89.9999972534181,8|0,0:0|0:0,0:0:0:0:
149,42,102854,6,0,P|238:8|328:45,1,179.999994506836,2|8,1:2|3:2,0:0:0:0:
363,139,103399,1,0,3:0:0:0:
253,197,103581,2,0,P|189:180|154:183,1,89.9999972534181,2|0,1:2|3:0,0:0:0:0:
80,258,103945,2,0,L|76:309,2,44.999998626709,8|0|0,3:2|3:0|3:0,0:0:0:0:
28,138,104308,6,0,P|86:125|148:140,1,89.9999972534181,6|0,1:2|0:0,0:0:0:0:
216,191,104672,2,0,P|224:250|263:297,1,89.9999972534181,8|0,0:0|0:0,0:0:0:0:
360,344,105036,2,0,P|467:350|519:298,1,179.999994506836,2|8,1:2|0:0,0:0:0:0:
419,255,105581,1,0,0:0:0:0:
488,132,105763,6,0,P|476:83|431:39,1,89.9999972534181,6|0,1:2|0:0,0:0:0:0:
365,153,106126,2,0,P|318:150|263:155,1,89.9999972534181,8|0,0:0|0:0,0:0:0:0:
187,209,106490,1,6,1:1:0:0:
189,37,106854,5,8,0:0:0:0:
257,107,107036,1,0,0:0:0:0:
185,196,107217,2,0,P|179:231|201:308,1,89.9999972534181,6|0,1:2|1:0,0:0:0:0:
290,343,107581,2,0,P|349:321|392:324,1,89.9999972534181,8|0,0:0|0:0,0:0:0:0:
493,370,107945,2,0,P|459:277|456:184,1,179.999994506836,6|8,1:1|0:0,0:0:0:0:
360,174,108490,1,0,0:0:0:0:
239,269,108672,6,0,B|189:283|154:250|105:272,2,134.999995880127,4|4|4,1:2|1:1|1:2,0:0:0:0:
278,111,109490,2,0,P|255:54|170:24,1,134.999995880127,4|4,1:1|1:2,0:0:0:0:
180,124,109945,1,4,1:1:0:0:
269,207,110126,5,4,1:3:0:0:
407,107,110490,1,4,1:3:0:0:
456,269,110854,1,4,1:3:0:0:
370,219,111036,1,4,1:3:0:0:
354,316,111217,2,0,P|299:340|244:346,1,89.9999972534181,4|4,1:3|1:3,0:0:0:0:
175,283,111581,6,0,P|108:261|60:264,1,89.9999972534181,6|0,1:2|0:0,0:0:0:0:
13,353,111945,2,0,L|-7:245,1,89.9999972534181,8|0,0:0|0:0,0:0:0:0:
38,159,112308,2,0,P|136:148|219:185,1,179.999994506836,2|8,1:2|0:0,0:0:0:0:
386,266,113036,6,0,P|397:208|387:155,1,89.9999972534181,2|0,1:2|0:0,0:0:0:0:
329,73,113399,2,0,P|384:44|431:43,1,89.9999972534181,8|0,0:0|0:0,0:0:0:0:
481,121,113763,1,2,1:2:0:0:
502,219,113945,1,2,0:0:0:0:
376,173,114126,2,0,P|319:165|272:166,1,89.9999972534181,8|0,0:0|0:0,0:0:0:0:
189,243,114490,6,0,L|205:300,2,44.999998626709,2|0|0,1:2|3:0|3:0,0:0:0:0:
112,140,114854,1,8,3:2:0:0:
112,118,114944,1,0,3:0:0:0:
113,96,115035,1,0,3:0:0:0:
7,128,115217,2,0,L|27:226,1,89.9999972534181,2|0,1:2|3:0,0:0:0:0:
59,340,115581,1,8,3:2:0:0:
173,257,115763,1,0,3:0:0:0:
194,252,115854,1,0,3:0:0:0:
214,249,115945,6,0,P|297:269|364:228,1,150,6|8,1:2|0:0,0:0:0:0:
366,94,116490,2,0,B|293:88|293:88|303:144|266:185,1,150,0|0,1:0|1:0,0:0:0:0:
200,112,117036,1,8,0:0:0:0:
77,265,117399,6,0,P|40:169|71:112,1,150,6|8,1:2|0:0,0:0:0:0:
137,190,117945,1,0,1:0:0:0:
223,266,118126,2,0,P|286:262|319:239,1,75,4|0,1:1|1:0,0:0:0:0:
383,171,118490,1,8,1:2:0:0:
413,296,118672,1,0,1:0:0:0:
487,181,118854,6,0,P|460:102|343:76,1,179.999994506836,6|8,1:2|0:0,0:0:0:0:
277,123,119399,1,0,0:0:0:0:
179,65,119581,2,0,P|125:65|72:79,1,89.9999972534181,6|0,1:1|0:0,0:0:0:0:
48,190,119945,2,0,P|63:244|55:293,1,89.9999972534181,8|0,0:0|0:0,0:0:0:0:
161,357,120308,5,6,1:2:0:0:
262,282,120490,1,0,1:2:0:0:
170,206,120672,2,0,P|233:173|267:177,1,89.9999972534181,8|0,1:2|1:2,0:0:0:0:
382,263,121036,2,0,P|444:241|476:191,1,89.9999972534181,6|0,1:1|1:2,0:0:0:0:
449,108,121399,1,8,1:2:0:0:
343,50,121581,1,8,1:2:0:0:
238,146,121763,6,0,P|188:159|95:133,2,123.75000377655,6|0|0,1:2|0:0|0:0,0:0:0:0:
336,225,122490,2,0,P|341:299|336:367,2,123.75000377655,2|0|0,1:2|0:0|0:0,0:0:0:0:
394,125,123217,2,0,P|475:144|486:226,1,165.000005035401,2|8,1:2|0:0,0:0:0:0:
421,314,123763,5,0,0:0:0:0:
406,321,123854,1,0,0:0:0:0:
384,321,123945,2,0,P|329:311|266:315,1,82.5000025177003,2|2,1:2|0:0,0:0:0:0:
184,356,124308,2,0,L|170:255,1,82.5000025177003,10|2,0:0|0:0,0:0:0:0:
261,191,124672,6,0,P|203:157|103:178,1,165.000005035401,2|8,1:2|0:0,0:0:0:0:
29,249,125217,1,0,0:0:0:0:
29,126,125399,2,0,P|39:70|94:19,2,123.75000377655,2|2|2,1:2|0:0|0:0,0:0:0:0:
150,123,126126,2,0,P|217:108|268:113,1,82.5000025177003,2|0,1:2|3:0,0:0:0:0:
329,168,126490,1,8,3:2:0:0:
411,55,126672,2,0,P|423:125|418:160,1,82.5000025177003,0|2,3:0|1:2,0:0:0:0:
409,247,127036,2,0,P|475:243|508:250,2,82.5000025177003,0|8|0,3:0|3:2|3:0,0:0:0:0:
306,341,127581,6,0,P|253:321|176:338,1,123.75000377655,6|0,1:2|0:0,0:0:0:0:
151,348,127945,2,0,L|48:331,1,82.5000025177003,8|0,0:0|0:0,0:0:0:0:
79,228,128308,2,0,L|74:175,2,41.2500012588501,2|0|2,1:2|0:0|0:0,0:0:0:0:
187,152,128672,2,0,L|200:51,1,82.5000025177003,8|0,0:0|0:0,0:0:0:0:
302,100,129036,5,6,1:2:0:0:
411,155,129217,1,2,0:0:0:0:
419,131,129308,1,0,0:0:0:0:
421,106,129399,1,8,0:0:0:0:
506,36,129581,6,0,P|447:8|321:41,1,165.000005035401
266,96,130126,2,0,P|191:96|162:87,1,82.5000025177003,8|0,0:0|0:0,0:0:0:0:
79,36,130490,5,6,1:2:0:0:
33,130,130672,1,2,1:0:0:0:
104,224,130854,2,0,P|105:273|105:279,2,41.2500012588501,8|0|0,0:0|0:0|3:0,0:0:0:0:
7,280,131217,2,0,P|32:352|48:365,1,82.5000025177003,2|2,1:2|0:0,0:0:0:0:
178,342,131581,2,0,P|241:326|298:346,1,123.75000377655,8|0,0:0|0:0,0:0:0:0:
322,366,131945,6,0,L|421:339,1,82.5000025177003,6|0,1:2|1:0,0:0:0:0:
480,241,132308,2,0,L|399:228,1,82.5000025177003,0|0,1:0|1:0,0:0:0:0:
286,191,132672,1,0,1:0:0:0:
395,117,132854,1,0,1:0:0:0:
225,96,133036,2,0,P|192:141|180:197,2,82.5000025177003,8|0|6,1:2|1:0|1:2,0:0:0:0:
349,114,133581,5,2,0:0:0:0:
292,233,133763,1,8,0:0:0:0:
422,233,133945,1,0,0:0:0:0:
353,358,134126,6,0,P|296:342|215:360,2,123.75000377655,2|2|0,1:2|0:0|0:0,0:0:0:0:
475,340,134854,2,0,P|491:259|449:178,1,165.000005035401,2|8,1:2|0:0,0:0:0:0:
339,204,135399,2,0,P|262:219|159:194,1,165.000005035401,0|2,0:0|0:0,0:0:0:0:
147,94,135945,1,8,1:2:0:0:
151,76,136036,1,0,0:0:0:0:
155,57,136126,1,0,0:0:0:0:
255,100,136308,6,0,P|270:186|238:277,1,165.000005035401,2|8,1:2|0:0,0:0:0:0:
129,297,136854,2,0,P|62:287|25:290,1,82.5000025177003,2|0,0:0|1:2,0:0:0:0:
75,383,137217,1,2,0:0:0:0:
212,345,137399,2,0,P|274:342|323:350,1,82.5000025177003,8|0,0:0|0:0,0:0:0:0:
416,278,137763,6,0,P|424:212|414:164,1,82.5000025177003,2|2,1:2|3:2,0:0:0:0:
252,210,138126,2,0,P|299:225|345:232,1,82.5000025177003,8|2,0:0|3:2,0:0:0:0:
419,95,138490,1,2,1:2:0:0:
308,139,138672,1,2,3:2:0:0:
211,68,138854,2,0,P|149:96|115:93,1,82.5000025177003,8|2,0:0|3:2,0:0:0:0:
34,33,139217,6,0,P|12:88|38:166,1,123.75000377655,6|0,1:2|0:0,0:0:0:0:
54,183,139581,2,0,L|47:281,1,82.5000025177003,8|0,0:0|0:0,0:0:0:0:
150,343,139945,2,0,P|222:324|251:332,1,82.5000025177003,2|2,1:2|0:0,0:0:0:0:
261,337,140217,1,0,0:0:0:0:
291,354,140308,2,0,L|398:330,1,82.5000025177003,8|2,0:0|0:0,0:0:0:0:
399,329,140581,1,0,0:0:0:0:
426,322,140672,5,6,1:2:0:0:
370,209,140854,2,0,L|363:161,2,41.2500012588501,2|0|8,0:0|0:0|0:0,0:0:0:0:
479,246,141217,1,2,0:0:0:0:
457,122,141399,5,6,1:1:0:0:
337,77,141581,1,2,1:2:0:0:
240,160,141763,2,0,P|177:167|148:165,1,82.5000025177003,8|0,0:0|0:0,0:0:0:0:
65,90,142126,6,0,P|39:152|59:228,2,123.75000377655,6|0|0,1:2|0:0|0:0,0:0:0:0:
179,47,142854,2,0,P|250:58|314:52,2,123.75000377655,6|2|2,1:1|0:0|0:0,0:0:0:0:
147,181,143581,6,0,B|222:160|220:206|310:170,1,134.999995880127,6|6,1:2|1:1,0:0:0:0:
486,222,144126,1,4,1:2:0:0:
326,270,144399,1,4,1:2:0:0:
366,120,144672,1,4,1:2:0:0:
388,203,144854,5,6,1:2:0:0:
254,184,158126,5,4,1:3:0:0:
42,208,158490,1,4,1:3:0:0:
134,89,158854,1,4,1:3:0:0:
169,172,159036,1,4,1:3:0:0:
257,122,159217,2,0,P|305:127|352:145,1,75,4|4,1:3|1:3,0:0:0:0:
430,232,159581,6,0,P|458:165|451:115,1,89.9999972534181,6|0,1:2|0:0,0:0:0:0:
420,28,159945,2,0,P|331:17|291:25,1,89.9999972534181,8|0,0:0|0:0,0:0:0:0:
242,110,160308,2,0,P|158:141|58:93,1,179.999994506836,2|8,1:2|0:0,0:0:0:0:
72,285,161036,6,0,L|204:275,1,89.9999972534181,2|0,1:2|0:0,0:0:0:0:
260,341,161399,2,0,P|323:305|371:297,1,89.9999972534181,8|0,0:0|0:0,0:0:0:0:
456,353,161763,1,2,1:2:0:0:
485,233,161945,1,2,0:0:0:0:
374,184,162126,2,0,P|314:173|266:176,1,89.9999972534181,8|0,0:0|0:0,0:0:0:0:
166,142,162490,6,0,P|230:70|334:59,2,179.999994506836,2|8|2,1:2|3:2|1:2,0:0:0:0:
224,225,163399,1,0,3:0:0:0:
86,229,163581,2,0,B|-39:204,1,89.9999972534181,8|0,3:2|3:0,0:0:0:0:
77,338,163945,6,0,P|159:312|244:337,1,150,4|8,1:2|0:0,0:0:0:0:
331,363,164490,2,0,P|359:284|333:208,1,150,0|0,1:0|1:0,0:0:0:0:
259,170,165036,1,8,0:0:0:0:
415,100,165399,6,0,P|465:158|453:247,1,150,6|8,1:2|0:0,0:0:0:0:
364,197,165945,1,0,1:0:0:0:
298,283,166126,2,0,P|233:286|197:276,1,75,4|0,1:1|1:0,0:0:0:0:
143,206,166490,1,8,1:2:0:0:
242,136,166672,1,0,1:0:0:0:
100,100,166854,6,0,P|45:146|33:230,1,150,6|8,1:2|0:0,0:0:0:0:
123,297,167399,1,0,0:0:0:0:
56,370,167581,2,0,P|146:348|215:362,1,150,6|8,1:1|0:0,0:0:0:0:
312,371,168126,1,0,0:0:0:0:
261,236,168308,6,0,P|253:188|270:141,1,75,6|0,1:2|1:2,0:0:0:0:
392,198,168672,2,0,L|407:279,1,75,8|0,1:2|1:2,0:0:0:0:
499,199,169036,1,6,1:1:0:0:
427,103,169217,1,0,1:2:0:0:
307,148,169399,2,0,P|259:143|212:147,1,75,12|8,1:2|1:2,0:0:0:0:
143,198,169763,5,2,0:0:0:0:
256,192,169854,12,0,172672,0:0:0:0:
