osu file format v14

[General]
AudioFilename: kancollemp3.mp3
AudioLeadIn: 0
PreviewTime: 57753
Countdown: 0
SampleSet: Soft
StackLeniency: 0.7
Mode: 0
LetterboxInBreaks: 0
EpilepsyWarning: 1
WidescreenStoryboard: 1

[Editor]
DistanceSpacing: 0.8
BeatDivisor: 4
GridSize: 4
TimelineZoom: 1.5

[Metadata]
Title:Shounen yo, Tokkou no Sakigake to Nare
TitleUnicode:少年よ、特攻の魁となれ
Artist:senya
ArtistUnicode:senya
Creator:-Mo-
Version:yf's Insane
Source:
Tags:Satellite Narcissu yf_bmp Dailycare [C_u_r_i] Yuuhei Catharsis 幽閉カタルシス Shoujo Fractal 少女フラクタル 武蔵、大和 Kantai Collection KanColle 艦隊これくしょん 艦これ 艦隊これくしょん -艦これ- Kamase-tora かませ虎 奥山ナマリ Mayumi Morinaga 森永真由美 Korekushon Combined Fleet M3-2016春 Dagger-Gazel
BeatmapID:1188554
BeatmapSetID:562169

[Difficulty]
HPDrainRate:6
CircleSize:4.5
OverallDifficulty:8
ApproachRate:8.5
SliderMultiplier:1.6
SliderTickRate:1

[Events]
//Background and Video events
0,0,"yamabg.jpg",0,0
//Break Periods
2,82824,94336
2,183469,188788
2,197405,201598
//Storyboard Layer 0 (Background)
//Storyboard Layer 1 (Fail)
//Storyboard Layer 2 (Pass)
//Storyboard Layer 3 (Foreground)
Sprite,Foreground,Centre,"sb\hl.png",458,252 C,0,195656,,255,255,255 M,0,195656,195704,458,252,476.4131,259.6395 M,0,195704,195752,476.4131,259.6395,490.8509,273.2405 M,0,195752,195801,490.8509,273.2405,497.7053,291.8558 M,0,195801,195849,497.7053,291.8558,501.6996,307.068 M,0,195849,195897,501.6996,307.068,521.4133,307.7759 M,0,195897,195946,521.4133,307.7759,536.1765,320.6909 M,0,195946,195994,536.1765,320.6909,521.4133,307.7759 M,0,195994,196043,521.4133,307.7759,501.6996,307.068 M,0,196043,196091,501.6996,307.068,497.7053,291.8558 M,0,196091,196139,497.7053,291.8558,490.8509,273.2405 M,0,196139,196188,490.8509,273.2405,476.4131,259.6395 M,0,196188,196236,476.4131,259.6395,458,252 F,2,196236,196436,1,0 S,2,196236,196436,1,0.2
Sprite,Foreground,Centre,"sb\hl.png",446,172 C,0,196430,,255,255,255 F,2,196430,196630,1,0 S,2,196430,196630,1,0.2
Sprite,Foreground,Centre,"sb\hl.png",519,202 C,0,196624,,255,255,255 M,0,196624,196672,519,202,538.7675,198.9589 M,0,196672,196720,538.7675,198.9589,558,196 F,2,196720,196920,1,0 S,2,196720,196920,1,0.2
Sprite,Foreground,Centre,"sb\hl.png",407,165 C,0,196818,,255,255,255 M,0,196818,196866,407,165,426.6854,168.5333 M,0,196866,196914,426.6854,168.5333,446,172 F,2,196914,197114,1,0 S,2,196914,197114,1,0.2
Sprite,Foreground,Centre,"sb\hl.png",338,72 C,0,197011,,255,255,255 M,0,197011,197059,338,72,340.8284,91.79899 M,0,197059,197107,340.8284,91.79899,343.6569,111.598 F,2,197107,197307,1,0 S,2,197107,197307,1,0.2
Sprite,Foreground,Centre,"sb\hl.png",248,264 C,0,132172,,255,255,255 M,0,132172,132220,248,264,229.5869,271.6395 M,0,132220,132268,229.5869,271.6395,215.1491,285.2405 M,0,132268,132317,215.1491,285.2405,208.2947,303.8558 M,0,132317,132365,208.2947,303.8558,204.3004,319.068 M,0,132365,132413,204.3004,319.068,184.5867,319.7759 M,0,132413,132462,184.5867,319.7759,169.8235,332.6909 M,0,132462,132510,169.8235,332.6909,184.5867,319.7759 M,0,132510,132559,184.5867,319.7759,204.3004,319.068 M,0,132559,132607,204.3004,319.068,208.2947,303.8558 M,0,132607,132655,208.2947,303.8558,215.1491,285.2405 M,0,132655,132704,215.1491,285.2405,229.5869,271.6395 M,0,132704,132752,229.5869,271.6395,248,264 F,2,132752,132952,1,0 S,2,132752,132952,1,0.2
Sprite,Foreground,Centre,"sb\hl.png",259,183 C,0,132947,,255,255,255 F,2,132947,133147,1,0 S,2,132947,133147,1,0.2
Sprite,Foreground,Centre,"sb\hl.png",187,214 C,0,133140,,255,255,255 M,0,133140,133188,187,214,167.2326,210.9589 M,0,133188,133236,167.2326,210.9589,148,208 F,2,133236,133436,1,0 S,2,133236,133436,1,0.2
Sprite,Foreground,Centre,"sb\hl.png",299,176 C,0,133334,,255,255,255 M,0,133334,133382,299,176,279.3146,179.5333 M,0,133382,133430,279.3146,179.5333,260,183 F,2,133430,133630,1,0 S,2,133430,133630,1,0.2
Sprite,Foreground,Centre,"sb\hl.png",368,84 C,0,133527,,255,255,255 M,0,133527,133575,368,84,365.1716,103.799 M,0,133575,133623,365.1716,103.799,362.3431,123.598 F,2,133623,133823,1,0 S,2,133623,133823,1,0.2
Sprite,Foreground,Centre,"sb\hl.png",320,248 F,1,56301,56689,0,1 S,6,56301,57850,1,6
//Storyboard Sound Samples

[TimingPoints]
560,387.096774193548,4,2,1,70,1,0
560,-133.333333333333,4,2,1,70,0,0
6656,-133.333333333333,4,2,1,5,0,0
6753,-100,4,2,1,70,0,0
19140,-133.333333333333,4,2,1,70,0,0
30753,-100,4,2,1,70,0,0
42366,-66.6666666666667,4,2,1,70,0,0
43140,-100,4,2,1,70,0,0
43914,-133.333333333333,4,2,1,70,0,0
44495,-133.333333333333,4,2,1,70,0,0
50108,-100,4,2,1,70,0,0
57850,-100,4,2,1,70,0,1
80301,-66.6666666666667,4,2,1,70,0,0
80495,-66.6666666666667,4,2,1,5,0,0
81076,-100,4,2,1,70,0,1
82624,-100,4,2,1,70,0,0
96559,-200,4,2,1,70,0,0
98108,-100,4,2,1,70,0,0
98592,-100,4,2,1,5,0,0
99656,-200,4,2,1,70,0,0
101205,-133.333333333333,4,2,1,70,0,0
106624,-100,4,2,1,70,0,0
107398,-100,4,2,1,70,0,0
118237,-66.6666666666667,4,2,1,70,0,0
119011,-100,4,2,1,70,0,0
119785,-133.333333333333,4,2,1,50,0,0
125205,-133.333333333333,4,2,1,70,0,0
125979,-66.6666666666667,4,2,1,70,0,0
129076,-100,4,2,1,70,0,0
133721,-100,4,2,1,70,0,1
156172,-66.6666666666667,4,2,1,70,0,0
156366,-100,4,2,1,5,0,0
156947,-100,4,2,1,70,0,1
158495,-100,4,2,2,70,0,0
169624,-100,4,2,2,5,0,0
169721,-100,4,2,2,70,0,0
170011,-100,4,2,2,5,0,0
170108,-100,4,2,2,70,0,0
183269,-100,4,2,1,70,0,0
203398,-133.333333333333,4,2,1,70,0,0
204172,-100,4,2,1,70,0,0
204947,-66.6666666666667,4,2,1,70,0,0
205237,-66.6666666666667,4,2,1,5,0,0
205334,-66.6666666666667,4,2,1,70,0,0
205624,-66.6666666666667,4,2,1,5,0,0
205721,-66.6666666666667,4,2,1,70,0,0
206011,-66.6666666666667,4,2,1,5,0,0
206108,-66.6666666666667,4,2,1,70,0,0
206495,-100,4,2,1,70,0,0
209592,-100,4,2,1,70,0,1
219656,-66.6666666666667,4,2,1,70,0,0
219850,-100,4,2,1,5,0,0
220430,-100,4,2,1,70,0,1
221979,-100,4,2,1,70,0,0

[Colours]
Combo1 : 254,252,158
Combo2 : 222,139,198
Combo3 : 71,202,245
Combo4 : 249,104,104

[HitObjects]
104,140,560,21,2,0:0:0:0:
96,216,753,1,0,0:0:0:0:
168,188,947,1,0,0:0:0:0:
172,228,1043,1,2,0:0:0:0:
232,352,1237,2,0,L|244:240,1,90.0000034332277,2|2,0:0|0:0,0:0:0:0:
435,319,1721,1,0,0:0:0:0:
496,272,1914,1,2,0:0:0:0:
418,261,2108,22,0,L|438:329,1,60.0000022888184,2|0,0:0|0:0,0:0:0:0:
340,372,2495,2,0,L|360:304,1,60.0000022888184,2|0,0:0|0:0,0:0:0:0:
344,236,2882,1,2,0:0:0:0:
60,80,3269,1,2,0:0:0:0:
132,108,3463,1,0,0:0:0:0:
304,12,3656,22,0,L|436:8,1,120.000004577637,2|2,0:0|0:0,0:0:0:0:
164,36,4334,1,0,0:0:0:0:
124,32,4430,1,2,0:0:0:0:
132,108,4624,1,0,0:0:0:0:
240,52,4818,1,2,0:0:0:0:
60,80,5011,1,0,0:0:0:0:
92,260,5205,22,0,B|104:324|104:324|132:336|156:320,1,120.000004577637,2|2,0:0|0:0,0:0:0:0:
172,300,5689,2,0,L|160:240,1,60.0000022888184,2|0,0:0|0:0,0:0:0:0:
156,216,5979,2,0,B|220:200|220:200|292:236|292:236|356:220,1,210.000008010865,2|0,0:0|0:0,0:0:0:0:
376,212,6753,37,4,1:2:0:0:
344,60,7043,1,2,0:0:0:0:
492,112,7334,1,2,0:0:0:0:
404,128,7527,21,0,1:0:0:0:
200,0,7721,1,2,0:0:0:0:
208,24,8108,21,2,0:0:0:0:
204,40,8205,1,2,0:0:0:0:
200,56,8301,1,2,1:2:0:0:
24,212,8592,1,2,0:0:0:0:
16,172,8689,1,0,1:0:0:0:
96,176,8882,1,2,0:0:0:0:
60,104,9076,2,0,L|55:84,4,20,0|0|0|0|0,1:0|0:0|0:0|0:0|0:0,0:0:0:0:
68,60,9366,1,0,1:0:0:0:
68,60,9463,1,0,1:0:0:0:
176,180,9656,1,0,1:0:0:0:
52,284,9850,21,4,1:2:0:0:
204,340,10140,1,2,0:2:0:0:
176,180,10430,1,2,0:2:0:0:
144,264,10624,21,2,1:2:0:0:
372,344,10818,1,2,0:0:0:0:
364,384,10914,1,2,0:0:0:0:
344,380,11205,21,2,0:0:0:0:
340,364,11301,1,2,0:0:0:0:
336,348,11398,1,2,1:2:0:0:
492,364,11592,1,2,0:0:0:0:
484,324,11689,1,2,0:0:0:0:
404,308,11882,1,2,0:0:0:0:
396,268,11979,1,2,0:0:0:0:
444,204,12172,1,2,1:2:0:0:
444,204,12269,2,0,L|449:184,2,20
436,160,12463,1,0,1:0:0:0:
436,160,12559,2,0,L|448:116,1,40,0|0,1:0|1:0,0:0:0:0:
436,96,12753,2,0,L|448:52,1,40,0|0,1:0|1:0,0:0:0:0:
496,8,12947,22,0,B|456:8|456:8|424:28|424:28|381:28,1,120,4|2,1:2|0:0,0:0:0:0:
512,84,13527,1,2,0:0:0:0:
436,96,13721,21,0,1:0:0:0:
236,20,13914,1,2,0:0:0:0:
244,44,14301,21,2,0:0:0:0:
260,48,14398,1,2,0:0:0:0:
276,52,14495,1,2,1:2:0:0:
60,124,14785,1,2,0:0:0:0:
100,116,14882,1,0,1:0:0:0:
172,80,15076,1,2,0:0:0:0:
168,160,15269,1,2,0:0:0:0:
168,160,15366,2,0,L|164:196,2,20
240,128,15656,1,2,1:2:0:0:
200,284,15850,1,0,1:0:0:0:
200,284,15947,1,0,1:0:0:0:
200,284,16043,22,0,B|240:284|240:284|272:304|272:304|315:304,2,120,4|2|0,1:2|0:0|0:0,0:0:0:0:
120,284,16818,1,2,1:2:0:0:
484,360,17205,1,2,1:2:0:0:
432,300,17398,1,2,0:0:0:0:
496,172,17592,22,0,P|515:116|500:59,1,120,4|0,1:2|0:0,0:0:0:0:
444,0,17979,2,0,P|424:55|439:112,1,120,4|0,1:2|0:0,0:0:0:0:
388,168,18366,21,0,1:0:0:0:
348,164,18463,1,0,1:0:0:0:
308,160,18559,2,0,L|280:164,2,20,0|0|0,1:0|1:0|1:0,0:0:0:0:
324,236,18753,21,0,1:0:0:0:
364,240,18850,1,0,1:0:0:0:
404,244,18947,1,0,1:0:0:0:
444,248,19043,1,0,1:0:0:0:
488,312,19140,38,0,B|500:332|500:332|488:384,1,60.0000022888184,4|2,1:2|0:1,0:0:0:0:
416,348,19527,2,0,L|356:332,1,60.0000022888184,8|2,1:2|0:1,0:0:0:0:
491,256,19914,2,0,B|479:276|479:276|491:328,1,60.0000022888184,0|2,1:0|0:1,0:0:0:0:
416,348,20205,1,2,0:0:0:0:
416,348,20301,2,0,L|356:332,1,60.0000022888184,8|2,1:2|0:1,0:0:0:0:
100,360,20689,22,0,B|88:344|88:344|96:292,1,60.0000022888184,0|2,1:0|0:1,0:0:0:0:
132,184,21076,2,0,B|144:200|144:200|136:252,1,60.0000022888184,8|2,1:2|0:1,0:0:0:0:
56,216,21463,1,0,1:0:0:0:
52,200,21559,1,8,0:0:0:0:
48,184,21656,1,2,0:1:0:0:
108,56,21850,2,0,L|92:120,1,60.0000022888184,8|2,1:2|0:1,0:0:0:0:
24,56,22237,22,0,B|12:36|12:36|24:-16,1,60.0000022888184,0|2,1:0|0:1,0:0:0:0:
108,56,22624,2,0,L|168:72,1,60.0000022888184,8|2,1:2|0:1,0:0:0:0:
21,112,23011,2,0,B|33:92|33:92|21:40,1,60.0000022888184,0|2,1:0|0:1,0:0:0:0:
108,56,23301,1,2,0:0:0:0:
108,56,23398,2,0,L|168:72,1,60.0000022888184,8|2,1:2|0:1,0:0:0:0:
424,44,23785,22,0,B|436:60|436:60|428:112,1,60.0000022888184,0|2,1:0|0:1,0:0:0:0:
392,220,24076,1,2,0:0:0:0:
392,220,24172,2,0,B|380:204|380:204|388:152,1,60.0000022888184,8|2,1:2|0:1,0:0:0:0:
430,289,24559,2,0,L|416:348,1,60.0000022888184,0|2,1:2|0:1,0:0:0:0:
500,336,24947,1,8,1:2:0:0:
344,288,25140,1,0,1:0:0:0:
340,304,25237,1,0,1:0:0:0:
336,320,25334,22,0,B|276:296|280:344|219:322,1,120.000004577637,4|8,1:2|1:2,0:0:0:0:
231,191,25914,2,0,P|246:217|247:247,1,60.0000022888184,2|0,0:1|1:0,0:0:0:0:
144,328,26301,1,2,0:1:0:0:
144,328,26398,1,2,0:0:0:0:
144,328,26495,2,0,P|145:298|159:272,1,60.0000022888184,8|2,1:2|2:1,0:0:0:0:
136,140,26882,22,0,P|137:169|151:195,1,60.0000022888184,0|2,1:2|2:1,0:0:0:0:
84,244,27269,2,0,P|56:248|24:248,1,60.0000022888184,8|2,1:2|0:1,0:0:0:0:
231,191,27656,2,0,P|286:207|340:180,1,120.000004577637,0|8,1:0|1:2,0:0:0:0:
368,104,28237,1,8,0:2:0:0:
368,104,28334,1,8,0:2:0:0:
368,104,28430,21,0,1:0:0:0:
392,244,28624,1,2,0:1:0:0:
392,244,28818,2,0,L|404:312,1,60.0000022888184,8|2,1:2|2:1,0:0:0:0:
279,189,29205,2,0,L|339:180,1,60.0000022888184,0|2,1:2|2:1,0:0:0:0:
479,156,29591,1,8,1:2:0:0:
479,156,29785,1,8,0:0:0:0:
448,160,29882,1,8,0:0:0:0:
420,164,29979,21,4,1:2:0:0:
296,52,30172,1,2,0:1:0:0:
460,24,30366,2,0,L|452:88,1,60.0000022888184,8|2,1:2|0:1,0:0:0:0:
356,232,30753,37,0,1:0:0:0:
396,236,30850,1,0,1:0:0:0:
436,240,30947,2,0,L|464:236,2,20,0|0|0,1:0|1:0|1:0,0:0:0:0:
420,164,31140,21,0,1:0:0:0:
380,160,31237,1,0,1:0:0:0:
340,156,31334,1,0,1:0:0:0:
300,152,31430,1,0,1:0:0:0:
240,104,31527,6,0,P|184:88|144:132,1,120,4|0,1:2|2:2,0:0:0:0:
128,120,31914,2,0,P|120:160|144:212,1,80,8|2,1:2|0:1,0:0:0:0:
188,360,32301,2,0,P|199:322|191:283,1,80,0|2,1:2|0:1,0:0:0:0:
176,268,32592,1,2,0:0:0:0:
176,268,32689,2,0,L|96:277,1,80,8|2,1:2|0:1,0:0:0:0:
8,376,33076,21,0,1:0:0:0:
16,296,33269,1,2,2:1:0:0:
176,268,33463,21,8,1:2:0:0:
168,188,33656,1,2,2:1:0:0:
36,216,33850,22,0,P|0:132|20:32,1,160,0|8,1:0|1:2,0:0:0:0:
156,60,34430,1,2,0:1:0:0:
156,60,34527,1,0,0:0:0:0:
156,60,34624,22,0,P|140:116|184:156,1,120,0|0,1:0|2:2,0:0:0:0:
172,172,35011,2,0,P|212:180|264:156,1,80,8|2,1:2|0:1,0:0:0:0:
412,104,35398,2,0,P|374:92|335:100,1,80,0|2,1:2|0:1,0:0:0:0:
320,116,35689,1,2,0:0:0:0:
320,116,35785,2,0,L|329:195,1,80,8|2,1:2|0:1,0:0:0:0:
340,276,36172,21,0,1:0:0:0:
329,196,36366,1,2,2:1:0:0:
329,196,36463,1,2,0:0:0:0:
329,196,36559,1,8,1:2:0:0:
320,116,36753,1,2,0:1:0:0:
340,276,36947,1,0,1:0:0:0:
332,296,37043,2,0,L|252:302,1,80,8|0,1:2|0:0,0:0:0:0:
244,284,37334,1,8,1:2:0:0:
408,312,37527,21,0,1:0:0:0:
408,312,37624,1,0,1:0:0:0:
408,312,37721,1,4,1:2:0:0:
452,380,37914,1,2,0:1:0:0:
448,164,38108,21,8,1:2:0:0:
404,232,38301,1,2,0:1:0:0:
300,52,38495,21,0,1:0:0:0:
380,48,38689,1,2,0:1:0:0:
404,232,38882,21,8,1:2:0:0:
324,236,39076,1,2,0:1:0:0:
156,188,39269,22,0,B|180:200|180:200|235:191,1,80,0|2,1:0|0:1,0:0:0:0:
248,204,39559,1,0,0:0:0:0:
248,204,39656,2,0,L|256:120,1,80,8|2,1:2|0:1,0:0:0:0:
176,104,40043,1,0,1:0:0:0:
176,104,40140,1,8,1:2:0:0:
176,104,40237,1,0,1:0:0:0:
152,28,40430,1,8,1:2:0:0:
76,184,40624,1,2,0:1:0:0:
76,184,40721,1,2,0:0:0:0:
76,184,40818,22,0,L|56:236,1,40,0|0,1:0|0:0,0:0:0:0:
32,328,41011,2,0,L|12:276,1,40,2|0,1:1|0:0,0:0:0:0:
108,292,41205,2,0,L|160:312,1,40,8|0,1:2|0:0,0:0:0:0:
224,284,41398,1,2,1:0:0:0:
224,284,41495,1,0,1:0:0:0:
224,284,41592,22,0,L|252:240,1,40,0|0,1:0|0:0,0:0:0:0:
288,336,41785,2,0,L|316:380,1,40,2|0,1:2|0:0,0:0:0:0:
408,312,41979,2,0,L|348:312,1,40,8|0,1:2|0:0,0:0:0:0:
284,180,42172,1,0,1:0:0:0:
324,180,42269,1,0,1:0:0:0:
364,179,42366,22,0,P|388:127|364:74,1,120.000004577637,4|0,1:2|0:0,0:0:0:0:
352,0,42656,2,0,P|385:47|443:53,1,120.000004577637,4|0,1:2|0:0,0:0:0:0:
487,120,42947,2,0,P|467:141|464:170,1,60.0000022888184,4|0,1:2|0:0,0:0:0:0:
434,249,43140,21,0,1:0:0:0:
430,289,43237,1,0,1:0:0:0:
427,329,43334,2,0,L|460:332,2,20,0|0|0,1:0|1:0|1:0,0:0:0:0:
355,300,43527,21,0,1:0:0:0:
358,260,43624,1,0,1:0:0:0:
361,220,43721,1,2,1:2:0:0:
364,179,43818,1,2,1:2:0:0:
329,112,43914,22,0,P|283:44|351:0,1,180.000006866455,4|0,1:2|1:2,0:0:0:0:
208,92,44689,2,0,B|192:104|192:104|152:104,1,60.0000022888184,8|0,1:2|0:0,0:0:0:0:
144,64,44979,2,0,B|160:76|160:76|200:76,1,60.0000022888184,0|0,1:2|0:0,0:0:0:0:
208,48,45269,1,0,1:0:0:0:
72,24,45463,2,0,B|40:130|116:94|92:195,1,180.000006866455,0|0,1:0|1:0,0:0:0:0:
84,208,46092,2,0,L|56:212,3,15.0000005722046,0|0|0|8,1:0|1:0|1:0|1:2,0:0:0:0:
240,236,46527,1,0,1:0:0:0:
88,288,46818,1,0,1:0:0:0:
160,256,47011,22,0,B|232:264|232:264|246:296|246:296|318:302,1,180.000006866455,0|0,1:0|1:0,0:0:0:0:
388,264,47785,2,0,B|376:248|376:248|376:208,1,60.0000022888184,8|0,1:2|0:0,0:0:0:0:
416,200,48076,2,0,B|404:216|404:216|404:256,1,60.0000022888184,0|0,1:2|0:0,0:0:0:0:
432,264,48366,1,0,1:0:0:0:
500,124,48559,2,0,B|394:156|430:80|329:104,1,180.000006866455,0|0,1:0|1:0,0:0:0:0:
316,112,49189,2,0,L|312:140,3,15.0000005722046,0|0|0|8,1:0|1:0|1:0|1:2,0:0:0:0:
464,52,49527,1,0,1:0:0:0:
464,52,49624,1,8,1:2:0:0:
272,44,49914,1,0,1:0:0:0:
272,44,50011,1,0,1:0:0:0:
272,44,50108,22,0,P|232:48|200:84,1,80,4|2,0:0|0:1,0:0:0:0:
80,0,50495,2,0,P|113:20|126:57,1,80,8|2,1:2|0:1,0:0:0:0:
140,216,50882,2,0,L|152:136,1,80,2|2,1:2|0:1,0:0:0:0:
151,136,51172,1,2,0:0:0:0:
151,136,51269,2,0,B|176:152|176:152|226:148,1,80,8|2,1:2|0:1,0:0:0:0:
288,200,51559,1,0,0:0:0:0:
288,200,51656,22,0,L|376:204,1,80,2|2,1:2|0:1,0:0:0:0:
340,352,52043,2,0,B|324:327|324:327|327:276,1,80,10|2,1:2|0:1,0:0:0:0:
424,132,52430,1,0,1:0:0:0:
440,168,52527,1,0,0:0:0:0:
456,204,52624,1,2,0:1:0:0:
440,240,52721,1,2,0:0:0:0:
420,276,52818,1,8,1:2:0:0:
288,200,53011,1,2,0:1:0:0:
288,200,53108,1,2,0:0:0:0:
288,200,53205,22,0,L|308:148,1,40,4|0,1:2|0:0,0:0:0:0:
332,56,53398,2,0,L|352:108,1,40,2|0,1:1|0:0,0:0:0:0:
256,92,53592,2,0,L|204:72,1,40,8|0,1:2|0:0,0:0:0:0:
140,100,53785,1,0,1:0:0:0:
140,100,53882,1,0,1:0:0:0:
140,100,53979,22,0,L|112:144,1,40,0|0,1:0|0:0,0:0:0:0:
76,48,54172,2,0,L|48:4,1,40,2|0,1:2|0:0,0:0:0:0:
0,124,54366,2,0,L|56:116,1,40,8|0,1:2|0:0,0:0:0:0:
60,196,54559,1,0,1:0:0:0:
60,196,54656,1,0,1:0:0:0:
60,196,54753,22,0,L|40:248,1,40,2|0,1:2|0:0,0:0:0:0:
16,340,54947,2,0,L|-4:288,1,40,2|0,1:2|0:0,0:0:0:0:
91,303,55140,1,0,1:0:0:0:
91,303,55237,2,0,L|121:315,2,20,0|0|0,1:2|1:0|1:0,0:0:0:0:
180,280,55430,1,0,1:0:0:0:
184,288,55527,21,0,1:2:0:0:
224,284,55624,1,0,1:2:0:0:
264,280,55721,1,2,1:2:0:0:
304,276,55818,1,2,1:2:0:0:
376,256,55914,21,0,1:2:0:0:
356,220,56011,1,0,1:2:0:0:
368,180,56108,1,0,1:1:0:0:
388,216,56205,1,0,1:2:0:0:
376,256,56301,21,4,0:0:0:0:
256,192,56398,12,0,57656,0:0:0:0:
203,234,57850,38,0,B|175:254|175:254|90:238,1,120,4|0,1:2|0:0,0:0:0:0:
71,246,58237,2,0,L|87:150,1,80,8|2,1:2|0:1,0:0:0:0:
160,4,58624,2,0,B|148:24|148:24|157:88,1,80,0|2,1:0|0:1,0:0:0:0:
144,100,58914,1,2,0:0:0:0:
144,100,59011,2,0,L|64:80,1,80,8|2,1:2|0:1,0:0:0:0:
84,167,59398,21,2,1:2:0:0:
224,144,59592,1,2,0:1:0:0:
288,192,59785,21,8,1:2:0:0:
148,215,59979,1,2,0:1:0:0:
160,4,60172,21,2,1:2:0:0:
296,48,60366,1,2,1:0:0:0:
296,48,60463,1,0,1:0:0:0:
296,48,60559,2,0,L|380:40,1,80,8|0,1:2|1:0,0:0:0:0:
424,188,60947,22,0,B|436:208|436:208|424:262,1,80,4|2,1:2|0:1,0:0:0:0:
357,381,61334,2,0,B|344:360|344:360|357:306,1,80,8|2,1:2|2:1,0:0:0:0:
353,153,61624,1,0,1:0:0:0:
353,153,61721,2,0,B|340:173|340:173|353:227,1,80,2|2,1:2|0:1,0:0:0:0:
508,348,62108,2,0,L|416:340,1,80,8|2,1:2|0:1,0:0:0:0:
216,204,62495,21,2,1:2:0:0:
353,228,62689,1,2,0:1:0:0:
420,179,62882,21,8,1:2:0:0:
280,156,63076,1,2,0:1:0:0:
288,368,63269,21,2,1:2:0:0:
428,341,63463,1,2,1:2:0:0:
353,153,63656,21,8,1:2:0:0:
220,292,63850,1,0,1:0:0:0:
216,308,63947,1,0,1:0:0:0:
212,324,64043,22,0,B|152:300|156:348|95:326,1,120.000004577637,4|0,1:2|2:2,0:0:0:0:
80,340,64430,2,0,P|52:312|47:271,1,80,8|2,1:2|0:1,0:0:0:0:
120,117,64818,2,0,B|87:173|135:175|105:233,1,120.000004577637,4|0,1:2|2:2,0:0:0:0:
118,250,65205,2,0,P|86:273|46:273,1,80,8|2,1:2|0:1,0:0:0:0:
56,80,65592,22,0,P|120:40|192:112,1,160,4|8,1:2|1:2,0:0:0:0:
118,250,66172,1,2,0:1:0:0:
120,116,66366,1,4,1:2:0:0:
124,120,66463,1,2,0:0:0:0:
128,124,66559,1,2,0:0:0:0:
404,280,66947,1,0,1:2:0:0:
400,276,67044,1,0,1:0:0:0:
396,272,67140,21,4,1:2:0:0:
416,127,67334,2,0,L|432:28,1,80,2|8,0:1|1:2,0:0:0:0:
363,191,67721,1,2,0:1:0:0:
503,215,67914,1,0,1:0:0:0:
363,191,68108,2,0,L|266:175,1,80,2|8,0:0|1:2,0:0:0:0:
116,216,68495,1,2,1:0:0:0:
147,212,68592,1,0,1:0:0:0:
175,208,68689,22,0,P|196:216|216:232,1,40,2|0,1:2|0:0,0:0:0:0:
240,300,68882,2,0,L|232:339,1,40,0|0,1:2|0:0,0:0:0:0:
155,367,69076,2,0,B|148:346|148:346|157:289,1,80,8|0,1:2|1:0,0:0:0:0:
175,208,69366,1,0,1:0:0:0:
175,208,69463,21,0,1:0:0:0:
135,204,69559,1,0,1:0:0:0:
95,200,69656,2,0,L|67:204,2,20,0|0|0,1:0|1:0|1:0,0:0:0:0:
124,128,69850,21,8,1:2:0:0:
164,132,69947,1,0,1:0:0:0:
204,136,70043,1,2,1:2:0:0:
244,140,70140,1,2,1:2:0:0:
276,68,70237,21,4,1:2:0:0:
380,144,70430,1,2,0:1:0:0:
496,88,70624,1,8,1:2:0:0:
496,88,70721,1,2,0:0:0:0:
356,0,70914,1,2,0:0:0:0:
356,0,71011,2,0,B|344:24|344:24|352:108,1,80,0|2,1:2|0:1,0:0:0:0:
380,144,71301,1,2,0:0:0:0:
380,144,71398,2,0,L|464:152,1,80,8|2,1:2|0:1,0:0:0:0:
284,384,71785,21,2,1:2:0:0:
261,244,71979,1,2,0:1:0:0:
309,180,72172,21,8,1:2:0:0:
332,320,72366,1,2,0:1:0:0:
121,308,72559,21,2,1:2:0:0:
165,172,72753,1,2,1:1:0:0:
165,172,72850,1,0,1:0:0:0:
165,172,72947,2,0,P|180:220|168:264,1,80,8|2,1:2|1:1,0:0:0:0:
80,376,73334,22,0,P|52:348|60:256,1,120,4|0,1:2|2:2,0:0:0:0:
92,208,73721,2,0,L|96:108,1,80,8|2,1:2|0:1,0:0:0:0:
16,16,74011,1,2,0:0:0:0:
16,16,74108,2,0,P|4:54|12:93,1,80,0|2,1:2|0:1,0:0:0:0:
180,100,74495,2,0,L|259:91,1,80,10|2,1:2|0:1,0:0:0:0:
310,227,74882,21,2,1:2:0:0:
334,90,75076,1,2,0:0:0:0:
285,23,75269,21,8,1:2:0:0:
262,163,75463,1,2,0:1:0:0:
474,155,75656,21,2,1:2:0:0:
447,15,75850,1,2,1:2:0:0:
259,90,76043,21,8,1:2:0:0:
428,220,76237,1,0,1:0:0:0:
428,220,76334,1,0,1:0:0:0:
428,220,76430,21,4,1:2:0:0:
496,264,76624,1,2,0:1:0:0:
280,260,76818,21,8,1:2:0:0:
348,216,77011,2,0,L|308:192,1,40,2|2,0:1|0:0,0:0:0:0:
168,112,77205,21,4,1:2:0:0:
164,192,77398,1,2,0:1:0:0:
348,216,77592,21,8,1:2:0:0:
352,136,77785,1,2,0:1:0:0:
200,264,77979,22,0,B|188:288|188:288|197:343,1,80,4|2,1:2|0:0,0:0:0:0:
184,356,78269,1,0,0:0:0:0:
184,356,78366,2,0,L|268:364,1,80,8|2,1:2|0:1,0:0:0:0:
348,216,78753,1,2,1:2:0:0:
200,264,78947,1,0,1:0:0:0:
200,264,79043,1,0,1:0:0:0:
200,264,79140,1,8,1:2:0:0:
60,188,79334,1,2,0:0:0:0:
60,188,79430,1,2,0:0:0:0:
60,188,79527,22,0,L|40:136,1,40,4|0,1:2|0:0,0:0:0:0:
16,44,79721,2,0,L|-4:96,1,40,2|0,1:2|0:0,0:0:0:0:
92,80,79914,2,0,L|144:60,1,40,8|0,1:2|0:0,0:0:0:0:
208,88,80108,1,0,1:0:0:0:
208,88,80205,1,0,1:0:0:0:
208,88,80301,22,0,L|162:199,1,120.000004577637,4|0,1:2|0:0,0:0:0:0:
162,199,81076,22,0,L|182:251,1,40,4|0,1:2|0:0,0:0:0:0:
206,343,81269,2,0,L|226:291,1,40,2|0,1:2|0:0,0:0:0:0:
130,307,81463,2,0,L|78:327,1,40,8|0,1:2|0:0,0:0:0:0:
16,300,81656,1,2,1:2:0:0:
16,300,81753,1,2,1:2:0:0:
20,260,81850,21,0,1:0:0:0:
24,220,81947,1,0,1:0:0:0:
28,180,82043,2,0,L|8:178,2,20,0|0|0,1:0|1:0|1:0,0:0:0:0:
104,201,82237,21,0,1:0:0:0:
100,241,82334,1,0,1:0:0:0:
96,281,82430,1,0,1:2:0:0:
92,321,82527,1,0,1:2:0:0:
36,376,82624,21,4,0:0:0:0:
248,188,95011,37,4,1:2:0:0:
406,168,95205,1,4,1:2:0:0:
406,168,96559,22,0,B|246:188,1,160,4|0,1:2|0:0,0:0:0:0:
248,188,98108,22,0,B|236:208|236:208|252:276,1,80,4|0,1:2|0:0,0:0:0:0:
253,337,98398,2,0,B|265:317|265:317|245:249,1,80,4|0,1:2|0:0,0:0:0:0:
250,263,99656,22,0,B|234:275|234:275|182:267,1,60.0000022888184,4|0,1:2|2:0,0:0:0:0:
82,216,100043,2,0,B|98:204|98:204|150:212,1,60.0000022888184,4|0,1:2|0:0,0:0:0:0:
120,288,100430,2,0,L|127:334,1,40,4|0,1:2|1:0,0:0:0:0:
180,144,100818,1,8,1:2:0:0:
188,124,100914,1,0,1:0:0:0:
192,104,101011,1,0,1:0:0:0:
188,84,101108,1,0,1:0:0:0:
176,64,101205,22,0,B|236:88|232:40|293:62,1,120.000004577637,4|8,1:2|0:2,0:0:0:0:
281,193,101785,2,0,P|266:167|265:137,1,60.0000022888184,0|2,0:1|0:3,0:0:0:0:
368,56,102172,1,0,0:1:0:0:
368,56,102269,1,2,0:3:0:0:
368,56,102366,2,0,P|367:86|353:112,1,60.0000022888184,8|0,0:2|2:1,0:0:0:0:
376,244,102753,22,0,P|375:215|361:189,1,60.0000022888184,2|0,0:3|2:1,0:0:0:0:
428,140,103140,2,0,P|456:136|488:136,1,60.0000022888184,8|0,0:2|0:3,0:0:0:0:
281,193,103527,2,0,P|226:177|172:204,1,120.000004577637,2|8,0:3|0:2,0:0:0:0:
120,140,104108,1,0,0:2:0:0:
144,280,104301,21,2,0:3:0:0:
120,140,104495,2,0,L|108:72,1,60.0000022888184,0|8,0:0|0:2,0:0:0:0:
173,204,104882,1,0,0:0:0:0:
33,228,105076,1,2,0:3:0:0:
173,204,105269,2,0,L|248:192,1,60.0000022888184,0|8,0:0|0:2,0:0:0:0:
33,228,105656,1,0,0:0:0:0:
173,204,105850,21,2,0:3:0:0:
216,332,106043,1,2,0:3:0:0:
52,360,106237,2,0,L|60:296,1,60.0000022888184,8|2,1:2|0:3,0:0:0:0:
156,152,106624,37,0,1:0:0:0:
116,148,106721,1,0,1:0:0:0:
76,144,106818,2,0,L|48:148,2,20,0|0|0,1:0|1:0|1:0,0:0:0:0:
92,220,107011,21,8,1:2:0:0:
132,224,107108,1,0,1:0:0:0:
172,228,107205,1,0,1:0:0:0:
212,232,107301,1,0,1:0:0:0:
272,280,107398,6,0,P|328:296|368:252,1,120,4|0,1:2|2:2,0:0:0:0:
384,264,107785,2,0,P|392:224|368:172,1,80,8|2,1:2|0:1,0:0:0:0:
316,24,108172,2,0,P|305:62|313:101,1,80,0|2,1:2|0:1,0:0:0:0:
328,116,108463,1,2,0:0:0:0:
328,116,108559,2,0,L|408:107,1,80,8|2,1:2|0:1,0:0:0:0:
384,264,108947,21,0,1:0:0:0:
308,236,109140,1,2,2:1:0:0:
328,116,109334,21,8,1:2:0:0:
252,144,109527,1,2,2:1:0:0:
460,172,109721,22,0,B|437:254|497:234|469:326,1,160,0|8,1:0|1:2,0:0:0:0:
356,324,110301,1,2,0:1:0:0:
356,324,110398,1,0,0:0:0:0:
356,324,110495,22,0,P|372:268|328:228,1,120,0|0,1:0|2:2,0:0:0:0:
340,212,110882,2,0,P|300:204|248:228,1,80,8|2,1:2|0:1,0:0:0:0:
100,280,111269,2,0,P|138:292|177:284,1,80,0|2,1:2|0:1,0:0:0:0:
192,268,111559,1,2,0:0:0:0:
192,268,111656,2,0,L|183:189,1,80,8|2,1:2|0:1,0:0:0:0:
172,108,112043,21,0,1:0:0:0:
183,188,112237,1,2,2:1:0:0:
183,188,112334,1,2,0:0:0:0:
183,188,112430,1,8,1:2:0:0:
192,268,112624,1,2,0:1:0:0:
172,108,112818,1,0,1:0:0:0:
180,88,112914,2,0,L|260:82,1,80,8|0,0:0|0:0,0:0:0:0:
268,100,113205,1,8,1:2:0:0:
104,72,113398,21,0,1:0:0:0:
104,72,113495,1,0,1:0:0:0:
104,72,113592,1,4,1:2:0:0:
60,4,113785,1,2,0:1:0:0:
64,220,113979,21,8,1:2:0:0:
108,152,114172,1,2,0:1:0:0:
212,332,114366,21,0,1:0:0:0:
132,336,114559,1,2,0:1:0:0:
108,152,114753,21,8,1:2:0:0:
188,148,114947,1,2,0:1:0:0:
356,196,115140,22,0,B|332:184|332:184|277:193,1,80,0|2,1:0|0:1,0:0:0:0:
264,180,115430,1,0,0:0:0:0:
264,180,115527,2,0,L|256:264,1,80,8|2,1:2|0:1,0:0:0:0:
336,280,115914,1,0,1:0:0:0:
336,280,116011,1,8,1:2:0:0:
336,280,116108,1,0,1:0:0:0:
360,356,116301,1,8,1:2:0:0:
436,200,116495,1,2,0:1:0:0:
436,200,116592,1,2,0:0:0:0:
436,200,116689,22,0,L|456:148,1,40,0|0,1:0|0:0,0:0:0:0:
480,56,116882,2,0,L|500:108,1,40,2|0,1:1|0:0,0:0:0:0:
404,92,117076,2,0,L|352:72,1,40,8|0,1:2|0:0,0:0:0:0:
288,100,117269,1,0,1:0:0:0:
288,100,117366,1,0,1:0:0:0:
288,100,117463,22,0,L|260:144,1,40,0|0,1:0|0:0,0:0:0:0:
224,48,117656,2,0,L|196:4,1,40,2|0,1:1|0:0,0:0:0:0:
104,72,117850,2,0,L|164:72,1,40,8|0,1:2|0:0,0:0:0:0:
228,204,118043,1,0,1:0:0:0:
188,204,118140,1,0,1:0:0:0:
148,205,118237,22,0,P|124:257|148:310,1,120.000004577637,4|0,1:2|0:0,0:0:0:0:
160,384,118527,2,0,P|127:337|69:331,1,120.000004577637,4|0,1:2|0:0,0:0:0:0:
25,264,118818,2,0,P|45:243|48:214,1,60.0000022888184,4|0,1:2|0:0,0:0:0:0:
78,135,119011,21,0,1:0:0:0:
82,95,119108,1,0,1:0:0:0:
85,55,119205,2,0,L|52:52,2,20,0|0|0,1:0|1:0|1:0,0:0:0:0:
157,84,119398,21,0,1:0:0:0:
154,124,119495,1,0,1:0:0:0:
151,164,119592,1,2,1:2:0:0:
148,205,119689,1,2,1:2:0:0:
183,272,119785,22,0,P|229:340|161:384,1,180.000006866455,4|0,1:2|1:2,0:0:0:0:
351,371,120559,2,0,P|308:336|330:284,1,120.000004577637,8|0,1:2|1:0,0:0:0:0:
330,283,121334,2,0,B|436:315|400:239|501:263,2,180.000006866455,0|0|2,1:0|1:3|0:3,0:0:0:0:
368,216,122689,1,2,1:3:0:0:
360,140,122882,22,0,B|300:136|300:136|252:100|252:100|192:96,1,180.000006866455,0|0,1:0|1:0,0:0:0:0:
115,103,123656,2,0,B|131:145|131:145|124:220,1,120.000004577637,8|0,1:2|1:0,0:0:0:0:
124,220,124237,1,0,0:0:0:0:
24,284,124430,2,0,B|94:262|70:313|138:297,1,120.000004577637,0|0,1:0|1:0,0:0:0:0:
137,297,125011,1,0,0:0:0:0:
124,220,125205,21,0,1:0:0:0:
48,356,125398,1,8,1:2:0:0:
200,248,125592,1,0,1:0:0:0:
300,316,125785,1,8,1:2:0:0:
300,316,125882,1,0,1:0:0:0:
300,316,125979,22,0,B|360:348|360:348|411:338,1,120.000004577637,4|4,1:2|0:0,0:0:0:0:
411,338,127527,22,0,L|377:223,1,120.000004577637,4|4,1:2|0:0,0:0:0:0:
363,185,129076,22,0,L|383:237,1,40,4|0,1:2|0:0,0:0:0:0:
407,329,129269,2,0,L|427:277,1,40,2|2,1:2|0:0,0:0:0:0:
331,293,129463,2,0,L|279:313,1,40,8|2,1:2|0:0,0:0:0:0:
215,285,129656,1,0,1:0:0:0:
215,285,129753,1,0,1:0:0:0:
215,285,129850,22,0,L|187:241,1,40,0|0,1:0|0:0,0:0:0:0:
151,337,130043,2,0,L|123:381,1,40,2|0,1:2|0:0,0:0:0:0:
75,261,130237,2,0,L|131:269,1,40,8|2,1:2|0:0,0:0:0:0:
135,189,130430,1,0,1:0:0:0:
135,189,130527,1,0,1:0:0:0:
135,189,130624,22,0,L|115:137,1,40,2|0,1:2|1:0,0:0:0:0:
91,45,130818,2,0,L|71:97,1,40,2|0,1:2|1:0,0:0:0:0:
167,81,131011,2,0,L|219:61,1,40,8|0,1:2|1:0,0:0:0:0:
272,112,131205,1,2,1:2:0:0:
272,112,131301,1,0,1:0:0:0:
272,112,131398,21,0,1:2:0:0:
308,116,131495,1,0,1:2:0:0:
344,120,131592,1,2,1:2:0:0:
380,124,131689,1,2,1:2:0:0:
376,196,131785,21,0,1:2:0:0:
336,192,131882,1,0,1:2:0:0:
296,188,131979,1,0,1:2:0:0:
256,184,132076,1,0,1:2:0:0:
184,208,132172,22,0,B|140:220|144:264|144:264|116:256|104:280,2,120,4|0|0,1:2|1:0|1:0,0:0:0:0:
195,127,132947,1,0,1:0:0:0:
123,158,133140,22,0,L|84:152,1,40,0|0,1:0|1:0,0:0:0:0:
235,120,133334,2,0,L|196:127,1,40,0|0,1:0|1:0,0:0:0:0:
304,28,133527,2,0,L|296:84,1,40,0|0,1:0|1:0,0:0:0:0:
309,150,133721,38,0,B|337:130|337:130|422:146,1,120,4|0,1:2|0:0,0:0:0:0:
441,138,134108,2,0,L|425:234,1,80,8|2,1:2|0:1,0:0:0:0:
356,376,134495,2,0,B|368:356|368:356|359:292,1,80,0|2,1:0|0:1,0:0:0:0:
372,280,134785,1,2,0:0:0:0:
372,280,134882,2,0,L|452:300,1,80,8|2,1:2|0:1,0:0:0:0:
428,217,135269,21,2,1:2:0:0:
372,280,135463,1,2,0:1:0:0:
449,299,135656,21,8,1:2:0:0:
284,340,135850,1,2,0:1:0:0:
356,376,136043,21,2,1:2:0:0:
212,224,136237,1,0,1:0:0:0:
212,224,136334,1,0,1:0:0:0:
212,224,136430,2,0,L|212:324,1,80,8|2,1:2|1:1,0:0:0:0:
97,156,136818,22,0,B|117:144|117:144|171:156,1,80,4|2,1:2|0:1,0:0:0:0:
286,223,137205,2,0,B|265:236|265:236|211:223,1,80,8|2,1:2|2:1,0:0:0:0:
58,227,137495,1,2,0:0:0:0:
58,227,137592,2,0,B|78:240|78:240|132:227,1,80,2|2,1:2|0:1,0:0:0:0:
156,0,137979,2,0,L|164:92,1,80,8|2,1:2|0:1,0:0:0:0:
172,156,138269,1,8,0:2:0:0:
172,156,138366,21,2,1:2:0:0:
286,223,138559,1,2,0:1:0:0:
324,220,138656,1,2,0:0:0:0:
364,216,138753,21,0,1:0:0:0:
336,140,138947,1,2,0:1:0:0:
352,296,139140,21,2,1:2:0:0:
412,152,139334,1,2,0:1:0:0:
428,312,139527,21,0,1:2:0:0:
424,332,139624,1,0,1:0:0:0:
416,348,139721,1,0,1:0:0:0:
400,360,139818,1,0,1:0:0:0:
380,368,139914,22,0,B|320:392|324:344|263:366,1,120.000004577637,4|0,1:2|2:2,0:0:0:0:
245,378,140301,2,0,P|239:339|212:312,1,80,8|2,1:2|0:1,0:0:0:0:
32,232,140689,22,0,P|72:259|148:245,1,120,4|0,1:2|2:2,0:0:0:0:
156,264,141076,2,0,P|179:232|179:192,1,80,8|2,1:2|0:1,0:0:0:0:
372,152,141463,22,0,P|304:184|236:120,1,160,4|8,1:2|1:2,0:0:0:0:
164,116,142043,1,2,0:1:0:0:
296,20,142237,21,4,1:2:0:0:
304,60,142334,1,2,0:0:0:0:
312,100,142430,1,2,0:0:0:0:
312,100,142818,21,0,1:2:0:0:
304,60,142914,1,0,1:2:0:0:
296,20,143011,1,4,1:2:0:0:
164,116,143205,22,0,P|124:120|84:88,1,80,2|8,0:1|1:2,0:0:0:0:
60,28,143592,1,2,0:1:0:0:
72,180,143785,1,0,1:0:0:0:
224,168,143979,2,0,P|264:164|304:196,1,80,2|8,0:1|1:2,0:0:0:0:
432,184,144366,1,0,1:0:0:0:
401,188,144463,1,0,1:0:0:0:
373,192,144559,21,2,1:2:0:0:
252,88,144753,1,0,1:0:0:0:
404,32,144947,2,0,L|388:124,1,80,8|0,1:2|1:0,0:0:0:0:
373,192,145237,1,0,1:0:0:0:
373,192,145334,21,0,1:0:0:0:
413,196,145430,1,0,1:0:0:0:
453,200,145527,2,0,L|481:196,2,20,0|0|0,1:0|1:0|1:0,0:0:0:0:
424,272,145721,21,8,1:2:0:0:
384,268,145818,1,0,1:0:0:0:
344,264,145914,1,2,1:2:0:0:
304,260,146011,1,2,1:2:0:0:
244,312,146108,21,4,1:2:0:0:
140,236,146301,1,2,0:1:0:0:
24,292,146495,1,8,1:2:0:0:
24,292,146592,1,2,0:0:0:0:
164,380,146785,1,2,0:0:0:0:
164,380,146882,2,0,B|176:356|176:356|168:272,1,80,0|2,1:2|0:1,0:0:0:0:
140,236,147172,1,2,0:0:0:0:
140,236,147269,2,0,L|56:228,1,80,8|2,1:2|0:1,0:0:0:0:
156,160,147559,1,0,1:0:0:0:
156,160,147656,21,2,1:2:0:0:
297,149,147850,1,2,0:1:0:0:
357,202,148043,21,8,1:2:0:0:
215,213,148237,1,2,0:1:0:0:
245,4,148430,21,2,1:2:0:0:
377,59,148624,1,0,1:0:0:0:
377,59,148721,1,0,1:0:0:0:
377,59,148818,2,0,P|327:69|285:53,1,80,8|0,1:2|1:0,0:0:0:0:
448,24,149205,22,0,P|453:82|417:128,1,120,4|0,1:2|2:2,0:0:0:0:
468,188,149592,2,0,L|464:288,1,80,8|2,1:2|0:1,0:0:0:0:
464,344,149882,1,2,2:0:0:0:
464,344,149979,2,0,P|423:334|400:304,1,80,0|2,1:2|0:1,0:0:0:0:
332,284,150269,1,2,0:0:0:0:
332,284,150366,2,0,L|253:293,1,80,8|2,1:2|0:1,0:0:0:0:
48,268,150753,21,2,1:2:0:0:
185,244,150947,1,2,0:1:0:0:
252,293,151140,21,8,1:2:0:0:
112,316,151334,1,2,0:1:0:0:
120,104,151527,21,2,1:2:0:0:
260,131,151721,1,2,1:2:0:0:
185,319,151914,22,0,L|172:276,1,40,2|0,1:2|1:0,0:0:0:0:
120,104,152108,1,0,1:0:0:0:
120,104,152205,1,0,1:0:0:0:
120,104,152301,21,4,1:2:0:0:
164,36,152495,1,2,0:1:0:0:
160,252,152689,21,8,1:2:0:0:
116,184,152882,2,0,L|92:224,1,40,2|2,0:1|0:0,0:0:0:0:
12,364,153076,21,4,1:2:0:0:
92,368,153269,1,2,0:1:0:0:
116,184,153463,21,8,1:2:0:0:
36,180,153656,1,2,0:1:0:0:
164,332,153850,22,0,B|188:344|188:344|243:335,1,80,4|2,1:2|0:1,0:0:0:0:
256,348,154140,1,0,0:0:0:0:
256,348,154237,2,0,L|264:264,1,80,8|2,1:2|0:1,0:0:0:0:
116,184,154624,1,2,1:2:0:0:
263,268,154818,1,0,1:0:0:0:
263,268,154914,1,0,1:0:0:0:
263,268,155011,1,8,1:2:0:0:
292,60,155205,1,2,0:0:0:0:
292,60,155301,1,2,0:0:0:0:
292,60,155398,22,0,L|272:112,1,40,4|0,1:2|0:0,0:0:0:0:
236,192,155592,2,0,L|216:140,1,40,2|0,1:2|0:0,0:0:0:0:
312,170,155785,2,0,L|364:190,1,40,8|0,1:2|0:0,0:0:0:0:
304,296,155979,1,0,1:0:0:0:
304,296,156076,1,0,1:0:0:0:
304,296,156172,22,0,L|350:185,1,120.000004577637,4|0,1:2|0:0,0:0:0:0:
350,185,156947,22,0,L|330:133,1,40,4|0,1:2|0:0,0:0:0:0:
306,41,157140,2,0,L|286:93,1,40,2|0,1:2|0:0,0:0:0:0:
382,77,157334,2,0,L|434:57,1,40,8|0,1:2|0:0,0:0:0:0:
496,84,157527,1,2,1:2:0:0:
496,84,157624,1,2,1:2:0:0:
492,124,157721,21,0,1:0:0:0:
488,164,157818,1,0,1:0:0:0:
484,204,157914,2,0,L|504:206,2,20,0|0|0,1:0|1:0|1:0,0:0:0:0:
408,183,158108,21,0,1:0:0:0:
412,143,158205,1,0,1:0:0:0:
416,103,158301,1,0,1:2:0:0:
420,63,158398,1,0,1:2:0:0:
472,8,158495,38,2,P|420:64|349:37,1,160,4|8,1:2|1:2,0:1:0:0:
236,64,159076,1,2,0:1:0:0:
196,68,159172,1,2,0:1:0:0:
200,28,159269,21,0,1:0:0:0:
162,43,159366,1,2,0:1:0:0:
124,57,159463,1,0,0:0:0:0:
96,52,159559,21,2,0:1:0:0:
84,80,159656,1,8,1:2:0:0:
72,105,159753,1,0,0:0:0:0:
48,116,159850,21,2,0:1:0:0:
50,138,159947,1,2,0:1:0:0:
56,148,160043,21,0,1:0:0:0:
60,160,160140,2,0,L|52:208,1,40
112,252,160334,21,2,0:1:0:0:
116,264,160430,2,0,L|108:312,1,40,8|0,1:2|0:0,0:0:0:0:
168,192,160624,21,0,0:0:0:0:
164,180,160721,2,0,L|170:140,1,40,2|0,0:1|1:0,0:0:0:0:
224,296,160914,21,0,0:0:0:0:
220,284,161011,2,0,L|226:244,1,40,0|2,0:0|1:0,0:0:0:0:
300,212,161205,21,8,1:2:0:0:
324,224,161301,1,2,0:1:0:0:
360,216,161398,1,0,1:0:0:0:
400,232,161495,1,2,0:1:0:0:
452,224,161592,22,0,L|460:312,1,80,4|2,0:0|0:1,0:0:0:0:
380,188,161882,2,2,L|330:176,1,40,0|8,2:2|1:2,0:1:0:0:
452,148,162076,2,0,L|520:144,1,40,2|2,0:1|0:1,0:0:0:0:
384,108,162269,22,2,B|368:84|368:84|384:20,1,80,2|0,0:1|0:0,0:1:0:0:
460,32,162559,2,2,L|448:82,1,40,2|0,0:1|0:0,0:1:0:0:
380,188,162753,2,2,L|330:176,1,40,8|0,1:2|0:0,0:1:0:0:
296,112,162947,2,2,L|246:124,1,40,2|0,0:1|0:0,0:1:0:0:
199,179,163140,22,2,B|176:153|176:153|180:65,1,120,2|2,1:1|0:1,0:1:0:0:
170,50,163527,2,2,L|90:45,1,80,8|2,1:2|0:1,0:1:0:0:
61,141,163914,22,2,B|122:143|122:143|136:176|136:176|200:179,1,160,2|8,1:0|1:2,0:1:0:0:
256,232,164398,1,0,1:0:0:0:
248,264,164495,1,0,1:0:0:0:
252,296,164592,1,0,1:0:0:0:
266,323,164689,22,2,B|184:296|196:364|114:340,1,160,4|8,1:2|1:2,0:1:0:0:
336,360,165269,1,2,0:1:0:0:
344,340,165366,1,2,0:1:0:0:
352,316,165463,2,0,L|392:308,1,40,2|0,1:1|0:0,0:0:0:0:
444,212,165656,21,2,0:1:0:0:
428,231,165753,2,0,L|387:225,1,40,2|8,2:1|1:2,0:0:0:0:
332,168,165947,21,2,0:1:0:0:
351,152,166043,2,0,L|345:111,1,40,2|0,2:1|0:0,0:0:0:0:
328,36,166237,21,2,1:0:0:0:
292,52,166334,1,0,0:1:0:0:
252,52,166430,1,0,0:0:0:0:
216,36,166527,1,2,0:1:0:0:
188,8,166624,22,0,L|136:16,1,40,8|2,1:2|0:1,0:0:0:0:
108,88,166818,2,0,L|160:96,1,40,0|2,0:0|0:1,0:0:0:0:
196,160,167011,1,0,1:0:0:0:
196,160,167108,2,2,L|224:156,2,20,2|0|0,0:1|0:0|0:0,0:1:0:0:
124,196,167301,21,2,1:1:0:0:
108,215,167398,2,0,L|67:209,1,40,8|0,1:2|2:2,0:0:0:0:
176,256,167592,2,0,L|216:250,1,40,0|0,1:2|1:2,0:0:0:0:
72,324,167785,21,4,1:2:0:0:
112,332,167882,1,2,0:1:0:0:
152,340,167979,1,0,0:0:0:0:
192,348,168076,1,2,0:1:0:0:
224,368,168172,21,8,1:2:0:0:
244,332,168269,1,0,0:0:0:0:
280,312,168366,1,2,0:1:0:0:
320,308,168463,1,2,0:1:0:0:
360,320,168559,22,0,B|382:331|382:331|458:327,1,80,0|2,1:0|1:1,0:0:0:0:
480,268,168850,1,0,1:0:0:0:
480,268,168947,2,0,B|458:257|458:257|382:261,1,80,8|2,1:2|0:1,0:0:0:0:
304,168,169334,22,2,B|332:192|332:192|420:188,1,120,4|0,1:2|0:0,0:1:0:0:
472,132,169721,2,0,B|444:108|444:108|356:112,1,120,4|0,1:2|0:0,0:0:0:0:
304,168,170108,22,0,L|265:171,1,40,2|0,1:0|1:0,0:0:0:0:
288,92,170301,2,0,L|248:94,1,40,0|0,1:0|1:0,0:0:0:0:
208,24,170495,1,0,1:0:0:0:
176,56,170592,1,0,1:0:0:0:
132,68,170689,1,0,1:0:0:0:
88,60,170785,1,0,1:0:0:0:
56,32,170882,21,4,1:2:0:0:
48,40,170979,2,0,L|8:45,1,40,2|0,0:1|0:0,0:0:0:0:
36,116,171172,1,0,0:0:0:0:
60,152,171269,1,8,1:2:0:0:
60,196,171366,1,0,0:0:0:0:
36,232,171463,2,0,L|76:227,1,40,2|0,0:1|0:0,0:0:0:0:
132,284,171656,21,2,1:1:0:0:
124,292,171753,2,0,L|119:332,1,40,2|0,0:1|0:0,0:0:0:0:
204,368,171947,2,0,L|199:328,1,40,2|8,0:1|1:2,0:0:0:0:
316,340,172140,1,2,0:1:0:0:
304,336,172237,1,2,0:1:0:0:
292,332,172334,1,2,0:1:0:0:
280,328,172430,22,0,B|272:300|272:300|287:251,1,80,2|0,1:1|0:0,0:0:0:0:
364,228,172721,1,2,0:1:0:0:
368,240,172818,2,0,L|352:292,1,40,8|0,1:2|0:0,0:0:0:0:
444,324,173011,2,0,L|428:272,1,40,2|0,2:1|0:0,0:0:0:0:
480,95,173205,22,2,L|443:209,1,120,2|2,1:0|1:0,0:1:0:0:
443,210,173592,1,8,1:2:0:0:
368,116,173785,1,2,1:1:0:0:
368,116,173882,1,2,1:1:0:0:
368,116,173979,22,0,L|384:168,1,40,4|0,1:2|0:0,0:0:0:0:
364,60,174172,2,0,L|380:112,1,40,2|0,0:1|0:0,0:0:0:0:
304,40,174366,22,0,L|356:56,1,40,8|0,1:2|0:0,0:0:0:0:
248,68,174559,2,0,L|300:52,1,40,2|0,2:1|0:0,0:0:0:0:
244,124,174753,22,0,L|260:72,1,40,0|0,1:2|0:0,0:0:0:0:
240,180,174947,2,0,L|256:128,1,40,2|0,0:1|0:0,0:0:0:0:
180,200,175140,22,0,L|232:184,1,40,8|0,1:2|0:0,0:0:0:0:
124,172,175334,2,0,L|176:188,1,40,2|0,2:1|0:0,0:0:0:0:
60,128,175527,21,0,1:0:0:0:
72,112,175624,2,0,L|64:52,1,40,2|0,0:1|0:0,0:0:0:0:
56,204,175818,2,0,L|48:264,1,40,2|8,0:1|1:2,0:0:0:0:
64,320,176011,1,0,0:0:0:0:
104,300,176108,1,2,0:1:0:0:
148,300,176205,1,2,0:1:0:0:
188,320,176301,22,2,B|216:340|216:340|308:332,1,120,0|0,1:0|2:0,0:1:0:0:
376,316,176689,1,0,1:0:0:0:
356,276,176785,1,2,1:1:0:0:
356,232,176882,1,2,1:1:0:0:
376,192,176979,1,0,1:0:0:0:
412,168,177076,22,2,B|464:172,1,40,4|0,1:2|2:0,0:1:0:0:
479,88,177269,2,2,B|440:92,1,40,2|0,0:1|2:0,0:1:0:0:
372,52,177463,1,8,1:2:0:0:
360,96,177559,1,2,0:1:0:0:
324,68,177656,1,0,0:0:0:0:
312,112,177753,1,2,0:1:0:0:
276,84,177850,22,0,L|232:80,1,40,0|0,1:0|0:0,0:0:0:0:
144,168,178043,1,0,0:0:0:0:
152,152,178140,2,0,L|196:148,1,40,2|8,2:1|1:2,0:0:0:0:
252,204,178334,1,0,0:0:0:0:
236,216,178430,2,0,L|242:255,1,40,2|0,2:1|0:0,0:0:0:0:
188,316,178624,21,0,1:0:0:0:
204,328,178721,2,0,L|197:367,1,40,2|0,2:1|0:0,0:0:0:0:
280,364,178914,1,2,2:1:0:0:
292,320,179011,1,8,1:2:0:0:
328,348,179108,1,2,0:1:0:0:
340,304,179205,22,0,L|384:308,1,40,0|2,0:0|0:1,0:0:0:0:
472,224,179398,1,0,1:0:0:0:
460,240,179495,2,0,L|416:236,1,40,2|0,0:1|0:1,0:0:0:0:
364,184,179689,22,0,L|354:140,1,40,0|8,0:0|1:2,0:0:0:0:
428,0,179882,1,2,0:1:0:0:
444,36,179979,1,0,1:0:0:0:
444,76,180076,1,0,1:0:0:0:
424,112,180172,22,2,L|306:88,1,120,4|0,1:2|0:0,0:1:0:0:
208,16,180559,1,8,1:2:0:0:
204,32,180656,1,2,0:1:0:0:
200,48,180753,2,0,L|244:44,1,40,2|0,0:1|0:0,0:0:0:0:
136,8,180947,22,2,B|124:48|124:48|136:84,1,80,2|0,1:1|0:0,0:1:0:0:
200,124,181237,1,2,0:1:0:0:
200,124,181334,2,0,L|192:208,1,80,8|2,1:2|0:1,0:0:0:0:
252,344,181721,22,0,B|220:364|220:364|139:348,1,120,4|0,1:2|0:0,0:0:0:0:
92,284,182108,2,0,B|124:264|124:264|205:280,1,120,4|0,1:2|0:0,0:0:0:0:
268,236,182495,21,0,1:0:0:0:
264,196,182592,1,0,1:0:0:0:
260,156,182689,2,0,L|264:128,2,20,0|0|0,1:0|1:0|1:0,0:0:0:0:
336,172,182882,21,0,1:0:0:0:
340,212,182979,1,0,1:0:0:0:
344,252,183076,1,0,1:0:0:0:
348,292,183172,1,0,1:0:0:0:
424,308,183269,21,4,0:0:0:0:
240,340,189463,22,0,P|280:336|312:300,1,80,4|2,1:2|0:1,0:0:0:0:
432,384,189850,2,0,P|399:364|386:327,1,80,8|2,1:2|0:1,0:0:0:0:
372,168,190237,2,0,L|360:248,1,80,2|2,1:2|0:1,0:0:0:0:
360,247,190527,1,2,0:0:0:0:
360,247,190624,2,0,B|335:231|335:231|285:235,1,80,8|2,1:2|0:1,0:0:0:0:
224,184,190914,1,0,0:0:0:0:
224,184,191011,22,0,L|136:180,1,80,2|2,1:2|0:1,0:0:0:0:
172,32,191398,2,0,B|188:57|188:57|185:108,1,80,8|2,1:2|0:1,0:0:0:0:
88,252,191785,1,0,1:0:0:0:
72,216,191882,1,0,0:0:0:0:
56,180,191979,1,2,0:1:0:0:
72,144,192076,1,2,0:0:0:0:
92,108,192172,1,8,1:2:0:0:
224,184,192366,1,2,0:1:0:0:
224,184,192463,1,2,0:0:0:0:
224,184,192559,22,0,L|204:236,1,40,4|0,1:2|0:0,0:0:0:0:
180,328,192753,2,0,L|160:276,1,40,2|0,1:2|0:0,0:0:0:0:
256,292,192947,2,0,L|308:312,1,40,8|0,1:2|0:0,0:0:0:0:
372,284,193140,1,2,1:1:0:0:
372,284,193237,1,0,1:0:0:0:
372,284,193334,22,0,L|400:240,1,40,0|0,1:0|0:0,0:0:0:0:
436,336,193527,2,0,L|464:380,1,40,2|0,1:2|0:0,0:0:0:0:
512,260,193721,2,0,L|456:268,1,40,8|0,1:2|0:0,0:0:0:0:
452,188,193914,1,0,1:0:0:0:
452,188,194011,1,0,1:0:0:0:
452,188,194108,22,0,L|472:136,1,40,2|0,1:2|1:0,0:0:0:0:
496,44,194301,2,0,L|516:96,1,40,2|0,1:2|1:0,0:0:0:0:
420,80,194495,2,0,L|368:60,1,40,8|0,1:2|1:0,0:0:0:0:
306,100,194689,1,2,1:2:0:0:
306,100,194785,1,0,1:0:0:0:
306,100,194882,21,0,1:2:0:0:
270,104,194979,1,0,1:2:0:0:
234,108,195076,1,2,1:2:0:0:
198,112,195172,1,2,1:2:0:0:
202,184,195269,21,0,1:2:0:0:
242,180,195366,1,0,1:2:0:0:
282,176,195463,1,0,1:2:0:0:
322,172,195559,1,0,1:2:0:0:
394,196,195656,22,0,B|438:208|434:252|434:252|462:244|474:268,2,120,4|0|0,3:2|3:0|3:0,0:0:0:0:
382,116,196430,1,0,3:0:0:0:
455,146,196624,22,0,L|494:140,1,40,0|0,3:0|3:0,0:0:0:0:
343,109,196818,2,0,L|382:116,1,40,0|0,3:0|3:0,0:0:0:0:
274,16,197011,2,0,L|282:72,1,40,0|0,3:0|3:0,0:0:0:0:
269,138,197205,21,4,1:2:0:0:
318,134,203398,22,0,P|371:82|298:68,1,180.000006866455,4|0,1:2|0:0,0:0:0:0:
318,134,204172,22,0,P|394:82|298:68,1,240,4|0,1:2|0:0,0:0:0:0:
318,134,204947,22,0,P|371:82|298:68,1,180.000006866455,4|0,1:2|0:0,0:0:0:0:
251,115,205334,22,0,P|268:187|317:131,1,180.000006866455,4|0,1:2|0:0,0:0:0:0:
299,66,205721,22,0,P|229:45|252:115,1,180.000006866455,4|0,1:2|0:0,0:0:0:0:
251,115,206108,21,0,1:0:0:0:
251,115,206205,1,0,1:0:0:0:
251,115,206301,1,0,1:2:0:0:
251,115,206398,1,0,1:2:0:0:
251,115,206495,21,4,1:2:0:0:
228,260,206689,1,0,0:0:0:0:
228,260,207076,2,0,L|176:220,1,40,0|0,1:0|1:0,0:0:0:0:
116,168,207269,21,4,1:2:0:0:
116,168,207850,1,0,1:0:0:0:
147,172,207947,1,0,1:0:0:0:
175,176,208043,21,4,1:2:0:0:
24,124,208237,1,8,1:2:0:0:
144,16,208430,1,0,1:0:0:0:
296,72,208624,1,8,1:2:0:0:
175,176,208818,37,0,1:0:0:0:
135,180,208914,1,0,1:0:0:0:
95,184,209011,2,0,L|67:180,2,20,0|0|0,1:0|1:0|1:0,0:0:0:0:
124,256,209205,21,0,1:0:0:0:
164,252,209301,1,0,1:0:0:0:
204,248,209398,1,2,1:2:0:0:
244,244,209495,1,2,1:2:0:0:
276,316,209592,22,0,L|236:320,1,40,4|0,1:2|0:0,0:0:0:0:
349,307,209785,1,2,0:1:0:0:
164,328,209979,1,8,1:2:0:0:
164,328,210076,2,0,L|124:332,1,40,2|2,2:2|0:1,0:0:0:0:
349,307,210269,1,2,0:0:0:0:
349,307,210366,2,0,B|373:319|373:319|457:311,1,80,0|2,1:2|0:1,0:0:0:0:
496,280,210656,1,2,0:0:0:0:
496,280,210753,2,0,L|504:196,1,80,8|2,1:2|0:1,0:0:0:0:
349,307,211140,21,2,1:2:0:0:
300,244,211334,1,2,0:1:0:0:
316,84,211527,21,8,1:2:0:0:
380,232,211721,1,2,0:1:0:0:
272,320,211914,21,2,1:2:0:0:
136,220,212108,1,0,1:0:0:0:
136,220,212205,1,0,1:0:0:0:
136,220,212302,2,0,P|86:230|44:214,1,80,8|0,1:2|1:0,0:0:0:0:
152,56,212689,22,0,P|187:102|182:160,1,120,4|0,1:2|2:2,0:0:0:0:
136,220,213076,2,0,L|140:320,1,80,8|2,1:2|0:1,0:0:0:0:
140,376,213366,1,2,2:0:0:0:
140,376,213463,2,0,P|181:366|204:336,1,80,0|2,1:2|0:1,0:0:0:0:
139,299,213753,1,2,0:0:0:0:
139,299,213850,2,0,L|60:290,1,80,8|2,1:2|0:1,0:0:0:0:
208,260,214237,21,2,1:2:0:0:
345,236,214431,1,2,0:0:0:0:
412,276,214624,21,8,1:2:0:0:
272,308,214818,1,2,0:1:0:0:
280,96,215011,21,2,1:2:0:0:
420,123,215205,1,2,1:2:0:0:
345,311,215398,21,10,1:2:0:0:
345,311,215495,1,0,1:0:0:0:
345,311,215592,1,0,1:0:0:0:
345,311,215689,1,0,1:0:0:0:
345,311,215785,21,4,1:2:0:0:
301,379,215979,1,2,0:1:0:0:
305,163,216173,21,8,1:2:0:0:
349,231,216366,2,0,L|373:191,1,40,2|2,0:1|0:0,0:0:0:0:
453,51,216560,21,4,1:2:0:0:
373,47,216753,1,2,0:1:0:0:
349,231,216947,21,8,1:2:0:0:
429,235,217140,1,2,0:1:0:0:
301,83,217334,22,0,B|277:71|277:71|222:80,1,80,4|2,1:2|0:1,0:0:0:0:
209,67,217624,1,0,0:0:0:0:
209,67,217721,2,0,L|201:151,1,80,8|2,1:2|0:1,0:0:0:0:
349,231,218108,1,2,1:2:0:0:
202,147,218302,1,0,1:0:0:0:
202,147,218398,1,0,1:0:0:0:
202,147,218495,1,8,1:2:0:0:
173,355,218689,1,2,0:0:0:0:
173,355,218785,1,2,0:0:0:0:
173,355,218882,22,0,L|193:303,1,40,4|0,1:2|0:0,0:0:0:0:
229,223,219076,2,0,L|249:275,1,40,2|0,1:2|0:0,0:0:0:0:
153,245,219269,2,0,L|101:225,1,40,8|0,1:2|0:0,0:0:0:0:
161,119,219463,1,0,1:0:0:0:
161,119,219560,1,0,1:0:0:0:
161,119,219656,22,0,L|115:230,1,120.000004577637,4|0,1:2|0:0,0:0:0:0:
115,229,220431,22,0,L|167:249,1,40,4|0,1:2|0:0,0:0:0:0:
259,273,220624,2,0,L|207:293,1,40,2|0,1:2|0:0,0:0:0:0:
223,197,220818,2,0,L|243:145,1,40,8|0,1:2|0:0,0:0:0:0:
216,83,221011,1,2,1:2:0:0:
216,83,221108,1,2,1:2:0:0:
176,87,221205,21,0,1:0:0:0:
136,91,221302,1,0,1:0:0:0:
96,95,221398,2,0,L|94:75,2,20,0|0|0,1:0|1:0|1:0,0:0:0:0:
117,171,221592,21,0,1:0:0:0:
157,167,221689,1,0,1:0:0:0:
197,163,221785,1,0,1:2:0:0:
237,159,221882,1,0,1:2:0:0:
292,107,221979,21,4,1:2:0:0:
